  0
SECTION
  2
HEADER
  9
$ACADVER
  1
AC1015
  9
$ACADMAINTVER
 70
     6
  9
$DWGCODEPAGE
  3
ANSI_932
  9
$INSBASE
 10
0.0
 20
0.0
 30
0.0
  9
$EXTMIN
 10
24.426529
 20
17.844498
 30
0.0
  9
$EXTMAX
 10
201.332428
 20
119.683334
 30
0.0
  9
$LIMMIN
 10
0.0
 20
0.0
  9
$LIMMAX
 10
12.0
 20
9.0
  9
$ORTHOMODE
 70
     0
  9
$REGENMODE
 70
     1
  9
$FILLMODE
 70
     1
  9
$QTEXTMODE
 70
     0
  9
$MIRRTEXT
 70
     1
  9
$LTSCALE
 40
2.041246
  9
$ATTMODE
 70
     1
  9
$TEXTSIZE
 40
3.2
  9
$TRACEWID
 40
1.0
  9
$TEXTSTYLE
  7
Standard
  9
$CLAYER
  8
0
  9
$CELTYPE
  6
ByLayer
  9
$CECOLOR
 62
   256
  9
$CELTSCALE
 40
1.0
  9
$DISPSILH
 70
     0
  9
$DIMSCALE
 40
1.0
  9
$DIMASZ
 40
2.5
  9
$DIMEXO
 40
0.625
  9
$DIMDLI
 40
3.75
  9
$DIMRND
 40
0.0
  9
$DIMDLE
 40
0.0
  9
$DIMEXE
 40
1.25
  9
$DIMTP
 40
0.0
  9
$DIMTM
 40
0.0
  9
$DIMTXT
 40
2.5
  9
$DIMCEN
 40
0.09
  9
$DIMTSZ
 40
0.0
  9
$DIMTOL
 70
     0
  9
$DIMLIM
 70
     0
  9
$DIMTIH
 70
     0
  9
$DIMTOH
 70
     0
  9
$DIMSE1
 70
     0
  9
$DIMSE2
 70
     0
  9
$DIMTAD
 70
     0
  9
$DIMZIN
 70
     8
  9
$DIMBLK
  1

  9
$DIMASO
 70
     1
  9
$DIMSHO
 70
     0
  9
$DIMPOST
  1

  9
$DIMAPOST
  1

  9
$DIMALT
 70
     0
  9
$DIMALTD
 70
     3
  9
$DIMALTF
 40
0.03937
  9
$DIMLFAC
 40
1.0
  9
$DIMTOFL
 70
     1
  9
$DIMTVP
 40
0.0
  9
$DIMTIX
 70
     0
  9
$DIMSOXD
 70
     0
  9
$DIMSAH
 70
     0
  9
$DIMBLK1
  1

  9
$DIMBLK2
  1

  9
$DIMSTYLE
  2
ISO-25
  9
$DIMCLRD
 70
     0
  9
$DIMCLRE
 70
     0
  9
$DIMCLRT
 70
     0
  9
$DIMTFAC
 40
1.0
  9
$DIMGAP
 40
0.625
  9
$DIMJUST
 70
     0
  9
$DIMSD1
 70
     0
  9
$DIMSD2
 70
     0
  9
$DIMTOLJ
 70
     0
  9
$DIMTZIN
 70
     8
  9
$DIMALTZ
 70
     0
  9
$DIMALTTZ
 70
     0
  9
$DIMUPT
 70
     0
  9
$DIMDEC
 70
     2
  9
$DIMTDEC
 70
     2
  9
$DIMALTU
 70
     2
  9
$DIMALTTD
 70
     3
  9
$DIMTXSTY
  7
Standard
  9
$DIMAUNIT
 70
     0
  9
$DIMADEC
 70
     0
  9
$DIMALTRND
 40
0.0
  9
$DIMAZIN
 70
     0
  9
$DIMDSEP
 70
    44
  9
$DIMATFIT
 70
     3
  9
$DIMFRAC
 70
     0
  9
$DIMLDRBLK
  1

  9
$DIMLUNIT
 70
     2
  9
$DIMLWD
 70
    -2
  9
$DIMLWE
 70
    -2
  9
$DIMTMOVE
 70
     0
  9
$LUNITS
 70
     2
  9
$LUPREC
 70
     4
  9
$SKETCHINC
 40
1.0
  9
$FILLETRAD
 40
0.0
  9
$AUNITS
 70
     0
  9
$AUPREC
 70
     0
  9
$MENU
  1
.
  9
$ELEVATION
 40
0.0
  9
$PELEVATION
 40
0.0
  9
$THICKNESS
 40
0.0
  9
$LIMCHECK
 70
     0
  9
$CHAMFERA
 40
10.0
  9
$CHAMFERB
 40
10.0
  9
$CHAMFERC
 40
20.0
  9
$CHAMFERD
 40
0.0
  9
$SKPOLY
 70
     0
  9
$TDCREATE
 40
2456244.607767465
  9
$TDUCREATE
 40
2456244.232767465
  9
$TDUPDATE
 40
2456244.607767477
  9
$TDUUPDATE
 40
2456244.232767477
  9
$TDINDWG
 40
0.0000000116
  9
$TDUSRTIMER
 40
0.0000000116
  9
$USRTIMER
 70
     1
  9
$ANGBASE
 50
0.0
  9
$ANGDIR
 70
     0
  9
$PDMODE
 70
     0
  9
$PDSIZE
 40
0.0
  9
$PLINEWID
 40
0.0
  9
$SPLFRAME
 70
     0
  9
$SPLINETYPE
 70
     6
  9
$SPLINESEGS
 70
     8
  9
$HANDSEED
  5
4F4
  9
$SURFTAB1
 70
     6
  9
$SURFTAB2
 70
     6
  9
$SURFTYPE
 70
     6
  9
$SURFU
 70
     6
  9
$SURFV
 70
     6
  9
$UCSBASE
  2

  9
$UCSNAME
  2

  9
$UCSORG
 10
0.0
 20
0.0
 30
0.0
  9
$UCSXDIR
 10
1.0
 20
0.0
 30
0.0
  9
$UCSYDIR
 10
0.0
 20
1.0
 30
0.0
  9
$UCSORTHOREF
  2

  9
$UCSORTHOVIEW
 70
     0
  9
$UCSORGTOP
 10
0.0
 20
0.0
 30
0.0
  9
$UCSORGBOTTOM
 10
0.0
 20
0.0
 30
0.0
  9
$UCSORGLEFT
 10
0.0
 20
0.0
 30
0.0
  9
$UCSORGRIGHT
 10
0.0
 20
0.0
 30
0.0
  9
$UCSORGFRONT
 10
0.0
 20
0.0
 30
0.0
  9
$UCSORGBACK
 10
0.0
 20
0.0
 30
0.0
  9
$PUCSBASE
  2

  9
$PUCSNAME
  2

  9
$PUCSORG
 10
0.0
 20
0.0
 30
0.0
  9
$PUCSXDIR
 10
1.0
 20
0.0
 30
0.0
  9
$PUCSYDIR
 10
0.0
 20
1.0
 30
0.0
  9
$PUCSORTHOREF
  2

  9
$PUCSORTHOVIEW
 70
     0
  9
$PUCSORGTOP
 10
0.0
 20
0.0
 30
0.0
  9
$PUCSORGBOTTOM
 10
0.0
 20
0.0
 30
0.0
  9
$PUCSORGLEFT
 10
0.0
 20
0.0
 30
0.0
  9
$PUCSORGRIGHT
 10
0.0
 20
0.0
 30
0.0
  9
$PUCSORGFRONT
 10
0.0
 20
0.0
 30
0.0
  9
$PUCSORGBACK
 10
0.0
 20
0.0
 30
0.0
  9
$USERI1
 70
     0
  9
$USERI2
 70
     0
  9
$USERI3
 70
     0
  9
$USERI4
 70
     0
  9
$USERI5
 70
     0
  9
$USERR1
 40
0.0
  9
$USERR2
 40
0.0
  9
$USERR3
 40
0.0
  9
$USERR4
 40
0.0
  9
$USERR5
 40
0.0
  9
$WORLDVIEW
 70
     1
  9
$SHADEDGE
 70
     3
  9
$SHADEDIF
 70
    70
  9
$TILEMODE
 70
     1
  9
$MAXACTVP
 70
    64
  9
$PINSBASE
 10
0.0
 20
0.0
 30
0.0
  9
$PLIMCHECK
 70
     0
  9
$PEXTMIN
 10
1.000000E+20
 20
1.000000E+20
 30
0.0
  9
$PEXTMAX
 10
-1.000000E+20
 20
-1.000000E+20
 30
0.0
  9
$PLIMMIN
 10
0.0
 20
0.0
  9
$PLIMMAX
 10
12.0
 20
9.0
  9
$UNITMODE
 70
     0
  9
$VISRETAIN
 70
     1
  9
$PLINEGEN
 70
     0
  9
$PSLTSCALE
 70
     1
  9
$TREEDEPTH
 70
  3020
  9
$CMLSTYLE
  2
Standard
  9
$CMLJUST
 70
     0
  9
$CMLSCALE
 40
20.0
  9
$PROXYGRAPHICS
 70
     1
  9
$MEASUREMENT
 70
     1
  9
$CELWEIGHT
370
    -1
  9
$ENDCAPS
280
     0
  9
$JOINSTYLE
280
     0
  9
$LWDISPLAY
290
     0
  9
$INSUNITS
 70
     4
  9
$HYPERLINKBASE
  1

  9
$STYLESHEET
  1

  9
$XEDIT
290
     1
  9
$CEPSNTYPE
380
     0
  9
$PSTYLEMODE
290
     1
  9
$FINGERPRINTGUID
  2
{6BC9C2AD-FB97-4DAC-B770-B3721D4437D3}
  9
$VERSIONGUID
  2
{FAEB1C32-E019-11D5-929B-00C0DF256EC4}
  9
$EXTNAMES
290
     1
  9
$PSVPSCALE
 40
0.0
  9
$OLESTARTUP
290
     0
  0
ENDSEC
  0
SECTION
  2
CLASSES
  0
CLASS
  1
ACDBDICTIONARYWDFLT
  2
AcDbDictionaryWithDefault
  3
ObjectDBX Classes
 90
        0
280
     0
281
     0
  0
CLASS
  1
VISUALSTYLE
  2
AcDbVisualStyle
  3
ObjectDBX Classes
 90
     4095
280
     0
281
     0
  0
CLASS
  1
SCALE
  2
AcDbScale
  3
ObjectDBX Classes
 90
     1153
280
     0
281
     0
  0
CLASS
  1
DICTIONARYVAR
  2
AcDbDictionaryVar
  3
ObjectDBX Classes
 90
        0
280
     0
281
     0
  0
CLASS
  1
ACDBPLACEHOLDER
  2
AcDbPlaceHolder
  3
ObjectDBX Classes
 90
        0
280
     0
281
     0
  0
CLASS
  1
LAYOUT
  2
AcDbLayout
  3
ObjectDBX Classes
 90
        0
280
     0
281
     0
  0
ENDSEC
  0
SECTION
  2
TABLES
  0
TABLE
  2
VPORT
  5
8
330
0
100
AcDbSymbolTable
 70
     1
  0
VPORT
  5
29
330
8
100
AcDbSymbolTableRecord
100
AcDbViewportTableRecord
  2
*Active
 70
     0
 10
0.0
 20
0.0
 11
1.0
 21
1.0
 12
112.879478
 22
68.763916
 13
0.0
 23
0.0
 14
1.0
 24
1.0
 15
0.0
 25
0.0
 16
0.0
 26
0.0
 36
1.0
 17
0.0
 27
0.0
 37
0.0
 40
105.644313
 41
1.691288
 42
50.0
 43
0.0
 44
0.0
 50
0.0
 51
0.0
 71
     0
 72
   100
 73
     1
 74
     3
 75
     0
 76
     0
 77
     0
 78
     0
281
     0
 65
     1
110
0.0
120
0.0
130
0.0
111
1.0
121
0.0
131
0.0
112
0.0
122
1.0
132
0.0
 79
     0
146
0.0
  0
ENDTAB
  0
TABLE
  2
LTYPE
  5
5
330
0
100
AcDbSymbolTable
 70
     5
  0
LTYPE
  5
14
330
5
100
AcDbSymbolTableRecord
100
AcDbLinetypeTableRecord
  2
ByBlock
 70
     0
  3

 72
    65
 73
     0
 40
0.0
  0
LTYPE
  5
15
330
5
100
AcDbSymbolTableRecord
100
AcDbLinetypeTableRecord
  2
ByLayer
 70
     0
  3

 72
    65
 73
     0
 40
0.0
  0
LTYPE
  5
16
330
5
100
AcDbSymbolTableRecord
100
AcDbLinetypeTableRecord
  2
Continuous
 70
     0
  3
Solid line
 72
    65
 73
     0
 40
0.0
  0
LTYPE
  5
5D
330
5
100
AcDbSymbolTableRecord
100
AcDbLinetypeTableRecord
  2
DASHED
 70
     0
  3
DASHED
 72
    83
 73
     2
 40
0.75
 49
0.5
 74
     0
 49
-0.25
 74
     0
  0
LTYPE
  5
5E
330
5
100
AcDbSymbolTableRecord
100
AcDbLinetypeTableRecord
  2
HIDDEN
 70
     0
  3
HIDDEN
 72
    83
 73
     2
 40
0.375
 49
0.25
 74
     0
 49
-0.125
 74
     0
  0
LTYPE
  5
5F
330
5
100
AcDbSymbolTableRecord
100
AcDbLinetypeTableRecord
  2
CENTER
 70
     0
  3
CENTER
 72
    83
 73
     4
 40
2.0
 49
1.25
 74
     0
 49
-0.25
 74
     0
 49
0.25
 74
     0
 49
-0.25
 74
     0
  0
LTYPE
  5
60
330
5
100
AcDbSymbolTableRecord
100
AcDbLinetypeTableRecord
  2
PHANTOM
 70
     0
  3
PHANTOM
 72
    83
 73
     6
 40
2.5
 49
1.25
 74
     0
 49
-0.25
 74
     0
 49
0.25
 74
     0
 49
-0.25
 74
     0
 49
0.25
 74
     0
 49
-0.25
 74
     0
  0
ENDTAB
  0
TABLE
  2
LAYER
  5
2
330
0
100
AcDbSymbolTable
 70
     2
  0
LAYER
  5
10
330
2
100
AcDbSymbolTableRecord
100
AcDbLayerTableRecord
  2
0
 70
     0
 62
     7
  6
Continuous
370
    -3
390
F
  0
LAYER
  5
61
330
2
100
AcDbSymbolTableRecord
100
AcDbLayerTableRecord
  2
001
 70
     0
 62
     7
  6
Continuous
370
    -3
390
F
  0
ENDTAB
  0
TABLE
  2
STYLE
  5
3
330
0
100
AcDbSymbolTable
 70
     2
  0
STYLE
  5
11
330
3
100
AcDbSymbolTableRecord
100
AcDbTextStyleTableRecord
  2
Standard
 70
     0
 40
0.0
 41
1.0
 50
0.0
 71
     0
 42
0.2
  3
TXT
  4
BIGFONT
  0
STYLE
  5
62
330
3
100
AcDbSymbolTableRecord
100
AcDbTextStyleTableRecord
  2
TATEGAKI
 70
     4
 40
1.0
 41
1.0
 50
0.0
 71
     0
 42
0.2
  3
TXT
  4
BIGFONT
  0
ENDTAB
  0
TABLE
  2
VIEW
  5
6
330
0
100
AcDbSymbolTable
 70
     0
  0
ENDTAB
  0
TABLE
  2
UCS
  5
7
330
0
100
AcDbSymbolTable
 70
     0
  0
ENDTAB
  0
TABLE
  2
APPID
  5
9
330
0
100
AcDbSymbolTable
 70
     1
  0
APPID
  5
12
330
9
100
AcDbSymbolTableRecord
100
AcDbRegAppTableRecord
  2
ACAD
 70
     0
  0
ENDTAB
  0
TABLE
  2
DIMSTYLE
  5
A
330
0
100
AcDbSymbolTable
 70
     2
100
AcDbDimStyleTable
  0
DIMSTYLE
105
27
330
A
100
AcDbSymbolTableRecord
100
AcDbDimStyleTableRecord
  2
ISO-25
 70
     0
 41
2.5
 42
0.625
 43
3.75
 44
1.25
 73
     0
 74
     0
 77
     1
 78
     8
140
2.5
141
2.5
143
0.03937
147
0.625
171
     3
172
     1
271
     2
272
     2
274
     3
278
    44
283
     0
284
     8
340
11
  0
DIMSTYLE
105
63
102
{ACAD_REACTORS
330
43D
330
43E
330
44B
330
44C
330
44D
330
44E
102
}
330
A
100
AcDbSymbolTableRecord
100
AcDbDimStyleTableRecord
  2
Standard
 70
     0
 41
1.5
 42
0.0
 44
2.75
 73
     0
 74
     0
 77
     1
 78
     8
 79
     2
140
4.0
146
0.8
147
1.0
172
     1
179
     1
271
     1
340
11
  0
ENDTAB
  0
TABLE
  2
BLOCK_RECORD
  5
1
330
0
100
AcDbSymbolTable
 70
     9
  0
BLOCK_RECORD
  5
1F
330
1
100
AcDbSymbolTableRecord
100
AcDbBlockTableRecord
  2
*Model_Space
340
22
  0
BLOCK_RECORD
  5
1B
330
1
100
AcDbSymbolTableRecord
100
AcDbBlockTableRecord
  2
*Paper_Space
340
1E
  0
BLOCK_RECORD
  5
23
330
1
100
AcDbSymbolTableRecord
100
AcDbBlockTableRecord
  2
*Paper_Space0
340
26
  0
BLOCK_RECORD
  5
64
330
1
100
AcDbSymbolTableRecord
100
AcDbBlockTableRecord
  2
M-1-1
340
0
102
{BLKREFS
331
43B
102
}
  0
BLOCK_RECORD
  5
25A
330
1
100
AcDbSymbolTableRecord
100
AcDbBlockTableRecord
  2
C32GUX-2
340
0
102
{BLKREFS
331
43C
102
}
  0
BLOCK_RECORD
  5
3BD
330
1
100
AcDbSymbolTableRecord
100
AcDbBlockTableRecord
  2
*D3
340
0
  0
BLOCK_RECORD
  5
3D1
330
1
100
AcDbSymbolTableRecord
100
AcDbBlockTableRecord
  2
*D4
340
0
  0
BLOCK_RECORD
  5
3E7
330
1
100
AcDbSymbolTableRecord
100
AcDbBlockTableRecord
  2
*D5
340
0
  0
BLOCK_RECORD
  5
3FE
330
1
100
AcDbSymbolTableRecord
100
AcDbBlockTableRecord
  2
*D6
340
0
  0
BLOCK_RECORD
  5
412
330
1
100
AcDbSymbolTableRecord
100
AcDbBlockTableRecord
  2
*D7
340
0
  0
BLOCK_RECORD
  5
426
330
1
100
AcDbSymbolTableRecord
100
AcDbBlockTableRecord
  2
*D8
340
0
  0
ENDTAB
  0
ENDSEC
  0
SECTION
  2
BLOCKS
  0
BLOCK
  5
20
330
1F
100
AcDbEntity
  8
0
100
AcDbBlockBegin
  2
*Model_Space
 70
     0
 10
0.0
 20
0.0
 30
0.0
  3
*Model_Space
  1

  0
ENDBLK
  5
21
330
1F
100
AcDbEntity
  8
0
100
AcDbBlockEnd
  0
BLOCK
  5
1C
330
1B
100
AcDbEntity
 67
     1
  8
0
100
AcDbBlockBegin
  2
*Paper_Space
 70
     0
 10
0.0
 20
0.0
 30
0.0
  3
*Paper_Space
  1

  0
ENDBLK
  5
1D
330
1B
100
AcDbEntity
 67
     1
  8
0
100
AcDbBlockEnd
  0
BLOCK
  5
24
330
23
100
AcDbEntity
  8
0
100
AcDbBlockBegin
  2
*Paper_Space0
 70
     0
 10
0.0
 20
0.0
 30
0.0
  3
*Paper_Space0
  1

  0
ENDBLK
  5
25
330
23
100
AcDbEntity
  8
0
100
AcDbBlockEnd
  0
BLOCK
  5
65
330
64
100
AcDbEntity
  8
0
100
AcDbBlockBegin
  2
M-1-1
 70
     0
 10
0.0
 20
0.0
 30
0.0
  3
M-1-1
  1

  0
POLYLINE
  5
67
330
64
100
AcDbEntity
  8
001
 62
     5
370
    50
100
AcDb2dPolyline
 66
     1
 10
0.0
 20
0.0
 30
0.0
  0
VERTEX
  5
69
330
67
100
AcDbEntity
  8
001
 62
     5
370
    50
100
AcDbVertex
100
AcDb2dVertex
 10
57.102085
 20
66.344699
 30
0.0
  0
VERTEX
  5
6A
330
67
100
AcDbEntity
  8
001
 62
     5
370
    50
100
AcDbVertex
100
AcDb2dVertex
 10
57.072582
 20
66.33839
 30
0.0
  0
VERTEX
  5
6B
330
67
100
AcDbEntity
  8
001
 62
     5
370
    50
100
AcDbVertex
100
AcDb2dVertex
 10
57.043144
 20
66.331791
 30
0.0
  0
VERTEX
  5
6C
330
67
100
AcDbEntity
  8
001
 62
     5
370
    50
100
AcDbVertex
100
AcDb2dVertex
 10
56.96592
 20
66.311742
 30
0.0
  0
VERTEX
  5
6D
330
67
100
AcDbEntity
  8
001
 62
     5
370
    50
100
AcDbVertex
100
AcDb2dVertex
 10
56.889709
 20
66.288045
 30
0.0
  0
VERTEX
  5
6E
330
67
100
AcDbEntity
  8
001
 62
     5
370
    50
100
AcDbVertex
100
AcDb2dVertex
 10
56.814323
 20
66.260923
 30
0.0
  0
VERTEX
  5
6F
330
67
100
AcDbEntity
  8
001
 62
     5
370
    50
100
AcDbVertex
100
AcDb2dVertex
 10
56.740211
 20
66.230521
 30
0.0
  0
VERTEX
  5
70
330
67
100
AcDbEntity
  8
001
 62
     5
370
    50
100
AcDbVertex
100
AcDb2dVertex
 10
56.667165
 20
66.196672
 30
0.0
  0
VERTEX
  5
71
330
67
100
AcDbEntity
  8
001
 62
     5
370
    50
100
AcDbVertex
100
AcDb2dVertex
 10
56.595687
 20
66.159616
 30
0.0
  0
VERTEX
  5
72
330
67
100
AcDbEntity
  8
001
 62
     5
370
    50
100
AcDbVertex
100
AcDb2dVertex
 10
56.525499
 20
66.119229
 30
0.0
  0
VERTEX
  5
73
330
67
100
AcDbEntity
  8
001
 62
     5
370
    50
100
AcDbVertex
100
AcDb2dVertex
 10
56.457141
 20
66.075819
 30
0.0
  0
VERTEX
  5
74
330
67
100
AcDbEntity
  8
001
 62
     5
370
    50
100
AcDbVertex
100
AcDb2dVertex
 10
56.390305
 20
66.029181
 30
0.0
  0
VERTEX
  5
75
330
67
100
AcDbEntity
  8
001
 62
     5
370
    50
100
AcDbVertex
100
AcDb2dVertex
 10
56.325543
 20
65.979703
 30
0.0
  0
VERTEX
  5
76
330
67
100
AcDbEntity
  8
001
 62
     5
370
    50
100
AcDbVertex
100
AcDb2dVertex
 10
56.262532
 20
65.927136
 30
0.0
  0
VERTEX
  5
77
330
67
100
AcDbEntity
  8
001
 62
     5
370
    50
100
AcDbVertex
100
AcDb2dVertex
 10
56.201817
 20
65.871933
 30
0.0
  0
VERTEX
  5
78
330
67
100
AcDbEntity
  8
001
 62
     5
370
    50
100
AcDbVertex
100
AcDb2dVertex
 10
56.143081
 20
65.813802
 30
0.0
  0
VERTEX
  5
79
330
67
100
AcDbEntity
  8
001
 62
     5
370
    50
100
AcDbVertex
100
AcDb2dVertex
 10
56.086839
 20
65.753254
 30
0.0
  0
VERTEX
  5
7A
330
67
100
AcDbEntity
  8
001
 62
     5
370
    50
100
AcDbVertex
100
AcDb2dVertex
 10
56.032797
 20
65.689967
 30
0.0
  0
VERTEX
  5
7B
330
67
100
AcDbEntity
  8
001
 62
     5
370
    50
100
AcDbVertex
100
AcDb2dVertex
 10
55.981426
 20
65.624492
 30
0.0
  0
VERTEX
  5
7C
330
67
100
AcDbEntity
  8
001
 62
     5
370
    50
100
AcDbVertex
100
AcDb2dVertex
 10
55.932465
 20
65.556494
 30
0.0
  0
VERTEX
  5
7D
330
67
100
AcDbEntity
  8
001
 62
     5
370
    50
100
AcDbVertex
100
AcDb2dVertex
 10
55.886329
 20
65.486548
 30
0.0
  0
VERTEX
  5
7E
330
67
100
AcDbEntity
  8
001
 62
     5
370
    50
100
AcDbVertex
100
AcDb2dVertex
 10
55.842801
 20
65.41432
 30
0.0
  0
VERTEX
  5
7F
330
67
100
AcDbEntity
  8
001
 62
     5
370
    50
100
AcDbVertex
100
AcDb2dVertex
 10
55.80223
 20
65.34039
 30
0.0
  0
VERTEX
  5
80
330
67
100
AcDbEntity
  8
001
 62
     5
370
    50
100
AcDbVertex
100
AcDb2dVertex
 10
55.764445
 20
65.264445
 30
0.0
  0
VERTEX
  5
81
330
67
100
AcDbEntity
  8
001
 62
     5
370
    50
100
AcDbVertex
100
AcDb2dVertex
 10
55.72973
 20
65.187048
 30
0.0
  0
VERTEX
  5
82
330
67
100
AcDbEntity
  8
001
 62
     5
370
    50
100
AcDbVertex
100
AcDb2dVertex
 10
55.69796
 20
65.107923
 30
0.0
  0
VERTEX
  5
83
330
67
100
AcDbEntity
  8
001
 62
     5
370
    50
100
AcDbVertex
100
AcDb2dVertex
 10
55.669351
 20
65.027602
 30
0.0
  0
VERTEX
  5
84
330
67
100
AcDbEntity
  8
001
 62
     5
370
    50
100
AcDbVertex
100
AcDb2dVertex
 10
55.643823
 20
64.945861
 30
0.0
  0
VERTEX
  5
85
330
67
100
AcDbEntity
  8
001
 62
     5
370
    50
100
AcDbVertex
100
AcDb2dVertex
 10
55.621528
 20
64.86318
 30
0.0
  0
VERTEX
  5
86
330
67
100
AcDbEntity
  8
001
 62
     5
370
    50
100
AcDbVertex
100
AcDb2dVertex
 10
55.602423
 20
64.779404
 30
0.0
  0
VERTEX
  5
87
330
67
100
AcDbEntity
  8
001
 62
     5
370
    50
100
AcDbVertex
100
AcDb2dVertex
 10
55.586606
 20
64.694945
 30
0.0
  0
VERTEX
  5
88
330
67
100
AcDbEntity
  8
001
 62
     5
370
    50
100
AcDbVertex
100
AcDb2dVertex
 10
55.57406
 20
64.609726
 30
0.0
  0
VERTEX
  5
89
330
67
100
AcDbEntity
  8
001
 62
     5
370
    50
100
AcDbVertex
100
AcDb2dVertex
 10
55.564839
 20
64.524084
 30
0.0
  0
VERTEX
  5
8A
330
67
100
AcDbEntity
  8
001
 62
     5
370
    50
100
AcDbVertex
100
AcDb2dVertex
 10
55.558942
 20
64.438028
 30
0.0
  0
VERTEX
  5
8B
330
67
100
AcDbEntity
  8
001
 62
     5
370
    50
100
AcDbVertex
100
AcDb2dVertex
 10
55.556389
 20
64.351808
 30
0.0
  0
VERTEX
  5
8C
330
67
100
AcDbEntity
  8
001
 62
     5
370
    50
100
AcDbVertex
100
AcDb2dVertex
 10
55.557183
 20
64.265524
 30
0.0
  0
VERTEX
  5
8D
330
67
100
AcDbEntity
  8
001
 62
     5
370
    50
100
AcDbVertex
100
AcDb2dVertex
 10
55.561324
 20
64.179336
 30
0.0
  0
VERTEX
  5
8E
330
67
100
AcDbEntity
  8
001
 62
     5
370
    50
100
AcDbVertex
100
AcDb2dVertex
 10
55.568804
 20
64.093436
 30
0.0
  0
VERTEX
  5
8F
330
67
100
AcDbEntity
  8
001
 62
     5
370
    50
100
AcDbVertex
100
AcDb2dVertex
 10
55.579617
 20
64.007891
 30
0.0
  0
VERTEX
  5
90
330
67
100
AcDbEntity
  8
001
 62
     5
370
    50
100
AcDbVertex
100
AcDb2dVertex
 10
55.59373
 20
63.922983
 30
0.0
  0
VERTEX
  5
91
330
67
100
AcDbEntity
  8
001
 62
     5
370
    50
100
AcDbVertex
100
AcDb2dVertex
 10
55.611147
 20
63.83869
 30
0.0
  0
VERTEX
  5
92
330
67
100
AcDbEntity
  8
001
 62
     5
370
    50
100
AcDbVertex
100
AcDb2dVertex
 10
55.631794
 20
63.755376
 30
0.0
  0
VERTEX
  5
93
330
67
100
AcDbEntity
  8
001
 62
     5
370
    50
100
AcDbVertex
100
AcDb2dVertex
 10
55.655699
 20
63.672937
 30
0.0
  0
VERTEX
  5
94
330
67
100
AcDbEntity
  8
001
 62
     5
370
    50
100
AcDbVertex
100
AcDb2dVertex
 10
55.682735
 20
63.591807
 30
0.0
  0
VERTEX
  5
95
330
67
100
AcDbEntity
  8
001
 62
     5
370
    50
100
AcDbVertex
100
AcDb2dVertex
 10
55.712964
 20
63.511811
 30
0.0
  0
VERTEX
  5
96
330
67
100
AcDbEntity
  8
001
 62
     5
370
    50
100
AcDbVertex
100
AcDb2dVertex
 10
55.7462
 20
63.43344
 30
0.0
  0
VERTEX
  5
97
330
67
100
AcDbEntity
  8
001
 62
     5
370
    50
100
AcDbVertex
100
AcDb2dVertex
 10
55.782544
 20
63.35646
 30
0.0
  0
VERTEX
  5
98
330
67
100
AcDbEntity
  8
001
 62
     5
370
    50
100
AcDbVertex
100
AcDb2dVertex
 10
55.821745
 20
63.281405
 30
0.0
  0
VERTEX
  5
99
330
67
100
AcDbEntity
  8
001
 62
     5
370
    50
100
AcDbVertex
100
AcDb2dVertex
 10
55.863949
 20
63.207997
 30
0.0
  0
VERTEX
  5
9A
330
67
100
AcDbEntity
  8
001
 62
     5
370
    50
100
AcDbVertex
100
AcDb2dVertex
 10
55.908837
 20
63.136791
 30
0.0
  0
VERTEX
  5
9B
330
67
100
AcDbEntity
  8
001
 62
     5
370
    50
100
AcDbVertex
100
AcDb2dVertex
 10
55.956603
 20
63.067483
 30
0.0
  0
VERTEX
  5
9C
330
67
100
AcDbEntity
  8
001
 62
     5
370
    50
100
AcDbVertex
100
AcDb2dVertex
 10
56.00686
 20
63.000634
 30
0.0
  0
VERTEX
  5
9D
330
67
100
AcDbEntity
  8
001
 62
     5
370
    50
100
AcDbVertex
100
AcDb2dVertex
 10
56.059846
 20
62.935927
 30
0.0
  0
VERTEX
  5
9E
330
67
100
AcDbEntity
  8
001
 62
     5
370
    50
100
AcDbVertex
100
AcDb2dVertex
 10
56.115114
 20
62.873911
 30
0.0
  0
VERTEX
  5
9F
330
67
100
AcDbEntity
  8
001
 62
     5
370
    50
100
AcDbVertex
100
AcDb2dVertex
 10
56.172939
 20
62.814272
 30
0.0
  0
VERTEX
  5
A0
330
67
100
AcDbEntity
  8
001
 62
     5
370
    50
100
AcDbVertex
100
AcDb2dVertex
 10
56.232821
 20
62.75753
 30
0.0
  0
VERTEX
  5
A1
330
67
100
AcDbEntity
  8
001
 62
     5
370
    50
100
AcDbVertex
100
AcDb2dVertex
 10
56.295066
 20
62.70339
 30
0.0
  0
VERTEX
  5
A2
330
67
100
AcDbEntity
  8
001
 62
     5
370
    50
100
AcDbVertex
100
AcDb2dVertex
 10
56.359134
 20
62.652322
 30
0.0
  0
VERTEX
  5
A3
330
67
100
AcDbEntity
  8
001
 62
     5
370
    50
100
AcDbVertex
100
AcDb2dVertex
 10
56.425346
 20
62.604069
 30
0.0
  0
VERTEX
  5
A4
330
67
100
AcDbEntity
  8
001
 62
     5
370
    50
100
AcDbVertex
100
AcDb2dVertex
 10
56.493141
 20
62.559042
 30
0.0
  0
VERTEX
  5
A5
330
67
100
AcDbEntity
  8
001
 62
     5
370
    50
100
AcDbVertex
100
AcDb2dVertex
 10
56.562837
 20
62.517014
 30
0.0
  0
VERTEX
  5
A6
330
67
100
AcDbEntity
  8
001
 62
     5
370
    50
100
AcDbVertex
100
AcDb2dVertex
 10
56.63387
 20
62.478324
 30
0.0
  0
VERTEX
  5
A7
330
67
100
AcDbEntity
  8
001
 62
     5
370
    50
100
AcDbVertex
100
AcDb2dVertex
 10
56.706546
 20
62.442833
 30
0.0
  0
VERTEX
  5
A8
330
67
100
AcDbEntity
  8
001
 62
     5
370
    50
100
AcDbVertex
100
AcDb2dVertex
 10
56.780321
 20
62.410814
 30
0.0
  0
VERTEX
  5
A9
330
67
100
AcDbEntity
  8
001
 62
     5
370
    50
100
AcDbVertex
100
AcDb2dVertex
 10
56.855438
 20
62.382039
 30
0.0
  0
VERTEX
  5
AA
330
67
100
AcDbEntity
  8
001
 62
     5
370
    50
100
AcDbVertex
100
AcDb2dVertex
 10
56.931387
 20
62.356671
 30
0.0
  0
VERTEX
  5
AB
330
67
100
AcDbEntity
  8
001
 62
     5
370
    50
100
AcDbVertex
100
AcDb2dVertex
 10
57.008446
 20
62.335043
 30
0.0
  0
VERTEX
  5
AC
330
67
100
AcDbEntity
  8
001
 62
     5
370
    50
100
AcDbVertex
100
AcDb2dVertex
 10
57.064286
 20
62.321945
 30
0.0
  0
VERTEX
  5
AD
330
67
100
AcDbEntity
  8
001
 62
     5
370
    50
100
AcDbVertex
100
AcDb2dVertex
 10
57.120397
 20
62.309958
 30
0.0
  0
SEQEND
  5
68
330
67
100
AcDbEntity
  8
001
370
    50
  0
POLYLINE
  5
AE
330
64
100
AcDbEntity
  8
001
 62
     5
370
    50
100
AcDb2dPolyline
 66
     1
 10
0.0
 20
0.0
 30
0.0
  0
VERTEX
  5
B0
330
AE
100
AcDbEntity
  8
001
 62
     5
370
    50
100
AcDbVertex
100
AcDb2dVertex
 10
57.447284
 20
62.279119
 30
0.0
  0
VERTEX
  5
B1
330
AE
100
AcDbEntity
  8
001
 62
     5
370
    50
100
AcDbVertex
100
AcDb2dVertex
 10
57.511248
 20
62.28048
 30
0.0
  0
VERTEX
  5
B2
330
AE
100
AcDbEntity
  8
001
 62
     5
370
    50
100
AcDbVertex
100
AcDb2dVertex
 10
57.604493
 20
62.286347
 30
0.0
  0
VERTEX
  5
B3
330
AE
100
AcDbEntity
  8
001
 62
     5
370
    50
100
AcDbVertex
100
AcDb2dVertex
 10
57.697368
 20
62.297623
 30
0.0
  0
VERTEX
  5
B4
330
AE
100
AcDbEntity
  8
001
 62
     5
370
    50
100
AcDbVertex
100
AcDb2dVertex
 10
57.760593
 20
62.307978
 30
0.0
  0
SEQEND
  5
AF
330
AE
100
AcDbEntity
  8
001
370
    50
  0
POLYLINE
  5
B5
330
64
100
AcDbEntity
  8
001
 62
     5
370
    50
100
AcDb2dPolyline
 66
     1
 10
0.0
 20
0.0
 30
0.0
  0
VERTEX
  5
B7
330
B5
100
AcDbEntity
  8
001
 62
     5
370
    50
100
AcDbVertex
100
AcDb2dVertex
 10
57.447284
 20
66.379119
 30
0.0
  0
VERTEX
  5
B8
330
B5
100
AcDbEntity
  8
001
 62
     5
370
    50
100
AcDbVertex
100
AcDb2dVertex
 10
57.314307
 20
66.37322
 30
0.0
  0
VERTEX
  5
B9
330
B5
100
AcDbEntity
  8
001
 62
     5
370
    50
100
AcDbVertex
100
AcDb2dVertex
 10
57.121898
 20
66.347975
 30
0.0
  0
VERTEX
  5
BA
330
B5
100
AcDbEntity
  8
001
 62
     5
370
    50
100
AcDbVertex
100
AcDb2dVertex
 10
57.113964
 20
66.346424
 30
0.0
  0
VERTEX
  5
BB
330
B5
100
AcDbEntity
  8
001
 62
     5
370
    50
100
AcDbVertex
100
AcDb2dVertex
 10
57.108539
 20
66.345344
 30
0.0
  0
SEQEND
  5
B6
330
B5
100
AcDbEntity
  8
001
370
    50
  0
POLYLINE
  5
BC
330
64
100
AcDbEntity
  8
001
 62
     5
370
    50
100
AcDb2dPolyline
 66
     1
 10
0.0
 20
0.0
 30
0.0
  0
VERTEX
  5
BE
330
BC
100
AcDbEntity
  8
001
 62
     5
370
    50
100
AcDbVertex
100
AcDb2dVertex
 10
56.770647
 20
63.138114
 30
0.0
  0
VERTEX
  5
BF
330
BC
100
AcDbEntity
  8
001
 62
     5
370
    50
100
AcDbVertex
100
AcDb2dVertex
 10
56.789378
 20
63.139147
 30
0.0
  0
VERTEX
  5
C0
330
BC
100
AcDbEntity
  8
001
 62
     5
370
    50
100
AcDbVertex
100
AcDb2dVertex
 10
56.815089
 20
63.142368
 30
0.0
  0
VERTEX
  5
C1
330
BC
100
AcDbEntity
  8
001
 62
     5
370
    50
100
AcDbVertex
100
AcDb2dVertex
 10
56.838095
 20
63.147845
 30
0.0
  0
VERTEX
  5
C2
330
BC
100
AcDbEntity
  8
001
 62
     5
370
    50
100
AcDbVertex
100
AcDb2dVertex
 10
56.858182
 20
63.155
 30
0.0
  0
VERTEX
  5
C3
330
BC
100
AcDbEntity
  8
001
 62
     5
370
    50
100
AcDbVertex
100
AcDb2dVertex
 10
56.877833
 20
63.163701
 30
0.0
  0
VERTEX
  5
C4
330
BC
100
AcDbEntity
  8
001
 62
     5
370
    50
100
AcDbVertex
100
AcDb2dVertex
 10
56.898615
 20
63.175627
 30
0.0
  0
VERTEX
  5
C5
330
BC
100
AcDbEntity
  8
001
 62
     5
370
    50
100
AcDbVertex
100
AcDb2dVertex
 10
56.916528
 20
63.188279
 30
0.0
  0
VERTEX
  5
C6
330
BC
100
AcDbEntity
  8
001
 62
     5
370
    50
100
AcDbVertex
100
AcDb2dVertex
 10
56.928917
 20
63.198072
 30
0.0
  0
SEQEND
  5
BD
330
BC
100
AcDbEntity
  8
001
370
    50
  0
POLYLINE
  5
C7
330
64
100
AcDbEntity
  8
001
 62
     5
370
    50
100
AcDb2dPolyline
 66
     1
 10
0.0
 20
0.0
 30
0.0
  0
VERTEX
  5
C9
330
C7
100
AcDbEntity
  8
001
 62
     5
370
    50
100
AcDbVertex
100
AcDb2dVertex
 10
57.595405
 20
63.126954
 30
0.0
  0
VERTEX
  5
CA
330
C7
100
AcDbEntity
  8
001
 62
     5
370
    50
100
AcDbVertex
100
AcDb2dVertex
 10
57.545676
 20
63.179179
 30
0.0
  0
VERTEX
  5
CB
330
C7
100
AcDbEntity
  8
001
 62
     5
370
    50
100
AcDbVertex
100
AcDb2dVertex
 10
57.47024
 20
63.240519
 30
0.0
  0
VERTEX
  5
CC
330
C7
100
AcDbEntity
  8
001
 62
     5
370
    50
100
AcDbVertex
100
AcDb2dVertex
 10
57.431587
 20
63.262794
 30
0.0
  0
VERTEX
  5
CD
330
C7
100
AcDbEntity
  8
001
 62
     5
370
    50
100
AcDbVertex
100
AcDb2dVertex
 10
57.393775
 20
63.279527
 30
0.0
  0
VERTEX
  5
CE
330
C7
100
AcDbEntity
  8
001
 62
     5
370
    50
100
AcDbVertex
100
AcDb2dVertex
 10
57.35562
 20
63.29313
 30
0.0
  0
VERTEX
  5
CF
330
C7
100
AcDbEntity
  8
001
 62
     5
370
    50
100
AcDbVertex
100
AcDb2dVertex
 10
57.31228
 20
63.303417
 30
0.0
  0
VERTEX
  5
D0
330
C7
100
AcDbEntity
  8
001
 62
     5
370
    50
100
AcDbVertex
100
AcDb2dVertex
 10
57.26369
 20
63.309493
 30
0.0
  0
VERTEX
  5
D1
330
C7
100
AcDbEntity
  8
001
 62
     5
370
    50
100
AcDbVertex
100
AcDb2dVertex
 10
57.228232
 20
63.311461
 30
0.0
  0
SEQEND
  5
C8
330
C7
100
AcDbEntity
  8
001
370
    50
  0
POLYLINE
  5
D2
330
64
100
AcDbEntity
  8
001
 62
     5
370
    50
100
AcDb2dPolyline
 66
     1
 10
0.0
 20
0.0
 30
0.0
  0
VERTEX
  5
D4
330
D2
100
AcDbEntity
  8
001
 62
     5
370
    50
100
AcDbVertex
100
AcDb2dVertex
 10
57.789558
 20
63.02939
 30
0.0
  0
VERTEX
  5
D5
330
D2
100
AcDbEntity
  8
001
 62
     5
370
    50
100
AcDbVertex
100
AcDb2dVertex
 10
57.808328
 20
63.030458
 30
0.0
  0
VERTEX
  5
D6
330
D2
100
AcDbEntity
  8
001
 62
     5
370
    50
100
AcDbVertex
100
AcDb2dVertex
 10
57.834001
 20
63.033644
 30
0.0
  0
VERTEX
  5
D7
330
D2
100
AcDbEntity
  8
001
 62
     5
370
    50
100
AcDbVertex
100
AcDb2dVertex
 10
57.856816
 20
63.038946
 30
0.0
  0
VERTEX
  5
D8
330
D2
100
AcDbEntity
  8
001
 62
     5
370
    50
100
AcDbVertex
100
AcDb2dVertex
 10
57.877094
 20
63.046276
 30
0.0
  0
VERTEX
  5
D9
330
D2
100
AcDbEntity
  8
001
 62
     5
370
    50
100
AcDbVertex
100
AcDb2dVertex
 10
57.897482
 20
63.055655
 30
0.0
  0
VERTEX
  5
DA
330
D2
100
AcDbEntity
  8
001
 62
     5
370
    50
100
AcDbVertex
100
AcDb2dVertex
 10
57.917527
 20
63.066903
 30
0.0
  0
VERTEX
  5
DB
330
D2
100
AcDbEntity
  8
001
 62
     5
370
    50
100
AcDbVertex
100
AcDb2dVertex
 10
57.971203
 20
63.111683
 30
0.0
  0
VERTEX
  5
DC
330
D2
100
AcDbEntity
  8
001
 62
     5
370
    50
100
AcDbVertex
100
AcDb2dVertex
 10
58.011206
 20
63.16939
 30
0.0
  0
VERTEX
  5
DD
330
D2
100
AcDbEntity
  8
001
 62
     5
370
    50
100
AcDbVertex
100
AcDb2dVertex
 10
58.030043
 20
63.214722
 30
0.0
  0
VERTEX
  5
DE
330
D2
100
AcDbEntity
  8
001
 62
     5
370
    50
100
AcDbVertex
100
AcDb2dVertex
 10
58.041607
 20
63.260769
 30
0.0
  0
VERTEX
  5
DF
330
D2
100
AcDbEntity
  8
001
 62
     5
370
    50
100
AcDbVertex
100
AcDb2dVertex
 10
58.044684
 20
63.28379
 30
0.0
  0
VERTEX
  5
E0
330
D2
100
AcDbEntity
  8
001
 62
     5
370
    50
100
AcDbVertex
100
AcDb2dVertex
 10
58.045495
 20
63.30939
 30
0.0
  0
VERTEX
  5
E1
330
D2
100
AcDbEntity
  8
001
 62
     5
370
    50
100
AcDbVertex
100
AcDb2dVertex
 10
58.044416
 20
63.332623
 30
0.0
  0
VERTEX
  5
E2
330
D2
100
AcDbEntity
  8
001
 62
     5
370
    50
100
AcDbVertex
100
AcDb2dVertex
 10
58.042879
 20
63.349323
 30
0.0
  0
SEQEND
  5
D3
330
D2
100
AcDbEntity
  8
001
370
    50
  0
POLYLINE
  5
E3
330
64
100
AcDbEntity
  8
001
 62
     5
370
    50
100
AcDb2dPolyline
 66
     1
 10
0.0
 20
0.0
 30
0.0
  0
VERTEX
  5
E5
330
E3
100
AcDbEntity
  8
001
 62
     5
370
    50
100
AcDbVertex
100
AcDb2dVertex
 10
58.43242
 20
63.945227
 30
0.0
  0
VERTEX
  5
E6
330
E3
100
AcDbEntity
  8
001
 62
     5
370
    50
100
AcDbVertex
100
AcDb2dVertex
 10
58.400175
 20
63.93679
 30
0.0
  0
VERTEX
  5
E7
330
E3
100
AcDbEntity
  8
001
 62
     5
370
    50
100
AcDbVertex
100
AcDb2dVertex
 10
58.356404
 20
63.92243
 30
0.0
  0
VERTEX
  5
E8
330
E3
100
AcDbEntity
  8
001
 62
     5
370
    50
100
AcDbVertex
100
AcDb2dVertex
 10
58.315196
 20
63.904263
 30
0.0
  0
VERTEX
  5
E9
330
E3
100
AcDbEntity
  8
001
 62
     5
370
    50
100
AcDbVertex
100
AcDb2dVertex
 10
58.279939
 20
63.883422
 30
0.0
  0
VERTEX
  5
EA
330
E3
100
AcDbEntity
  8
001
 62
     5
370
    50
100
AcDbVertex
100
AcDb2dVertex
 10
58.181182
 20
63.799184
 30
0.0
  0
VERTEX
  5
EB
330
E3
100
AcDbEntity
  8
001
 62
     5
370
    50
100
AcDbVertex
100
AcDb2dVertex
 10
58.102777
 20
63.689603
 30
0.0
  0
VERTEX
  5
EC
330
E3
100
AcDbEntity
  8
001
 62
     5
370
    50
100
AcDbVertex
100
AcDb2dVertex
 10
58.066753
 20
63.603807
 30
0.0
  0
VERTEX
  5
ED
330
E3
100
AcDbEntity
  8
001
 62
     5
370
    50
100
AcDbVertex
100
AcDb2dVertex
 10
58.045284
 20
63.516792
 30
0.0
  0
VERTEX
  5
EE
330
E3
100
AcDbEntity
  8
001
 62
     5
370
    50
100
AcDbVertex
100
AcDb2dVertex
 10
58.039503
 20
63.473262
 30
0.0
  0
VERTEX
  5
EF
330
E3
100
AcDbEntity
  8
001
 62
     5
370
    50
100
AcDbVertex
100
AcDb2dVertex
 10
58.037931
 20
63.424841
 30
0.0
  0
VERTEX
  5
F0
330
E3
100
AcDbEntity
  8
001
 62
     5
370
    50
100
AcDbVertex
100
AcDb2dVertex
 10
58.039966
 20
63.380904
 30
0.0
  0
VERTEX
  5
F1
330
E3
100
AcDbEntity
  8
001
 62
     5
370
    50
100
AcDbVertex
100
AcDb2dVertex
 10
58.042879
 20
63.349323
 30
0.0
  0
SEQEND
  5
E4
330
E3
100
AcDbEntity
  8
001
370
    50
  0
POLYLINE
  5
F2
330
64
100
AcDbEntity
  8
001
 62
     5
370
    50
100
AcDb2dPolyline
 66
     1
 10
0.0
 20
0.0
 30
0.0
  0
VERTEX
  5
F4
330
F2
100
AcDbEntity
  8
001
 62
     5
370
    50
100
AcDbVertex
100
AcDb2dVertex
 10
58.43242
 20
63.945227
 30
0.0
  0
VERTEX
  5
F5
330
F2
100
AcDbEntity
  8
001
 62
     5
370
    50
100
AcDbVertex
100
AcDb2dVertex
 10
58.44947
 20
63.949692
 30
0.0
  0
VERTEX
  5
F6
330
F2
100
AcDbEntity
  8
001
 62
     5
370
    50
100
AcDbVertex
100
AcDb2dVertex
 10
58.472615
 20
63.957282
 30
0.0
  0
VERTEX
  5
F7
330
F2
100
AcDbEntity
  8
001
 62
     5
370
    50
100
AcDbVertex
100
AcDb2dVertex
 10
58.494407
 20
63.966873
 30
0.0
  0
VERTEX
  5
F8
330
F2
100
AcDbEntity
  8
001
 62
     5
370
    50
100
AcDbVertex
100
AcDb2dVertex
 10
58.513048
 20
63.977909
 30
0.0
  0
VERTEX
  5
F9
330
F2
100
AcDbEntity
  8
001
 62
     5
370
    50
100
AcDbVertex
100
AcDb2dVertex
 10
58.565224
 20
64.022763
 30
0.0
  0
VERTEX
  5
FA
330
F2
100
AcDbEntity
  8
001
 62
     5
370
    50
100
AcDbVertex
100
AcDb2dVertex
 10
58.606727
 20
64.080396
 30
0.0
  0
VERTEX
  5
FB
330
F2
100
AcDbEntity
  8
001
 62
     5
370
    50
100
AcDbVertex
100
AcDb2dVertex
 10
58.625894
 20
64.124945
 30
0.0
  0
VERTEX
  5
FC
330
F2
100
AcDbEntity
  8
001
 62
     5
370
    50
100
AcDbVertex
100
AcDb2dVertex
 10
58.637128
 20
64.171774
 30
0.0
  0
VERTEX
  5
FD
330
F2
100
AcDbEntity
  8
001
 62
     5
370
    50
100
AcDbVertex
100
AcDb2dVertex
 10
58.640008
 20
64.196017
 30
0.0
  0
VERTEX
  5
FE
330
F2
100
AcDbEntity
  8
001
 62
     5
370
    50
100
AcDbVertex
100
AcDb2dVertex
 10
58.641016
 20
64.220396
 30
0.0
  0
VERTEX
  5
FF
330
F2
100
AcDbEntity
  8
001
 62
     5
370
    50
100
AcDbVertex
100
AcDb2dVertex
 10
58.640104
 20
64.244754
 30
0.0
  0
VERTEX
  5
100
330
F2
100
AcDbEntity
  8
001
 62
     5
370
    50
100
AcDbVertex
100
AcDb2dVertex
 10
58.637128
 20
64.269017
 30
0.0
  0
VERTEX
  5
101
330
F2
100
AcDbEntity
  8
001
 62
     5
370
    50
100
AcDbVertex
100
AcDb2dVertex
 10
58.625142
 20
64.316123
 30
0.0
  0
VERTEX
  5
102
330
F2
100
AcDbEntity
  8
001
 62
     5
370
    50
100
AcDbVertex
100
AcDb2dVertex
 10
58.606727
 20
64.360396
 30
0.0
  0
VERTEX
  5
103
330
F2
100
AcDbEntity
  8
001
 62
     5
370
    50
100
AcDbVertex
100
AcDb2dVertex
 10
58.570276
 20
64.416098
 30
0.0
  0
VERTEX
  5
104
330
F2
100
AcDbEntity
  8
001
 62
     5
370
    50
100
AcDbVertex
100
AcDb2dVertex
 10
58.513048
 20
64.462883
 30
0.0
  0
VERTEX
  5
105
330
F2
100
AcDbEntity
  8
001
 62
     5
370
    50
100
AcDbVertex
100
AcDb2dVertex
 10
58.493914
 20
64.47357
 30
0.0
  0
VERTEX
  5
106
330
F2
100
AcDbEntity
  8
001
 62
     5
370
    50
100
AcDbVertex
100
AcDb2dVertex
 10
58.480129
 20
64.48037
 30
0.0
  0
SEQEND
  5
F3
330
F2
100
AcDbEntity
  8
001
370
    50
  0
POLYLINE
  5
107
330
64
100
AcDbEntity
  8
001
 62
     5
370
    50
100
AcDb2dPolyline
 66
     1
 10
0.0
 20
0.0
 30
0.0
  0
VERTEX
  5
109
330
107
100
AcDbEntity
  8
001
 62
     5
370
    50
100
AcDbVertex
100
AcDb2dVertex
 10
58.203182
 20
65.147393
 30
0.0
  0
VERTEX
  5
10A
330
107
100
AcDbEntity
  8
001
 62
     5
370
    50
100
AcDbVertex
100
AcDb2dVertex
 10
58.193722
 20
65.112596
 30
0.0
  0
VERTEX
  5
10B
330
107
100
AcDbEntity
  8
001
 62
     5
370
    50
100
AcDbVertex
100
AcDb2dVertex
 10
58.183221
 20
65.063973
 30
0.0
  0
VERTEX
  5
10C
330
107
100
AcDbEntity
  8
001
 62
     5
370
    50
100
AcDbVertex
100
AcDb2dVertex
 10
58.177111
 20
65.016188
 30
0.0
  0
VERTEX
  5
10D
330
107
100
AcDbEntity
  8
001
 62
     5
370
    50
100
AcDbVertex
100
AcDb2dVertex
 10
58.175867
 20
64.972022
 30
0.0
  0
VERTEX
  5
10E
330
107
100
AcDbEntity
  8
001
 62
     5
370
    50
100
AcDbVertex
100
AcDb2dVertex
 10
58.177786
 20
64.926519
 30
0.0
  0
VERTEX
  5
10F
330
107
100
AcDbEntity
  8
001
 62
     5
370
    50
100
AcDbVertex
100
AcDb2dVertex
 10
58.183221
 20
64.880072
 30
0.0
  0
VERTEX
  5
110
330
107
100
AcDbEntity
  8
001
 62
     5
370
    50
100
AcDbVertex
100
AcDb2dVertex
 10
58.205761
 20
64.790612
 30
0.0
  0
VERTEX
  5
111
330
107
100
AcDbEntity
  8
001
 62
     5
370
    50
100
AcDbVertex
100
AcDb2dVertex
 10
58.240713
 20
64.707261
 30
0.0
  0
VERTEX
  5
112
330
107
100
AcDbEntity
  8
001
 62
     5
370
    50
100
AcDbVertex
100
AcDb2dVertex
 10
58.309696
 20
64.602058
 30
0.0
  0
VERTEX
  5
113
330
107
100
AcDbEntity
  8
001
 62
     5
370
    50
100
AcDbVertex
100
AcDb2dVertex
 10
58.417875
 20
64.513442
 30
0.0
  0
VERTEX
  5
114
330
107
100
AcDbEntity
  8
001
 62
     5
370
    50
100
AcDbVertex
100
AcDb2dVertex
 10
58.454059
 20
64.493227
 30
0.0
  0
VERTEX
  5
115
330
107
100
AcDbEntity
  8
001
 62
     5
370
    50
100
AcDbVertex
100
AcDb2dVertex
 10
58.480129
 20
64.48037
 30
0.0
  0
SEQEND
  5
108
330
107
100
AcDbEntity
  8
001
370
    50
  0
POLYLINE
  5
116
330
64
100
AcDbEntity
  8
001
 62
     5
370
    50
100
AcDb2dPolyline
 66
     1
 10
0.0
 20
0.0
 30
0.0
  0
VERTEX
  5
118
330
116
100
AcDbEntity
  8
001
 62
     5
370
    50
100
AcDbVertex
100
AcDb2dVertex
 10
57.961689
 20
65.520125
 30
0.0
  0
VERTEX
  5
119
330
116
100
AcDbEntity
  8
001
 62
     5
370
    50
100
AcDbVertex
100
AcDb2dVertex
 10
57.942958
 20
65.519092
 30
0.0
  0
VERTEX
  5
11A
330
116
100
AcDbEntity
  8
001
 62
     5
370
    50
100
AcDbVertex
100
AcDb2dVertex
 10
57.917246
 20
65.515871
 30
0.0
  0
VERTEX
  5
11B
330
116
100
AcDbEntity
  8
001
 62
     5
370
    50
100
AcDbVertex
100
AcDb2dVertex
 10
57.894241
 20
65.510393
 30
0.0
  0
VERTEX
  5
11C
330
116
100
AcDbEntity
  8
001
 62
     5
370
    50
100
AcDbVertex
100
AcDb2dVertex
 10
57.874154
 20
65.503239
 30
0.0
  0
VERTEX
  5
11D
330
116
100
AcDbEntity
  8
001
 62
     5
370
    50
100
AcDbVertex
100
AcDb2dVertex
 10
57.854503
 20
65.494538
 30
0.0
  0
VERTEX
  5
11E
330
116
100
AcDbEntity
  8
001
 62
     5
370
    50
100
AcDbVertex
100
AcDb2dVertex
 10
57.833721
 20
65.482612
 30
0.0
  0
VERTEX
  5
11F
330
116
100
AcDbEntity
  8
001
 62
     5
370
    50
100
AcDbVertex
100
AcDb2dVertex
 10
57.815808
 20
65.46996
 30
0.0
  0
VERTEX
  5
120
330
116
100
AcDbEntity
  8
001
 62
     5
370
    50
100
AcDbVertex
100
AcDb2dVertex
 10
57.803419
 20
65.460167
 30
0.0
  0
SEQEND
  5
117
330
116
100
AcDbEntity
  8
001
370
    50
  0
POLYLINE
  5
121
330
64
100
AcDbEntity
  8
001
 62
     5
370
    50
100
AcDb2dPolyline
 66
     1
 10
0.0
 20
0.0
 30
0.0
  0
VERTEX
  5
123
330
121
100
AcDbEntity
  8
001
 62
     5
370
    50
100
AcDbVertex
100
AcDb2dVertex
 10
57.136931
 20
65.531285
 30
0.0
  0
VERTEX
  5
124
330
121
100
AcDbEntity
  8
001
 62
     5
370
    50
100
AcDbVertex
100
AcDb2dVertex
 10
57.18666
 20
65.47906
 30
0.0
  0
VERTEX
  5
125
330
121
100
AcDbEntity
  8
001
 62
     5
370
    50
100
AcDbVertex
100
AcDb2dVertex
 10
57.262096
 20
65.41772
 30
0.0
  0
VERTEX
  5
126
330
121
100
AcDbEntity
  8
001
 62
     5
370
    50
100
AcDbVertex
100
AcDb2dVertex
 10
57.300749
 20
65.395445
 30
0.0
  0
VERTEX
  5
127
330
121
100
AcDbEntity
  8
001
 62
     5
370
    50
100
AcDbVertex
100
AcDb2dVertex
 10
57.338561
 20
65.378712
 30
0.0
  0
VERTEX
  5
128
330
121
100
AcDbEntity
  8
001
 62
     5
370
    50
100
AcDbVertex
100
AcDb2dVertex
 10
57.376716
 20
65.365109
 30
0.0
  0
VERTEX
  5
129
330
121
100
AcDbEntity
  8
001
 62
     5
370
    50
100
AcDbVertex
100
AcDb2dVertex
 10
57.420056
 20
65.354822
 30
0.0
  0
VERTEX
  5
12A
330
121
100
AcDbEntity
  8
001
 62
     5
370
    50
100
AcDbVertex
100
AcDb2dVertex
 10
57.468646
 20
65.348746
 30
0.0
  0
VERTEX
  5
12B
330
121
100
AcDbEntity
  8
001
 62
     5
370
    50
100
AcDbVertex
100
AcDb2dVertex
 10
57.504104
 20
65.346778
 30
0.0
  0
SEQEND
  5
122
330
121
100
AcDbEntity
  8
001
370
    50
  0
POLYLINE
  5
12C
330
64
100
AcDbEntity
  8
001
 62
     5
370
    50
100
AcDb2dPolyline
 66
     1
 10
0.0
 20
0.0
 30
0.0
  0
VERTEX
  5
12E
330
12C
100
AcDbEntity
  8
001
 62
     5
370
    50
100
AcDbVertex
100
AcDb2dVertex
 10
56.942778
 20
65.628849
 30
0.0
  0
VERTEX
  5
12F
330
12C
100
AcDbEntity
  8
001
 62
     5
370
    50
100
AcDbVertex
100
AcDb2dVertex
 10
56.924008
 20
65.627781
 30
0.0
  0
VERTEX
  5
130
330
12C
100
AcDbEntity
  8
001
 62
     5
370
    50
100
AcDbVertex
100
AcDb2dVertex
 10
56.898335
 20
65.624595
 30
0.0
  0
VERTEX
  5
131
330
12C
100
AcDbEntity
  8
001
 62
     5
370
    50
100
AcDbVertex
100
AcDb2dVertex
 10
56.87552
 20
65.619293
 30
0.0
  0
VERTEX
  5
132
330
12C
100
AcDbEntity
  8
001
 62
     5
370
    50
100
AcDbVertex
100
AcDb2dVertex
 10
56.855242
 20
65.611963
 30
0.0
  0
VERTEX
  5
133
330
12C
100
AcDbEntity
  8
001
 62
     5
370
    50
100
AcDbVertex
100
AcDb2dVertex
 10
56.834854
 20
65.602584
 30
0.0
  0
VERTEX
  5
134
330
12C
100
AcDbEntity
  8
001
 62
     5
370
    50
100
AcDbVertex
100
AcDb2dVertex
 10
56.814809
 20
65.591336
 30
0.0
  0
VERTEX
  5
135
330
12C
100
AcDbEntity
  8
001
 62
     5
370
    50
100
AcDbVertex
100
AcDb2dVertex
 10
56.761133
 20
65.546556
 30
0.0
  0
VERTEX
  5
136
330
12C
100
AcDbEntity
  8
001
 62
     5
370
    50
100
AcDbVertex
100
AcDb2dVertex
 10
56.72113
 20
65.488849
 30
0.0
  0
VERTEX
  5
137
330
12C
100
AcDbEntity
  8
001
 62
     5
370
    50
100
AcDbVertex
100
AcDb2dVertex
 10
56.702293
 20
65.443517
 30
0.0
  0
VERTEX
  5
138
330
12C
100
AcDbEntity
  8
001
 62
     5
370
    50
100
AcDbVertex
100
AcDb2dVertex
 10
56.690729
 20
65.39747
 30
0.0
  0
VERTEX
  5
139
330
12C
100
AcDbEntity
  8
001
 62
     5
370
    50
100
AcDbVertex
100
AcDb2dVertex
 10
56.687652
 20
65.374449
 30
0.0
  0
VERTEX
  5
13A
330
12C
100
AcDbEntity
  8
001
 62
     5
370
    50
100
AcDbVertex
100
AcDb2dVertex
 10
56.686841
 20
65.348849
 30
0.0
  0
VERTEX
  5
13B
330
12C
100
AcDbEntity
  8
001
 62
     5
370
    50
100
AcDbVertex
100
AcDb2dVertex
 10
56.68792
 20
65.325616
 30
0.0
  0
VERTEX
  5
13C
330
12C
100
AcDbEntity
  8
001
 62
     5
370
    50
100
AcDbVertex
100
AcDb2dVertex
 10
56.689457
 20
65.308916
 30
0.0
  0
SEQEND
  5
12D
330
12C
100
AcDbEntity
  8
001
370
    50
  0
POLYLINE
  5
13D
330
64
100
AcDbEntity
  8
001
 62
     5
370
    50
100
AcDb2dPolyline
 66
     1
 10
0.0
 20
0.0
 30
0.0
  0
VERTEX
  5
13F
330
13D
100
AcDbEntity
  8
001
 62
     5
370
    50
100
AcDbVertex
100
AcDb2dVertex
 10
56.299916
 20
64.713012
 30
0.0
  0
VERTEX
  5
140
330
13D
100
AcDbEntity
  8
001
 62
     5
370
    50
100
AcDbVertex
100
AcDb2dVertex
 10
56.332161
 20
64.721449
 30
0.0
  0
VERTEX
  5
141
330
13D
100
AcDbEntity
  8
001
 62
     5
370
    50
100
AcDbVertex
100
AcDb2dVertex
 10
56.375932
 20
64.735809
 30
0.0
  0
VERTEX
  5
142
330
13D
100
AcDbEntity
  8
001
 62
     5
370
    50
100
AcDbVertex
100
AcDb2dVertex
 10
56.41714
 20
64.753976
 30
0.0
  0
VERTEX
  5
143
330
13D
100
AcDbEntity
  8
001
 62
     5
370
    50
100
AcDbVertex
100
AcDb2dVertex
 10
56.452397
 20
64.774817
 30
0.0
  0
VERTEX
  5
144
330
13D
100
AcDbEntity
  8
001
 62
     5
370
    50
100
AcDbVertex
100
AcDb2dVertex
 10
56.551154
 20
64.859055
 30
0.0
  0
VERTEX
  5
145
330
13D
100
AcDbEntity
  8
001
 62
     5
370
    50
100
AcDbVertex
100
AcDb2dVertex
 10
56.629559
 20
64.968636
 30
0.0
  0
VERTEX
  5
146
330
13D
100
AcDbEntity
  8
001
 62
     5
370
    50
100
AcDbVertex
100
AcDb2dVertex
 10
56.665583
 20
65.054431
 30
0.0
  0
VERTEX
  5
147
330
13D
100
AcDbEntity
  8
001
 62
     5
370
    50
100
AcDbVertex
100
AcDb2dVertex
 10
56.687051
 20
65.141447
 30
0.0
  0
VERTEX
  5
148
330
13D
100
AcDbEntity
  8
001
 62
     5
370
    50
100
AcDbVertex
100
AcDb2dVertex
 10
56.692833
 20
65.184977
 30
0.0
  0
VERTEX
  5
149
330
13D
100
AcDbEntity
  8
001
 62
     5
370
    50
100
AcDbVertex
100
AcDb2dVertex
 10
56.694405
 20
65.233397
 30
0.0
  0
VERTEX
  5
14A
330
13D
100
AcDbEntity
  8
001
 62
     5
370
    50
100
AcDbVertex
100
AcDb2dVertex
 10
56.69237
 20
65.277335
 30
0.0
  0
VERTEX
  5
14B
330
13D
100
AcDbEntity
  8
001
 62
     5
370
    50
100
AcDbVertex
100
AcDb2dVertex
 10
56.689457
 20
65.308916
 30
0.0
  0
SEQEND
  5
13E
330
13D
100
AcDbEntity
  8
001
370
    50
  0
POLYLINE
  5
14C
330
64
100
AcDbEntity
  8
001
 62
     5
370
    50
100
AcDb2dPolyline
 66
     1
 10
0.0
 20
0.0
 30
0.0
  0
VERTEX
  5
14E
330
14C
100
AcDbEntity
  8
001
 62
     5
370
    50
100
AcDbVertex
100
AcDb2dVertex
 10
56.299916
 20
64.713012
 30
0.0
  0
VERTEX
  5
14F
330
14C
100
AcDbEntity
  8
001
 62
     5
370
    50
100
AcDbVertex
100
AcDb2dVertex
 10
56.282866
 20
64.708547
 30
0.0
  0
VERTEX
  5
150
330
14C
100
AcDbEntity
  8
001
 62
     5
370
    50
100
AcDbVertex
100
AcDb2dVertex
 10
56.259721
 20
64.700957
 30
0.0
  0
VERTEX
  5
151
330
14C
100
AcDbEntity
  8
001
 62
     5
370
    50
100
AcDbVertex
100
AcDb2dVertex
 10
56.237929
 20
64.691366
 30
0.0
  0
VERTEX
  5
152
330
14C
100
AcDbEntity
  8
001
 62
     5
370
    50
100
AcDbVertex
100
AcDb2dVertex
 10
56.219288
 20
64.68033
 30
0.0
  0
VERTEX
  5
153
330
14C
100
AcDbEntity
  8
001
 62
     5
370
    50
100
AcDbVertex
100
AcDb2dVertex
 10
56.167112
 20
64.635476
 30
0.0
  0
VERTEX
  5
154
330
14C
100
AcDbEntity
  8
001
 62
     5
370
    50
100
AcDbVertex
100
AcDb2dVertex
 10
56.125609
 20
64.577843
 30
0.0
  0
VERTEX
  5
155
330
14C
100
AcDbEntity
  8
001
 62
     5
370
    50
100
AcDbVertex
100
AcDb2dVertex
 10
56.106441
 20
64.533294
 30
0.0
  0
VERTEX
  5
156
330
14C
100
AcDbEntity
  8
001
 62
     5
370
    50
100
AcDbVertex
100
AcDb2dVertex
 10
56.095208
 20
64.486465
 30
0.0
  0
VERTEX
  5
157
330
14C
100
AcDbEntity
  8
001
 62
     5
370
    50
100
AcDbVertex
100
AcDb2dVertex
 10
56.092328
 20
64.462222
 30
0.0
  0
VERTEX
  5
158
330
14C
100
AcDbEntity
  8
001
 62
     5
370
    50
100
AcDbVertex
100
AcDb2dVertex
 10
56.09132
 20
64.437843
 30
0.0
  0
VERTEX
  5
159
330
14C
100
AcDbEntity
  8
001
 62
     5
370
    50
100
AcDbVertex
100
AcDb2dVertex
 10
56.092232
 20
64.413485
 30
0.0
  0
VERTEX
  5
15A
330
14C
100
AcDbEntity
  8
001
 62
     5
370
    50
100
AcDbVertex
100
AcDb2dVertex
 10
56.095208
 20
64.389222
 30
0.0
  0
VERTEX
  5
15B
330
14C
100
AcDbEntity
  8
001
 62
     5
370
    50
100
AcDbVertex
100
AcDb2dVertex
 10
56.107194
 20
64.342116
 30
0.0
  0
VERTEX
  5
15C
330
14C
100
AcDbEntity
  8
001
 62
     5
370
    50
100
AcDbVertex
100
AcDb2dVertex
 10
56.125609
 20
64.297843
 30
0.0
  0
VERTEX
  5
15D
330
14C
100
AcDbEntity
  8
001
 62
     5
370
    50
100
AcDbVertex
100
AcDb2dVertex
 10
56.16206
 20
64.242141
 30
0.0
  0
VERTEX
  5
15E
330
14C
100
AcDbEntity
  8
001
 62
     5
370
    50
100
AcDbVertex
100
AcDb2dVertex
 10
56.219288
 20
64.195356
 30
0.0
  0
VERTEX
  5
15F
330
14C
100
AcDbEntity
  8
001
 62
     5
370
    50
100
AcDbVertex
100
AcDb2dVertex
 10
56.238422
 20
64.184669
 30
0.0
  0
VERTEX
  5
160
330
14C
100
AcDbEntity
  8
001
 62
     5
370
    50
100
AcDbVertex
100
AcDb2dVertex
 10
56.252207
 20
64.177868
 30
0.0
  0
SEQEND
  5
14D
330
14C
100
AcDbEntity
  8
001
370
    50
  0
POLYLINE
  5
161
330
64
100
AcDbEntity
  8
001
 62
     5
370
    50
100
AcDb2dPolyline
 66
     1
 10
0.0
 20
0.0
 30
0.0
  0
VERTEX
  5
163
330
161
100
AcDbEntity
  8
001
 62
     5
370
    50
100
AcDbVertex
100
AcDb2dVertex
 10
56.529153
 20
63.510846
 30
0.0
  0
VERTEX
  5
164
330
161
100
AcDbEntity
  8
001
 62
     5
370
    50
100
AcDbVertex
100
AcDb2dVertex
 10
56.538614
 20
63.545643
 30
0.0
  0
VERTEX
  5
165
330
161
100
AcDbEntity
  8
001
 62
     5
370
    50
100
AcDbVertex
100
AcDb2dVertex
 10
56.549115
 20
63.594266
 30
0.0
  0
VERTEX
  5
166
330
161
100
AcDbEntity
  8
001
 62
     5
370
    50
100
AcDbVertex
100
AcDb2dVertex
 10
56.555225
 20
63.642051
 30
0.0
  0
VERTEX
  5
167
330
161
100
AcDbEntity
  8
001
 62
     5
370
    50
100
AcDbVertex
100
AcDb2dVertex
 10
56.556469
 20
63.686216
 30
0.0
  0
VERTEX
  5
168
330
161
100
AcDbEntity
  8
001
 62
     5
370
    50
100
AcDbVertex
100
AcDb2dVertex
 10
56.55455
 20
63.731719
 30
0.0
  0
VERTEX
  5
169
330
161
100
AcDbEntity
  8
001
 62
     5
370
    50
100
AcDbVertex
100
AcDb2dVertex
 10
56.549115
 20
63.778167
 30
0.0
  0
VERTEX
  5
16A
330
161
100
AcDbEntity
  8
001
 62
     5
370
    50
100
AcDbVertex
100
AcDb2dVertex
 10
56.526575
 20
63.867626
 30
0.0
  0
VERTEX
  5
16B
330
161
100
AcDbEntity
  8
001
 62
     5
370
    50
100
AcDbVertex
100
AcDb2dVertex
 10
56.491623
 20
63.950978
 30
0.0
  0
VERTEX
  5
16C
330
161
100
AcDbEntity
  8
001
 62
     5
370
    50
100
AcDbVertex
100
AcDb2dVertex
 10
56.42264
 20
64.056181
 30
0.0
  0
VERTEX
  5
16D
330
161
100
AcDbEntity
  8
001
 62
     5
370
    50
100
AcDbVertex
100
AcDb2dVertex
 10
56.314461
 20
64.144797
 30
0.0
  0
VERTEX
  5
16E
330
161
100
AcDbEntity
  8
001
 62
     5
370
    50
100
AcDbVertex
100
AcDb2dVertex
 10
56.278277
 20
64.165012
 30
0.0
  0
VERTEX
  5
16F
330
161
100
AcDbEntity
  8
001
 62
     5
370
    50
100
AcDbVertex
100
AcDb2dVertex
 10
56.252207
 20
64.177868
 30
0.0
  0
SEQEND
  5
162
330
161
100
AcDbEntity
  8
001
370
    50
  0
POLYLINE
  5
170
330
64
100
AcDbEntity
  8
001
 62
     5
370
    50
100
AcDb2dPolyline
 66
     1
 10
0.0
 20
0.0
 30
0.0
  0
VERTEX
  5
172
330
170
100
AcDbEntity
  8
001
 62
     5
370
    50
100
AcDbVertex
100
AcDb2dVertex
 10
57.568958
 20
62.279119
 30
0.0
  0
VERTEX
  5
173
330
170
100
AcDbEntity
  8
001
 62
     5
370
    50
100
AcDbVertex
100
AcDb2dVertex
 10
57.706379
 20
62.286934
 30
0.0
  0
VERTEX
  5
174
330
170
100
AcDbEntity
  8
001
 62
     5
370
    50
100
AcDbVertex
100
AcDb2dVertex
 10
57.894344
 20
62.310264
 30
0.0
  0
VERTEX
  5
175
330
170
100
AcDbEntity
  8
001
 62
     5
370
    50
100
AcDbVertex
100
AcDb2dVertex
 10
58.061378
 20
62.349112
 30
0.0
  0
VERTEX
  5
176
330
170
100
AcDbEntity
  8
001
 62
     5
370
    50
100
AcDbVertex
100
AcDb2dVertex
 10
58.209843
 20
62.40275
 30
0.0
  0
VERTEX
  5
177
330
170
100
AcDbEntity
  8
001
 62
     5
370
    50
100
AcDbVertex
100
AcDb2dVertex
 10
58.359127
 20
62.471301
 30
0.0
  0
VERTEX
  5
178
330
170
100
AcDbEntity
  8
001
 62
     5
370
    50
100
AcDbVertex
100
AcDb2dVertex
 10
58.505869
 20
62.553767
 30
0.0
  0
VERTEX
  5
179
330
170
100
AcDbEntity
  8
001
 62
     5
370
    50
100
AcDbVertex
100
AcDb2dVertex
 10
58.898559
 20
62.883889
 30
0.0
  0
VERTEX
  5
17A
330
170
100
AcDbEntity
  8
001
 62
     5
370
    50
100
AcDbVertex
100
AcDb2dVertex
 10
59.191736
 20
63.304119
 30
0.0
  0
VERTEX
  5
17B
330
170
100
AcDbEntity
  8
001
 62
     5
370
    50
100
AcDbVertex
100
AcDb2dVertex
 10
59.330431
 20
63.630068
 30
0.0
  0
VERTEX
  5
17C
330
170
100
AcDbEntity
  8
001
 62
     5
370
    50
100
AcDbVertex
100
AcDb2dVertex
 10
59.414313
 20
63.973141
 30
0.0
  0
VERTEX
  5
17D
330
170
100
AcDbEntity
  8
001
 62
     5
370
    50
100
AcDbVertex
100
AcDb2dVertex
 10
59.435666
 20
64.150605
 30
0.0
  0
VERTEX
  5
17E
330
170
100
AcDbEntity
  8
001
 62
     5
370
    50
100
AcDbVertex
100
AcDb2dVertex
 10
59.44278
 20
64.329119
 30
0.0
  0
VERTEX
  5
17F
330
170
100
AcDbEntity
  8
001
 62
     5
370
    50
100
AcDbVertex
100
AcDb2dVertex
 10
59.435666
 20
64.507633
 30
0.0
  0
VERTEX
  5
180
330
170
100
AcDbEntity
  8
001
 62
     5
370
    50
100
AcDbVertex
100
AcDb2dVertex
 10
59.414313
 20
64.685098
 30
0.0
  0
VERTEX
  5
181
330
170
100
AcDbEntity
  8
001
 62
     5
370
    50
100
AcDbVertex
100
AcDb2dVertex
 10
59.330431
 20
65.028171
 30
0.0
  0
VERTEX
  5
182
330
170
100
AcDbEntity
  8
001
 62
     5
370
    50
100
AcDbVertex
100
AcDb2dVertex
 10
59.191736
 20
65.354119
 30
0.0
  0
VERTEX
  5
183
330
170
100
AcDbEntity
  8
001
 62
     5
370
    50
100
AcDbVertex
100
AcDb2dVertex
 10
58.898559
 20
65.77435
 30
0.0
  0
VERTEX
  5
184
330
170
100
AcDbEntity
  8
001
 62
     5
370
    50
100
AcDbVertex
100
AcDb2dVertex
 10
58.505869
 20
66.104472
 30
0.0
  0
VERTEX
  5
185
330
170
100
AcDbEntity
  8
001
 62
     5
370
    50
100
AcDbVertex
100
AcDb2dVertex
 10
58.359127
 20
66.186938
 30
0.0
  0
VERTEX
  5
186
330
170
100
AcDbEntity
  8
001
 62
     5
370
    50
100
AcDbVertex
100
AcDb2dVertex
 10
58.209843
 20
66.255489
 30
0.0
  0
VERTEX
  5
187
330
170
100
AcDbEntity
  8
001
 62
     5
370
    50
100
AcDbVertex
100
AcDb2dVertex
 10
58.061378
 20
66.309127
 30
0.0
  0
VERTEX
  5
188
330
170
100
AcDbEntity
  8
001
 62
     5
370
    50
100
AcDbVertex
100
AcDb2dVertex
 10
57.894344
 20
66.347975
 30
0.0
  0
VERTEX
  5
189
330
170
100
AcDbEntity
  8
001
 62
     5
370
    50
100
AcDbVertex
100
AcDb2dVertex
 10
57.706379
 20
66.371305
 30
0.0
  0
VERTEX
  5
18A
330
170
100
AcDbEntity
  8
001
 62
     5
370
    50
100
AcDbVertex
100
AcDb2dVertex
 10
57.568958
 20
66.379119
 30
0.0
  0
SEQEND
  5
171
330
170
100
AcDbEntity
  8
001
370
    50
  0
POLYLINE
  5
18B
330
64
100
AcDbEntity
  8
001
 62
     5
370
    50
100
AcDb2dPolyline
 66
     1
 10
0.0
 20
0.0
 30
0.0
  0
VERTEX
  5
18D
330
18B
100
AcDbEntity
  8
001
 62
     5
370
    50
100
AcDbVertex
100
AcDb2dVertex
 10
57.782904
 20
66.345969
 30
0.0
  0
VERTEX
  5
18E
330
18B
100
AcDbEntity
  8
001
 62
     5
370
    50
100
AcDbVertex
100
AcDb2dVertex
 10
57.778748
 20
66.346791
 30
0.0
  0
VERTEX
  5
18F
330
18B
100
AcDbEntity
  8
001
 62
     5
370
    50
100
AcDbVertex
100
AcDb2dVertex
 10
57.77267
 20
66.347975
 30
0.0
  0
VERTEX
  5
190
330
18B
100
AcDbEntity
  8
001
 62
     5
370
    50
100
AcDbVertex
100
AcDb2dVertex
 10
57.58026
 20
66.37322
 30
0.0
  0
VERTEX
  5
191
330
18B
100
AcDbEntity
  8
001
 62
     5
370
    50
100
AcDbVertex
100
AcDb2dVertex
 10
57.447284
 20
66.379119
 30
0.0
  0
SEQEND
  5
18C
330
18B
100
AcDbEntity
  8
001
370
    50
  0
POLYLINE
  5
192
330
64
100
AcDbEntity
  8
001
 62
     5
370
    50
100
AcDb2dPolyline
 66
     1
 10
0.0
 20
0.0
 30
0.0
  0
VERTEX
  5
194
330
192
100
AcDbEntity
  8
001
 62
     5
370
    50
100
AcDbVertex
100
AcDb2dVertex
 10
57.126486
 20
62.309385
 30
0.0
  0
VERTEX
  5
195
330
192
100
AcDbEntity
  8
001
 62
     5
370
    50
100
AcDbVertex
100
AcDb2dVertex
 10
57.191201
 20
62.298525
 30
0.0
  0
VERTEX
  5
196
330
192
100
AcDbEntity
  8
001
 62
     5
370
    50
100
AcDbVertex
100
AcDb2dVertex
 10
57.28629
 20
62.2867
 30
0.0
  0
VERTEX
  5
197
330
192
100
AcDbEntity
  8
001
 62
     5
370
    50
100
AcDbVertex
100
AcDb2dVertex
 10
57.381774
 20
62.280546
 30
0.0
  0
VERTEX
  5
198
330
192
100
AcDbEntity
  8
001
 62
     5
370
    50
100
AcDbVertex
100
AcDb2dVertex
 10
57.447284
 20
62.279119
 30
0.0
  0
SEQEND
  5
193
330
192
100
AcDbEntity
  8
001
370
    50
  0
LINE
  5
199
330
64
100
AcDbEntity
  8
001
 62
     5
370
    50
100
AcDbLine
 10
57.447284
 20
62.279119
 30
0.0
 11
57.568958
 21
62.279119
 31
0.0
  0
LINE
  5
19A
330
64
100
AcDbEntity
  8
001
 62
     5
370
    50
100
AcDbLine
 10
57.568958
 20
66.379119
 30
0.0
 11
57.447284
 21
66.379119
 31
0.0
  0
POLYLINE
  5
19B
330
64
100
AcDbEntity
  8
001
 62
     5
370
    50
100
AcDb2dPolyline
 66
     1
 10
0.0
 20
0.0
 30
0.0
  0
VERTEX
  5
19D
330
19B
100
AcDbEntity
  8
001
 62
     5
370
    50
100
AcDbVertex
100
AcDb2dVertex
 10
58.203182
 20
65.147393
 30
0.0
  0
VERTEX
  5
19E
330
19B
100
AcDbEntity
  8
001
 62
     5
370
    50
100
AcDbVertex
100
AcDb2dVertex
 10
58.208183
 20
65.165794
 30
0.0
  0
VERTEX
  5
19F
330
19B
100
AcDbEntity
  8
001
 62
     5
370
    50
100
AcDbVertex
100
AcDb2dVertex
 10
58.213738
 20
65.191504
 30
0.0
  0
VERTEX
  5
1A0
330
19B
100
AcDbEntity
  8
001
 62
     5
370
    50
100
AcDbVertex
100
AcDb2dVertex
 10
58.216982
 20
65.216765
 30
0.0
  0
VERTEX
  5
1A1
330
19B
100
AcDbEntity
  8
001
 62
     5
370
    50
100
AcDbVertex
100
AcDb2dVertex
 10
58.217626
 20
65.240125
 30
0.0
  0
VERTEX
  5
1A2
330
19B
100
AcDbEntity
  8
001
 62
     5
370
    50
100
AcDbVertex
100
AcDb2dVertex
 10
58.216559
 20
65.264211
 30
0.0
  0
VERTEX
  5
1A3
330
19B
100
AcDbEntity
  8
001
 62
     5
370
    50
100
AcDbVertex
100
AcDb2dVertex
 10
58.213738
 20
65.288747
 30
0.0
  0
VERTEX
  5
1A4
330
19B
100
AcDbEntity
  8
001
 62
     5
370
    50
100
AcDbVertex
100
AcDb2dVertex
 10
58.202344
 20
65.335803
 30
0.0
  0
VERTEX
  5
1A5
330
19B
100
AcDbEntity
  8
001
 62
     5
370
    50
100
AcDbVertex
100
AcDb2dVertex
 10
58.183337
 20
65.380125
 30
0.0
  0
VERTEX
  5
1A6
330
19B
100
AcDbEntity
  8
001
 62
     5
370
    50
100
AcDbVertex
100
AcDb2dVertex
 10
58.143269
 20
65.437447
 30
0.0
  0
VERTEX
  5
1A7
330
19B
100
AcDbEntity
  8
001
 62
     5
370
    50
100
AcDbVertex
100
AcDb2dVertex
 10
58.089658
 20
65.482612
 30
0.0
  0
VERTEX
  5
1A8
330
19B
100
AcDbEntity
  8
001
 62
     5
370
    50
100
AcDbVertex
100
AcDb2dVertex
 10
58.069616
 20
65.49388
 30
0.0
  0
VERTEX
  5
1A9
330
19B
100
AcDbEntity
  8
001
 62
     5
370
    50
100
AcDbVertex
100
AcDb2dVertex
 10
58.049225
 20
65.503239
 30
0.0
  0
VERTEX
  5
1AA
330
19B
100
AcDbEntity
  8
001
 62
     5
370
    50
100
AcDbVertex
100
AcDb2dVertex
 10
58.028946
 20
65.510564
 30
0.0
  0
VERTEX
  5
1AB
330
19B
100
AcDbEntity
  8
001
 62
     5
370
    50
100
AcDbVertex
100
AcDb2dVertex
 10
58.006132
 20
65.515871
 30
0.0
  0
VERTEX
  5
1AC
330
19B
100
AcDbEntity
  8
001
 62
     5
370
    50
100
AcDbVertex
100
AcDb2dVertex
 10
57.980459
 20
65.519058
 30
0.0
  0
VERTEX
  5
1AD
330
19B
100
AcDbEntity
  8
001
 62
     5
370
    50
100
AcDbVertex
100
AcDb2dVertex
 10
57.961689
 20
65.520125
 30
0.0
  0
SEQEND
  5
19C
330
19B
100
AcDbEntity
  8
001
370
    50
  0
POLYLINE
  5
1AE
330
64
100
AcDbEntity
  8
001
 62
     5
370
    50
100
AcDb2dPolyline
 66
     1
 10
0.0
 20
0.0
 30
0.0
  0
VERTEX
  5
1B0
330
1AE
100
AcDbEntity
  8
001
 62
     5
370
    50
100
AcDbVertex
100
AcDb2dVertex
 10
57.595405
 20
63.126954
 30
0.0
  0
VERTEX
  5
1B1
330
1AE
100
AcDbEntity
  8
001
 62
     5
370
    50
100
AcDbVertex
100
AcDb2dVertex
 10
57.621701
 20
63.099338
 30
0.0
  0
VERTEX
  5
1B2
330
1AE
100
AcDbEntity
  8
001
 62
     5
370
    50
100
AcDbVertex
100
AcDb2dVertex
 10
57.66159
 20
63.066903
 30
0.0
  0
VERTEX
  5
1B3
330
1AE
100
AcDbEntity
  8
001
 62
     5
370
    50
100
AcDbVertex
100
AcDb2dVertex
 10
57.682029
 20
63.055124
 30
0.0
  0
VERTEX
  5
1B4
330
1AE
100
AcDbEntity
  8
001
 62
     5
370
    50
100
AcDbVertex
100
AcDb2dVertex
 10
57.702023
 20
63.046276
 30
0.0
  0
VERTEX
  5
1B5
330
1AE
100
AcDbEntity
  8
001
 62
     5
370
    50
100
AcDbVertex
100
AcDb2dVertex
 10
57.722198
 20
63.039083
 30
0.0
  0
VERTEX
  5
1B6
330
1AE
100
AcDbEntity
  8
001
 62
     5
370
    50
100
AcDbVertex
100
AcDb2dVertex
 10
57.745115
 20
63.033644
 30
0.0
  0
VERTEX
  5
1B7
330
1AE
100
AcDbEntity
  8
001
 62
     5
370
    50
100
AcDbVertex
100
AcDb2dVertex
 10
57.770809
 20
63.030431
 30
0.0
  0
VERTEX
  5
1B8
330
1AE
100
AcDbEntity
  8
001
 62
     5
370
    50
100
AcDbVertex
100
AcDb2dVertex
 10
57.789558
 20
63.02939
 30
0.0
  0
SEQEND
  5
1AF
330
1AE
100
AcDbEntity
  8
001
370
    50
  0
POLYLINE
  5
1B9
330
64
100
AcDbEntity
  8
001
 62
     5
370
    50
100
AcDb2dPolyline
 66
     1
 10
0.0
 20
0.0
 30
0.0
  0
VERTEX
  5
1BB
330
1B9
100
AcDbEntity
  8
001
 62
     5
370
    50
100
AcDbVertex
100
AcDb2dVertex
 10
57.504104
 20
65.346778
 30
0.0
  0
VERTEX
  5
1BC
330
1B9
100
AcDbEntity
  8
001
 62
     5
370
    50
100
AcDbVertex
100
AcDb2dVertex
 10
57.539529
 20
65.348732
 30
0.0
  0
VERTEX
  5
1BD
330
1B9
100
AcDbEntity
  8
001
 62
     5
370
    50
100
AcDbVertex
100
AcDb2dVertex
 10
57.588152
 20
65.354822
 30
0.0
  0
VERTEX
  5
1BE
330
1B9
100
AcDbEntity
  8
001
 62
     5
370
    50
100
AcDbVertex
100
AcDb2dVertex
 10
57.63166
 20
65.365181
 30
0.0
  0
VERTEX
  5
1BF
330
1B9
100
AcDbEntity
  8
001
 62
     5
370
    50
100
AcDbVertex
100
AcDb2dVertex
 10
57.669647
 20
65.378712
 30
0.0
  0
VERTEX
  5
1C0
330
1B9
100
AcDbEntity
  8
001
 62
     5
370
    50
100
AcDbVertex
100
AcDb2dVertex
 10
57.706811
 20
65.395166
 30
0.0
  0
VERTEX
  5
1C1
330
1B9
100
AcDbEntity
  8
001
 62
     5
370
    50
100
AcDbVertex
100
AcDb2dVertex
 10
57.746112
 20
65.41772
 30
0.0
  0
VERTEX
  5
1C2
330
1B9
100
AcDbEntity
  8
001
 62
     5
370
    50
100
AcDbVertex
100
AcDb2dVertex
 10
57.779989
 20
65.441648
 30
0.0
  0
VERTEX
  5
1C3
330
1B9
100
AcDbEntity
  8
001
 62
     5
370
    50
100
AcDbVertex
100
AcDb2dVertex
 10
57.803419
 20
65.460167
 30
0.0
  0
SEQEND
  5
1BA
330
1B9
100
AcDbEntity
  8
001
370
    50
  0
LINE
  5
1C4
330
64
100
AcDbEntity
  8
001
 62
     5
370
    50
100
AcDbLine
 10
57.504104
 20
65.346778
 30
0.0
 11
57.987888
 21
65.346778
 31
0.0
  0
POLYLINE
  5
1C5
330
64
100
AcDbEntity
  8
001
 62
     5
370
    50
100
AcDb2dPolyline
 66
     1
 10
0.0
 20
0.0
 30
0.0
  0
VERTEX
  5
1C7
330
1C5
100
AcDbEntity
  8
001
 62
     5
370
    50
100
AcDbVertex
100
AcDb2dVertex
 10
57.987888
 20
65.346778
 30
0.0
  0
VERTEX
  5
1C8
330
1C5
100
AcDbEntity
  8
001
 62
     5
370
    50
100
AcDbVertex
100
AcDb2dVertex
 10
58.023906
 20
65.349015
 30
0.0
  0
VERTEX
  5
1C9
330
1C5
100
AcDbEntity
  8
001
 62
     5
370
    50
100
AcDbVertex
100
AcDb2dVertex
 10
58.071936
 20
65.354822
 30
0.0
  0
VERTEX
  5
1CA
330
1C5
100
AcDbEntity
  8
001
 62
     5
370
    50
100
AcDbVertex
100
AcDb2dVertex
 10
58.11245
 20
65.363754
 30
0.0
  0
VERTEX
  5
1CB
330
1C5
100
AcDbEntity
  8
001
 62
     5
370
    50
100
AcDbVertex
100
AcDb2dVertex
 10
58.153431
 20
65.378712
 30
0.0
  0
VERTEX
  5
1CC
330
1C5
100
AcDbEntity
  8
001
 62
     5
370
    50
100
AcDbVertex
100
AcDb2dVertex
 10
58.167971
 20
65.384884
 30
0.0
  0
VERTEX
  5
1CD
330
1C5
100
AcDbEntity
  8
001
 62
     5
370
    50
100
AcDbVertex
100
AcDb2dVertex
 10
58.178204
 20
65.38943
 30
0.0
  0
SEQEND
  5
1C6
330
1C5
100
AcDbEntity
  8
001
370
    50
  0
POLYLINE
  5
1CE
330
64
100
AcDbEntity
  8
001
 62
     5
370
    50
100
AcDb2dPolyline
 66
     1
 10
0.0
 20
0.0
 30
0.0
  0
VERTEX
  5
1D0
330
1CE
100
AcDbEntity
  8
001
 62
     5
370
    50
100
AcDbVertex
100
AcDb2dVertex
 10
57.228232
 20
63.311461
 30
0.0
  0
VERTEX
  5
1D1
330
1CE
100
AcDbEntity
  8
001
 62
     5
370
    50
100
AcDbVertex
100
AcDb2dVertex
 10
57.192807
 20
63.309507
 30
0.0
  0
VERTEX
  5
1D2
330
1CE
100
AcDbEntity
  8
001
 62
     5
370
    50
100
AcDbVertex
100
AcDb2dVertex
 10
57.144183
 20
63.303417
 30
0.0
  0
VERTEX
  5
1D3
330
1CE
100
AcDbEntity
  8
001
 62
     5
370
    50
100
AcDbVertex
100
AcDb2dVertex
 10
57.100676
 20
63.293057
 30
0.0
  0
VERTEX
  5
1D4
330
1CE
100
AcDbEntity
  8
001
 62
     5
370
    50
100
AcDbVertex
100
AcDb2dVertex
 10
57.062689
 20
63.279527
 30
0.0
  0
VERTEX
  5
1D5
330
1CE
100
AcDbEntity
  8
001
 62
     5
370
    50
100
AcDbVertex
100
AcDb2dVertex
 10
57.025525
 20
63.263073
 30
0.0
  0
VERTEX
  5
1D6
330
1CE
100
AcDbEntity
  8
001
 62
     5
370
    50
100
AcDbVertex
100
AcDb2dVertex
 10
56.986224
 20
63.240519
 30
0.0
  0
VERTEX
  5
1D7
330
1CE
100
AcDbEntity
  8
001
 62
     5
370
    50
100
AcDbVertex
100
AcDb2dVertex
 10
56.952347
 20
63.216591
 30
0.0
  0
VERTEX
  5
1D8
330
1CE
100
AcDbEntity
  8
001
 62
     5
370
    50
100
AcDbVertex
100
AcDb2dVertex
 10
56.928917
 20
63.198072
 30
0.0
  0
SEQEND
  5
1CF
330
1CE
100
AcDbEntity
  8
001
370
    50
  0
POLYLINE
  5
1D9
330
64
100
AcDbEntity
  8
001
 62
     5
370
    50
100
AcDb2dPolyline
 66
     1
 10
0.0
 20
0.0
 30
0.0
  0
VERTEX
  5
1DB
330
1D9
100
AcDbEntity
  8
001
 62
     5
370
    50
100
AcDbVertex
100
AcDb2dVertex
 10
58.020898
 20
63.189618
 30
0.0
  0
VERTEX
  5
1DC
330
1D9
100
AcDbEntity
  8
001
 62
     5
370
    50
100
AcDbVertex
100
AcDb2dVertex
 10
57.993612
 20
63.212023
 30
0.0
  0
VERTEX
  5
1DD
330
1D9
100
AcDbEntity
  8
001
 62
     5
370
    50
100
AcDbVertex
100
AcDb2dVertex
 10
57.954023
 20
63.240519
 30
0.0
  0
VERTEX
  5
1DE
330
1D9
100
AcDbEntity
  8
001
 62
     5
370
    50
100
AcDbVertex
100
AcDb2dVertex
 10
57.914844
 20
63.263021
 30
0.0
  0
VERTEX
  5
1DF
330
1D9
100
AcDbEntity
  8
001
 62
     5
370
    50
100
AcDbVertex
100
AcDb2dVertex
 10
57.877559
 20
63.279527
 30
0.0
  0
VERTEX
  5
1E0
330
1D9
100
AcDbEntity
  8
001
 62
     5
370
    50
100
AcDbVertex
100
AcDb2dVertex
 10
57.83954
 20
63.293071
 30
0.0
  0
VERTEX
  5
1E1
330
1D9
100
AcDbEntity
  8
001
 62
     5
370
    50
100
AcDbVertex
100
AcDb2dVertex
 10
57.796064
 20
63.303417
 30
0.0
  0
VERTEX
  5
1E2
330
1D9
100
AcDbEntity
  8
001
 62
     5
370
    50
100
AcDbVertex
100
AcDb2dVertex
 10
57.747446
 20
63.309504
 30
0.0
  0
VERTEX
  5
1E3
330
1D9
100
AcDbEntity
  8
001
 62
     5
370
    50
100
AcDbVertex
100
AcDb2dVertex
 10
57.712016
 20
63.311461
 30
0.0
  0
SEQEND
  5
1DA
330
1D9
100
AcDbEntity
  8
001
370
    50
  0
LINE
  5
1E4
330
64
100
AcDbEntity
  8
001
 62
     5
370
    50
100
AcDbLine
 10
57.712016
 20
63.311461
 30
0.0
 11
57.228232
 21
63.311461
 31
0.0
  0
POLYLINE
  5
1E5
330
64
100
AcDbEntity
  8
001
 62
     5
370
    50
100
AcDb2dPolyline
 66
     1
 10
0.0
 20
0.0
 30
0.0
  0
VERTEX
  5
1E7
330
1E5
100
AcDbEntity
  8
001
 62
     5
370
    50
100
AcDbVertex
100
AcDb2dVertex
 10
57.136931
 20
65.531285
 30
0.0
  0
VERTEX
  5
1E8
330
1E5
100
AcDbEntity
  8
001
 62
     5
370
    50
100
AcDbVertex
100
AcDb2dVertex
 10
57.110635
 20
65.558901
 30
0.0
  0
VERTEX
  5
1E9
330
1E5
100
AcDbEntity
  8
001
 62
     5
370
    50
100
AcDbVertex
100
AcDb2dVertex
 10
57.070746
 20
65.591336
 30
0.0
  0
VERTEX
  5
1EA
330
1E5
100
AcDbEntity
  8
001
 62
     5
370
    50
100
AcDbVertex
100
AcDb2dVertex
 10
57.050307
 20
65.603115
 30
0.0
  0
VERTEX
  5
1EB
330
1E5
100
AcDbEntity
  8
001
 62
     5
370
    50
100
AcDbVertex
100
AcDb2dVertex
 10
57.030313
 20
65.611963
 30
0.0
  0
VERTEX
  5
1EC
330
1E5
100
AcDbEntity
  8
001
 62
     5
370
    50
100
AcDbVertex
100
AcDb2dVertex
 10
57.010138
 20
65.619155
 30
0.0
  0
VERTEX
  5
1ED
330
1E5
100
AcDbEntity
  8
001
 62
     5
370
    50
100
AcDbVertex
100
AcDb2dVertex
 10
56.987221
 20
65.624595
 30
0.0
  0
VERTEX
  5
1EE
330
1E5
100
AcDbEntity
  8
001
 62
     5
370
    50
100
AcDbVertex
100
AcDb2dVertex
 10
56.961527
 20
65.627808
 30
0.0
  0
VERTEX
  5
1EF
330
1E5
100
AcDbEntity
  8
001
 62
     5
370
    50
100
AcDbVertex
100
AcDb2dVertex
 10
56.942778
 20
65.628849
 30
0.0
  0
SEQEND
  5
1E6
330
1E5
100
AcDbEntity
  8
001
370
    50
  0
POLYLINE
  5
1F0
330
64
100
AcDbEntity
  8
001
 62
     5
370
    50
100
AcDb2dPolyline
 66
     1
 10
0.0
 20
0.0
 30
0.0
  0
VERTEX
  5
1F2
330
1F0
100
AcDbEntity
  8
001
 62
     5
370
    50
100
AcDbVertex
100
AcDb2dVertex
 10
57.195222
 20
65.468621
 30
0.0
  0
VERTEX
  5
1F3
330
1F0
100
AcDbEntity
  8
001
 62
     5
370
    50
100
AcDbVertex
100
AcDb2dVertex
 10
57.184954
 20
65.438457
 30
0.0
  0
VERTEX
  5
1F4
330
1F0
100
AcDbEntity
  8
001
 62
     5
370
    50
100
AcDbVertex
100
AcDb2dVertex
 10
57.174513
 20
65.39747
 30
0.0
  0
VERTEX
  5
1F5
330
1F0
100
AcDbEntity
  8
001
 62
     5
370
    50
100
AcDbVertex
100
AcDb2dVertex
 10
57.171126
 20
65.373658
 30
0.0
  0
VERTEX
  5
1F6
330
1F0
100
AcDbEntity
  8
001
 62
     5
370
    50
100
AcDbVertex
100
AcDb2dVertex
 10
57.170625
 20
65.348849
 30
0.0
  0
VERTEX
  5
1F7
330
1F0
100
AcDbEntity
  8
001
 62
     5
370
    50
100
AcDbVertex
100
AcDb2dVertex
 10
57.171751
 20
65.325735
 30
0.0
  0
VERTEX
  5
1F8
330
1F0
100
AcDbEntity
  8
001
 62
     5
370
    50
100
AcDbVertex
100
AcDb2dVertex
 10
57.173241
 20
65.308916
 30
0.0
  0
SEQEND
  5
1F1
330
1F0
100
AcDbEntity
  8
001
370
    50
  0
POLYLINE
  5
1F9
330
64
100
AcDbEntity
  8
001
 62
     5
370
    50
100
AcDb2dPolyline
 66
     1
 10
0.0
 20
0.0
 30
0.0
  0
VERTEX
  5
1FB
330
1F9
100
AcDbEntity
  8
001
 62
     5
370
    50
100
AcDbVertex
100
AcDb2dVertex
 10
56.529153
 20
63.510846
 30
0.0
  0
VERTEX
  5
1FC
330
1F9
100
AcDbEntity
  8
001
 62
     5
370
    50
100
AcDbVertex
100
AcDb2dVertex
 10
56.524153
 20
63.492445
 30
0.0
  0
VERTEX
  5
1FD
330
1F9
100
AcDbEntity
  8
001
 62
     5
370
    50
100
AcDbVertex
100
AcDb2dVertex
 10
56.518598
 20
63.466735
 30
0.0
  0
VERTEX
  5
1FE
330
1F9
100
AcDbEntity
  8
001
 62
     5
370
    50
100
AcDbVertex
100
AcDb2dVertex
 10
56.515354
 20
63.441474
 30
0.0
  0
VERTEX
  5
1FF
330
1F9
100
AcDbEntity
  8
001
 62
     5
370
    50
100
AcDbVertex
100
AcDb2dVertex
 10
56.51471
 20
63.418114
 30
0.0
  0
VERTEX
  5
200
330
1F9
100
AcDbEntity
  8
001
 62
     5
370
    50
100
AcDbVertex
100
AcDb2dVertex
 10
56.515777
 20
63.394028
 30
0.0
  0
VERTEX
  5
201
330
1F9
100
AcDbEntity
  8
001
 62
     5
370
    50
100
AcDbVertex
100
AcDb2dVertex
 10
56.518598
 20
63.369492
 30
0.0
  0
VERTEX
  5
202
330
1F9
100
AcDbEntity
  8
001
 62
     5
370
    50
100
AcDbVertex
100
AcDb2dVertex
 10
56.529992
 20
63.322436
 30
0.0
  0
VERTEX
  5
203
330
1F9
100
AcDbEntity
  8
001
 62
     5
370
    50
100
AcDbVertex
100
AcDb2dVertex
 10
56.548999
 20
63.278114
 30
0.0
  0
VERTEX
  5
204
330
1F9
100
AcDbEntity
  8
001
 62
     5
370
    50
100
AcDbVertex
100
AcDb2dVertex
 10
56.589067
 20
63.220792
 30
0.0
  0
VERTEX
  5
205
330
1F9
100
AcDbEntity
  8
001
 62
     5
370
    50
100
AcDbVertex
100
AcDb2dVertex
 10
56.642678
 20
63.175627
 30
0.0
  0
VERTEX
  5
206
330
1F9
100
AcDbEntity
  8
001
 62
     5
370
    50
100
AcDbVertex
100
AcDb2dVertex
 10
56.66272
 20
63.164359
 30
0.0
  0
VERTEX
  5
207
330
1F9
100
AcDbEntity
  8
001
 62
     5
370
    50
100
AcDbVertex
100
AcDb2dVertex
 10
56.683111
 20
63.155
 30
0.0
  0
VERTEX
  5
208
330
1F9
100
AcDbEntity
  8
001
 62
     5
370
    50
100
AcDbVertex
100
AcDb2dVertex
 10
56.703389
 20
63.147675
 30
0.0
  0
VERTEX
  5
209
330
1F9
100
AcDbEntity
  8
001
 62
     5
370
    50
100
AcDbVertex
100
AcDb2dVertex
 10
56.726204
 20
63.142368
 30
0.0
  0
VERTEX
  5
20A
330
1F9
100
AcDbEntity
  8
001
 62
     5
370
    50
100
AcDbVertex
100
AcDb2dVertex
 10
56.751877
 20
63.139181
 30
0.0
  0
VERTEX
  5
20B
330
1F9
100
AcDbEntity
  8
001
 62
     5
370
    50
100
AcDbVertex
100
AcDb2dVertex
 10
56.770647
 20
63.138114
 30
0.0
  0
SEQEND
  5
1FA
330
1F9
100
AcDbEntity
  8
001
370
    50
  0
POLYLINE
  5
20C
330
64
100
AcDbEntity
  8
001
 62
     5
370
    50
100
AcDb2dPolyline
 66
     1
 10
0.0
 20
0.0
 30
0.0
  0
VERTEX
  5
20E
330
20C
100
AcDbEntity
  8
001
 62
     5
370
    50
100
AcDbVertex
100
AcDb2dVertex
 10
57.012937
 20
63.510846
 30
0.0
  0
VERTEX
  5
20F
330
20C
100
AcDbEntity
  8
001
 62
     5
370
    50
100
AcDbVertex
100
AcDb2dVertex
 10
57.007944
 20
63.492432
 30
0.0
  0
VERTEX
  5
210
330
20C
100
AcDbEntity
  8
001
 62
     5
370
    50
100
AcDbVertex
100
AcDb2dVertex
 10
57.002382
 20
63.466735
 30
0.0
  0
VERTEX
  5
211
330
20C
100
AcDbEntity
  8
001
 62
     5
370
    50
100
AcDbVertex
100
AcDb2dVertex
 10
56.999097
 20
63.441546
 30
0.0
  0
VERTEX
  5
212
330
20C
100
AcDbEntity
  8
001
 62
     5
370
    50
100
AcDbVertex
100
AcDb2dVertex
 10
56.998494
 20
63.418114
 30
0.0
  0
VERTEX
  5
213
330
20C
100
AcDbEntity
  8
001
 62
     5
370
    50
100
AcDbVertex
100
AcDb2dVertex
 10
56.999715
 20
63.393753
 30
0.0
  0
VERTEX
  5
214
330
20C
100
AcDbEntity
  8
001
 62
     5
370
    50
100
AcDbVertex
100
AcDb2dVertex
 10
57.002382
 20
63.369492
 30
0.0
  0
VERTEX
  5
215
330
20C
100
AcDbEntity
  8
001
 62
     5
370
    50
100
AcDbVertex
100
AcDb2dVertex
 10
57.012224
 20
63.325191
 30
0.0
  0
VERTEX
  5
216
330
20C
100
AcDbEntity
  8
001
 62
     5
370
    50
100
AcDbVertex
100
AcDb2dVertex
 10
57.032783
 20
63.278114
 30
0.0
  0
VERTEX
  5
217
330
20C
100
AcDbEntity
  8
001
 62
     5
370
    50
100
AcDbVertex
100
AcDb2dVertex
 10
57.035789
 20
63.272601
 30
0.0
  0
VERTEX
  5
218
330
20C
100
AcDbEntity
  8
001
 62
     5
370
    50
100
AcDbVertex
100
AcDb2dVertex
 10
57.037916
 20
63.268809
 30
0.0
  0
SEQEND
  5
20D
330
20C
100
AcDbEntity
  8
001
370
    50
  0
POLYLINE
  5
219
330
64
100
AcDbEntity
  8
001
 62
     5
370
    50
100
AcDb2dPolyline
 66
     1
 10
0.0
 20
0.0
 30
0.0
  0
VERTEX
  5
21B
330
219
100
AcDbEntity
  8
001
 62
     5
370
    50
100
AcDbVertex
100
AcDb2dVertex
 10
56.7837
 20
64.713012
 30
0.0
  0
VERTEX
  5
21C
330
219
100
AcDbEntity
  8
001
 62
     5
370
    50
100
AcDbVertex
100
AcDb2dVertex
 10
56.815945
 20
64.721449
 30
0.0
  0
VERTEX
  5
21D
330
219
100
AcDbEntity
  8
001
 62
     5
370
    50
100
AcDbVertex
100
AcDb2dVertex
 10
56.859716
 20
64.735809
 30
0.0
  0
VERTEX
  5
21E
330
219
100
AcDbEntity
  8
001
 62
     5
370
    50
100
AcDbVertex
100
AcDb2dVertex
 10
56.900924
 20
64.753976
 30
0.0
  0
VERTEX
  5
21F
330
219
100
AcDbEntity
  8
001
 62
     5
370
    50
100
AcDbVertex
100
AcDb2dVertex
 10
56.936181
 20
64.774817
 30
0.0
  0
VERTEX
  5
220
330
219
100
AcDbEntity
  8
001
 62
     5
370
    50
100
AcDbVertex
100
AcDb2dVertex
 10
57.034938
 20
64.859055
 30
0.0
  0
VERTEX
  5
221
330
219
100
AcDbEntity
  8
001
 62
     5
370
    50
100
AcDbVertex
100
AcDb2dVertex
 10
57.113343
 20
64.968636
 30
0.0
  0
VERTEX
  5
222
330
219
100
AcDbEntity
  8
001
 62
     5
370
    50
100
AcDbVertex
100
AcDb2dVertex
 10
57.149367
 20
65.054431
 30
0.0
  0
VERTEX
  5
223
330
219
100
AcDbEntity
  8
001
 62
     5
370
    50
100
AcDbVertex
100
AcDb2dVertex
 10
57.170835
 20
65.141447
 30
0.0
  0
VERTEX
  5
224
330
219
100
AcDbEntity
  8
001
 62
     5
370
    50
100
AcDbVertex
100
AcDb2dVertex
 10
57.176616
 20
65.184977
 30
0.0
  0
VERTEX
  5
225
330
219
100
AcDbEntity
  8
001
 62
     5
370
    50
100
AcDbVertex
100
AcDb2dVertex
 10
57.178189
 20
65.233397
 30
0.0
  0
VERTEX
  5
226
330
219
100
AcDbEntity
  8
001
 62
     5
370
    50
100
AcDbVertex
100
AcDb2dVertex
 10
57.176153
 20
65.277335
 30
0.0
  0
VERTEX
  5
227
330
219
100
AcDbEntity
  8
001
 62
     5
370
    50
100
AcDbVertex
100
AcDb2dVertex
 10
57.173241
 20
65.308916
 30
0.0
  0
SEQEND
  5
21A
330
219
100
AcDbEntity
  8
001
370
    50
  0
POLYLINE
  5
228
330
64
100
AcDbEntity
  8
001
 62
     5
370
    50
100
AcDb2dPolyline
 66
     1
 10
0.0
 20
0.0
 30
0.0
  0
VERTEX
  5
22A
330
228
100
AcDbEntity
  8
001
 62
     5
370
    50
100
AcDbVertex
100
AcDb2dVertex
 10
57.012937
 20
63.510846
 30
0.0
  0
VERTEX
  5
22B
330
228
100
AcDbEntity
  8
001
 62
     5
370
    50
100
AcDbVertex
100
AcDb2dVertex
 10
57.022398
 20
63.545643
 30
0.0
  0
VERTEX
  5
22C
330
228
100
AcDbEntity
  8
001
 62
     5
370
    50
100
AcDbVertex
100
AcDb2dVertex
 10
57.032899
 20
63.594266
 30
0.0
  0
VERTEX
  5
22D
330
228
100
AcDbEntity
  8
001
 62
     5
370
    50
100
AcDbVertex
100
AcDb2dVertex
 10
57.039009
 20
63.642051
 30
0.0
  0
VERTEX
  5
22E
330
228
100
AcDbEntity
  8
001
 62
     5
370
    50
100
AcDbVertex
100
AcDb2dVertex
 10
57.040252
 20
63.686216
 30
0.0
  0
VERTEX
  5
22F
330
228
100
AcDbEntity
  8
001
 62
     5
370
    50
100
AcDbVertex
100
AcDb2dVertex
 10
57.038334
 20
63.731719
 30
0.0
  0
VERTEX
  5
230
330
228
100
AcDbEntity
  8
001
 62
     5
370
    50
100
AcDbVertex
100
AcDb2dVertex
 10
57.032899
 20
63.778167
 30
0.0
  0
VERTEX
  5
231
330
228
100
AcDbEntity
  8
001
 62
     5
370
    50
100
AcDbVertex
100
AcDb2dVertex
 10
57.010359
 20
63.867626
 30
0.0
  0
VERTEX
  5
232
330
228
100
AcDbEntity
  8
001
 62
     5
370
    50
100
AcDbVertex
100
AcDb2dVertex
 10
56.975407
 20
63.950978
 30
0.0
  0
VERTEX
  5
233
330
228
100
AcDbEntity
  8
001
 62
     5
370
    50
100
AcDbVertex
100
AcDb2dVertex
 10
56.906424
 20
64.056181
 30
0.0
  0
VERTEX
  5
234
330
228
100
AcDbEntity
  8
001
 62
     5
370
    50
100
AcDbVertex
100
AcDb2dVertex
 10
56.798245
 20
64.144797
 30
0.0
  0
VERTEX
  5
235
330
228
100
AcDbEntity
  8
001
 62
     5
370
    50
100
AcDbVertex
100
AcDb2dVertex
 10
56.762061
 20
64.165012
 30
0.0
  0
VERTEX
  5
236
330
228
100
AcDbEntity
  8
001
 62
     5
370
    50
100
AcDbVertex
100
AcDb2dVertex
 10
56.73599
 20
64.177868
 30
0.0
  0
SEQEND
  5
229
330
228
100
AcDbEntity
  8
001
370
    50
  0
POLYLINE
  5
237
330
64
100
AcDbEntity
  8
001
 62
     5
370
    50
100
AcDb2dPolyline
 66
     1
 10
0.0
 20
0.0
 30
0.0
  0
VERTEX
  5
239
330
237
100
AcDbEntity
  8
001
 62
     5
370
    50
100
AcDbVertex
100
AcDb2dVertex
 10
56.7837
 20
64.713012
 30
0.0
  0
VERTEX
  5
23A
330
237
100
AcDbEntity
  8
001
 62
     5
370
    50
100
AcDbVertex
100
AcDb2dVertex
 10
56.76665
 20
64.708547
 30
0.0
  0
VERTEX
  5
23B
330
237
100
AcDbEntity
  8
001
 62
     5
370
    50
100
AcDbVertex
100
AcDb2dVertex
 10
56.743505
 20
64.700957
 30
0.0
  0
VERTEX
  5
23C
330
237
100
AcDbEntity
  8
001
 62
     5
370
    50
100
AcDbVertex
100
AcDb2dVertex
 10
56.721712
 20
64.691366
 30
0.0
  0
VERTEX
  5
23D
330
237
100
AcDbEntity
  8
001
 62
     5
370
    50
100
AcDbVertex
100
AcDb2dVertex
 10
56.703072
 20
64.68033
 30
0.0
  0
VERTEX
  5
23E
330
237
100
AcDbEntity
  8
001
 62
     5
370
    50
100
AcDbVertex
100
AcDb2dVertex
 10
56.650896
 20
64.635476
 30
0.0
  0
VERTEX
  5
23F
330
237
100
AcDbEntity
  8
001
 62
     5
370
    50
100
AcDbVertex
100
AcDb2dVertex
 10
56.609392
 20
64.577843
 30
0.0
  0
VERTEX
  5
240
330
237
100
AcDbEntity
  8
001
 62
     5
370
    50
100
AcDbVertex
100
AcDb2dVertex
 10
56.590225
 20
64.533294
 30
0.0
  0
VERTEX
  5
241
330
237
100
AcDbEntity
  8
001
 62
     5
370
    50
100
AcDbVertex
100
AcDb2dVertex
 10
56.578992
 20
64.486465
 30
0.0
  0
VERTEX
  5
242
330
237
100
AcDbEntity
  8
001
 62
     5
370
    50
100
AcDbVertex
100
AcDb2dVertex
 10
56.576112
 20
64.462222
 30
0.0
  0
VERTEX
  5
243
330
237
100
AcDbEntity
  8
001
 62
     5
370
    50
100
AcDbVertex
100
AcDb2dVertex
 10
56.575103
 20
64.437843
 30
0.0
  0
VERTEX
  5
244
330
237
100
AcDbEntity
  8
001
 62
     5
370
    50
100
AcDbVertex
100
AcDb2dVertex
 10
56.576016
 20
64.413485
 30
0.0
  0
VERTEX
  5
245
330
237
100
AcDbEntity
  8
001
 62
     5
370
    50
100
AcDbVertex
100
AcDb2dVertex
 10
56.578992
 20
64.389222
 30
0.0
  0
VERTEX
  5
246
330
237
100
AcDbEntity
  8
001
 62
     5
370
    50
100
AcDbVertex
100
AcDb2dVertex
 10
56.590978
 20
64.342116
 30
0.0
  0
VERTEX
  5
247
330
237
100
AcDbEntity
  8
001
 62
     5
370
    50
100
AcDbVertex
100
AcDb2dVertex
 10
56.609392
 20
64.297843
 30
0.0
  0
VERTEX
  5
248
330
237
100
AcDbEntity
  8
001
 62
     5
370
    50
100
AcDbVertex
100
AcDb2dVertex
 10
56.645844
 20
64.242141
 30
0.0
  0
VERTEX
  5
249
330
237
100
AcDbEntity
  8
001
 62
     5
370
    50
100
AcDbVertex
100
AcDb2dVertex
 10
56.703072
 20
64.195356
 30
0.0
  0
VERTEX
  5
24A
330
237
100
AcDbEntity
  8
001
 62
     5
370
    50
100
AcDbVertex
100
AcDb2dVertex
 10
56.722206
 20
64.184669
 30
0.0
  0
VERTEX
  5
24B
330
237
100
AcDbEntity
  8
001
 62
     5
370
    50
100
AcDbVertex
100
AcDb2dVertex
 10
56.73599
 20
64.177868
 30
0.0
  0
SEQEND
  5
238
330
237
100
AcDbEntity
  8
001
370
    50
  0
POLYLINE
  5
24C
330
64
100
AcDbEntity
  8
001
 62
     5
370
    50
100
AcDb2dPolyline
 66
     1
 10
0.0
 20
0.0
 30
0.0
  0
VERTEX
  5
24E
330
24C
100
AcDbEntity
  8
001
 62
     5
370
    50
100
AcDbVertex
100
AcDb2dVertex
 10
59.334155
 20
63.641287
 30
0.0
  0
VERTEX
  5
24F
330
24C
100
AcDbEntity
  8
001
 62
     5
370
    50
100
AcDbVertex
100
AcDb2dVertex
 10
59.348951
 20
63.6666
 30
0.0
  0
VERTEX
  5
250
330
24C
100
AcDbEntity
  8
001
 62
     5
370
    50
100
AcDbVertex
100
AcDb2dVertex
 10
59.369616
 20
63.704119
 30
0.0
  0
VERTEX
  5
251
330
24C
100
AcDbEntity
  8
001
 62
     5
370
    50
100
AcDbVertex
100
AcDb2dVertex
 10
59.408713
 20
63.785363
 30
0.0
  0
VERTEX
  5
252
330
24C
100
AcDbEntity
  8
001
 62
     5
370
    50
100
AcDbVertex
100
AcDb2dVertex
 10
59.432503
 20
63.842358
 30
0.0
  0
SEQEND
  5
24D
330
24C
100
AcDbEntity
  8
001
370
    50
  0
POLYLINE
  5
253
330
64
100
AcDbEntity
  8
001
 62
     5
370
    50
100
AcDb2dPolyline
 66
     1
 10
0.0
 20
0.0
 30
0.0
  0
VERTEX
  5
255
330
253
100
AcDbEntity
  8
001
 62
     5
370
    50
100
AcDbVertex
100
AcDb2dVertex
 10
59.432503
 20
64.815881
 30
0.0
  0
VERTEX
  5
256
330
253
100
AcDbEntity
  8
001
 62
     5
370
    50
100
AcDbVertex
100
AcDb2dVertex
 10
59.408713
 20
64.872876
 30
0.0
  0
VERTEX
  5
257
330
253
100
AcDbEntity
  8
001
 62
     5
370
    50
100
AcDbVertex
100
AcDb2dVertex
 10
59.369616
 20
64.954119
 30
0.0
  0
VERTEX
  5
258
330
253
100
AcDbEntity
  8
001
 62
     5
370
    50
100
AcDbVertex
100
AcDb2dVertex
 10
59.348951
 20
64.991639
 30
0.0
  0
VERTEX
  5
259
330
253
100
AcDbEntity
  8
001
 62
     5
370
    50
100
AcDbVertex
100
AcDb2dVertex
 10
59.334155
 20
65.016952
 30
0.0
  0
SEQEND
  5
254
330
253
100
AcDbEntity
  8
001
370
    50
  0
ENDBLK
  5
66
330
64
100
AcDbEntity
  8
0
100
AcDbBlockEnd
  0
BLOCK
  5
25B
330
25A
100
AcDbEntity
  8
0
100
AcDbBlockBegin
  2
C32GUX-2
 70
     0
 10
0.0
 20
0.0
 30
0.0
  3
C32GUX-2
  1

  0
LINE
  5
25D
330
25A
100
AcDbEntity
  8
001
 62
    40
370
    50
100
AcDbLine
 10
63.537568
 20
64.954868
 30
0.0
 11
63.928562
 21
64.677524
 31
0.0
  0
POLYLINE
  5
25E
330
25A
100
AcDbEntity
  8
001
 62
    40
370
    50
100
AcDb2dPolyline
 66
     1
 10
0.0
 20
0.0
 30
0.0
  0
VERTEX
  5
260
330
25E
100
AcDbEntity
  8
001
 62
    40
370
    50
100
AcDbVertex
100
AcDb2dVertex
 10
63.962144
 20
64.118453
 30
0.0
  0
VERTEX
  5
261
330
25E
100
AcDbEntity
  8
001
 62
    40
370
    50
100
AcDbVertex
100
AcDb2dVertex
 10
63.996775
 20
64.183348
 30
0.0
  0
VERTEX
  5
262
330
25E
100
AcDbEntity
  8
001
 62
    40
370
    50
100
AcDbVertex
100
AcDb2dVertex
 10
64.025057
 20
64.250647
 30
0.0
  0
VERTEX
  5
263
330
25E
100
AcDbEntity
  8
001
 62
    40
370
    50
100
AcDbVertex
100
AcDb2dVertex
 10
64.037023
 20
64.294653
 30
0.0
  0
VERTEX
  5
264
330
25E
100
AcDbEntity
  8
001
 62
    40
370
    50
100
AcDbVertex
100
AcDb2dVertex
 10
64.044668
 20
64.339773
 30
0.0
  0
VERTEX
  5
265
330
25E
100
AcDbEntity
  8
001
 62
    40
370
    50
100
AcDbVertex
100
AcDb2dVertex
 10
64.048425
 20
64.385496
 30
0.0
  0
VERTEX
  5
266
330
25E
100
AcDbEntity
  8
001
 62
    40
370
    50
100
AcDbVertex
100
AcDb2dVertex
 10
64.047935
 20
64.431301
 30
0.0
  0
VERTEX
  5
267
330
25E
100
AcDbEntity
  8
001
 62
    40
370
    50
100
AcDbVertex
100
AcDb2dVertex
 10
64.039647
 20
64.493057
 30
0.0
  0
VERTEX
  5
268
330
25E
100
AcDbEntity
  8
001
 62
    40
370
    50
100
AcDbVertex
100
AcDb2dVertex
 10
64.021927
 20
64.553018
 30
0.0
  0
VERTEX
  5
269
330
25E
100
AcDbEntity
  8
001
 62
    40
370
    50
100
AcDbVertex
100
AcDb2dVertex
 10
64.001948
 20
64.595578
 30
0.0
  0
VERTEX
  5
26A
330
25E
100
AcDbEntity
  8
001
 62
    40
370
    50
100
AcDbVertex
100
AcDb2dVertex
 10
63.975238
 20
64.633739
 30
0.0
  0
VERTEX
  5
26B
330
25E
100
AcDbEntity
  8
001
 62
    40
370
    50
100
AcDbVertex
100
AcDb2dVertex
 10
63.952819
 20
64.656455
 30
0.0
  0
VERTEX
  5
26C
330
25E
100
AcDbEntity
  8
001
 62
    40
370
    50
100
AcDbVertex
100
AcDb2dVertex
 10
63.928562
 20
64.677524
 30
0.0
  0
SEQEND
  5
25F
330
25E
100
AcDbEntity
  8
001
370
    50
  0
POLYLINE
  5
26D
330
25A
100
AcDbEntity
  8
001
 62
    40
370
    50
100
AcDb2dPolyline
 66
     1
 10
0.0
 20
0.0
 30
0.0
  0
VERTEX
  5
26F
330
26D
100
AcDbEntity
  8
001
 62
    40
370
    50
100
AcDbVertex
100
AcDb2dVertex
 10
63.962144
 20
64.118453
 30
0.0
  0
VERTEX
  5
270
330
26D
100
AcDbEntity
  8
001
 62
    40
370
    50
100
AcDbVertex
100
AcDb2dVertex
 10
63.93704
 20
64.188767
 30
0.0
  0
VERTEX
  5
271
330
26D
100
AcDbEntity
  8
001
 62
    40
370
    50
100
AcDbVertex
100
AcDb2dVertex
 10
63.897528
 20
64.290407
 30
0.0
  0
VERTEX
  5
272
330
26D
100
AcDbEntity
  8
001
 62
    40
370
    50
100
AcDbVertex
100
AcDb2dVertex
 10
63.69883
 20
64.692393
 30
0.0
  0
VERTEX
  5
273
330
26D
100
AcDbEntity
  8
001
 62
    40
370
    50
100
AcDbVertex
100
AcDb2dVertex
 10
63.537568
 20
64.954868
 30
0.0
  0
SEQEND
  5
26E
330
26D
100
AcDbEntity
  8
001
370
    50
  0
POLYLINE
  5
274
330
25A
100
AcDbEntity
  8
001
 62
    40
370
    50
100
AcDb2dPolyline
 66
     1
 10
0.0
 20
0.0
 30
0.0
  0
VERTEX
  5
276
330
274
100
AcDbEntity
  8
001
 62
    40
370
    50
100
AcDbVertex
100
AcDb2dVertex
 10
61.245637
 20
62.799874
 30
0.0
  0
VERTEX
  5
277
330
274
100
AcDbEntity
  8
001
 62
    40
370
    50
100
AcDbVertex
100
AcDb2dVertex
 10
61.474463
 20
62.735087
 30
0.0
  0
VERTEX
  5
278
330
274
100
AcDbEntity
  8
001
 62
    40
370
    50
100
AcDbVertex
100
AcDb2dVertex
 10
61.812225
 20
62.654458
 30
0.0
  0
VERTEX
  5
279
330
274
100
AcDbEntity
  8
001
 62
    40
370
    50
100
AcDbVertex
100
AcDb2dVertex
 10
62.121309
 20
62.59991
 30
0.0
  0
VERTEX
  5
27A
330
274
100
AcDbEntity
  8
001
 62
    40
370
    50
100
AcDbVertex
100
AcDb2dVertex
 10
62.334411
 20
62.572067
 30
0.0
  0
SEQEND
  5
275
330
274
100
AcDbEntity
  8
001
370
    50
  0
LINE
  5
27B
330
25A
100
AcDbEntity
  8
001
 62
    40
370
    50
100
AcDbLine
 10
59.604966
 20
64.270193
 30
0.0
 11
61.245637
 21
62.799874
 31
0.0
  0
POLYLINE
  5
27C
330
25A
100
AcDbEntity
  8
001
 62
    40
370
    50
100
AcDb2dPolyline
 66
     1
 10
0.0
 20
0.0
 30
0.0
  0
VERTEX
  5
27E
330
27C
100
AcDbEntity
  8
001
 62
    40
370
    50
100
AcDbVertex
100
AcDb2dVertex
 10
59.604966
 20
64.270193
 30
0.0
  0
VERTEX
  5
27F
330
27C
100
AcDbEntity
  8
001
 62
    40
370
    50
100
AcDbVertex
100
AcDb2dVertex
 10
59.592287
 20
64.417976
 30
0.0
  0
VERTEX
  5
280
330
27C
100
AcDbEntity
  8
001
 62
    40
370
    50
100
AcDbVertex
100
AcDb2dVertex
 10
59.575003
 20
64.565177
 30
0.0
  0
VERTEX
  5
281
330
27C
100
AcDbEntity
  8
001
 62
    40
370
    50
100
AcDbVertex
100
AcDb2dVertex
 10
59.548013
 20
64.717692
 30
0.0
  0
VERTEX
  5
282
330
27C
100
AcDbEntity
  8
001
 62
    40
370
    50
100
AcDbVertex
100
AcDb2dVertex
 10
59.51155
 20
64.868319
 30
0.0
  0
VERTEX
  5
283
330
27C
100
AcDbEntity
  8
001
 62
    40
370
    50
100
AcDbVertex
100
AcDb2dVertex
 10
59.466372
 20
65.015573
 30
0.0
  0
VERTEX
  5
284
330
27C
100
AcDbEntity
  8
001
 62
    40
370
    50
100
AcDbVertex
100
AcDb2dVertex
 10
59.412296
 20
65.159757
 30
0.0
  0
VERTEX
  5
285
330
27C
100
AcDbEntity
  8
001
 62
    40
370
    50
100
AcDbVertex
100
AcDb2dVertex
 10
59.347729
 20
65.303422
 30
0.0
  0
VERTEX
  5
286
330
27C
100
AcDbEntity
  8
001
 62
    40
370
    50
100
AcDbVertex
100
AcDb2dVertex
 10
59.273928
 20
65.442602
 30
0.0
  0
VERTEX
  5
287
330
27C
100
AcDbEntity
  8
001
 62
    40
370
    50
100
AcDbVertex
100
AcDb2dVertex
 10
59.190359
 20
65.577606
 30
0.0
  0
VERTEX
  5
288
330
27C
100
AcDbEntity
  8
001
 62
    40
370
    50
100
AcDbVertex
100
AcDb2dVertex
 10
59.097568
 20
65.706401
 30
0.0
  0
VERTEX
  5
289
330
27C
100
AcDbEntity
  8
001
 62
    40
370
    50
100
AcDbVertex
100
AcDb2dVertex
 10
59.006735
 20
65.815743
 30
0.0
  0
VERTEX
  5
28A
330
27C
100
AcDbEntity
  8
001
 62
    40
370
    50
100
AcDbVertex
100
AcDb2dVertex
 10
58.909127
 20
65.919099
 30
0.0
  0
VERTEX
  5
28B
330
27C
100
AcDbEntity
  8
001
 62
    40
370
    50
100
AcDbVertex
100
AcDb2dVertex
 10
58.804167
 20
66.017291
 30
0.0
  0
VERTEX
  5
28C
330
27C
100
AcDbEntity
  8
001
 62
    40
370
    50
100
AcDbVertex
100
AcDb2dVertex
 10
58.69339
 20
66.10887
 30
0.0
  0
VERTEX
  5
28D
330
27C
100
AcDbEntity
  8
001
 62
    40
370
    50
100
AcDbVertex
100
AcDb2dVertex
 10
58.576688
 20
66.193936
 30
0.0
  0
VERTEX
  5
28E
330
27C
100
AcDbEntity
  8
001
 62
    40
370
    50
100
AcDbVertex
100
AcDb2dVertex
 10
58.455015
 20
66.271703
 30
0.0
  0
VERTEX
  5
28F
330
27C
100
AcDbEntity
  8
001
 62
    40
370
    50
100
AcDbVertex
100
AcDb2dVertex
 10
58.336373
 20
66.33803
 30
0.0
  0
VERTEX
  5
290
330
27C
100
AcDbEntity
  8
001
 62
    40
370
    50
100
AcDbVertex
100
AcDb2dVertex
 10
58.214338
 20
66.397902
 30
0.0
  0
VERTEX
  5
291
330
27C
100
AcDbEntity
  8
001
 62
    40
370
    50
100
AcDbVertex
100
AcDb2dVertex
 10
58.087753
 20
66.452333
 30
0.0
  0
VERTEX
  5
292
330
27C
100
AcDbEntity
  8
001
 62
    40
370
    50
100
AcDbVertex
100
AcDb2dVertex
 10
57.958747
 20
66.500745
 30
0.0
  0
VERTEX
  5
293
330
27C
100
AcDbEntity
  8
001
 62
    40
370
    50
100
AcDbVertex
100
AcDb2dVertex
 10
57.826692
 20
66.543736
 30
0.0
  0
VERTEX
  5
294
330
27C
100
AcDbEntity
  8
001
 62
    40
370
    50
100
AcDbVertex
100
AcDb2dVertex
 10
57.692958
 20
66.581163
 30
0.0
  0
VERTEX
  5
295
330
27C
100
AcDbEntity
  8
001
 62
    40
370
    50
100
AcDbVertex
100
AcDb2dVertex
 10
57.558341
 20
66.613271
 30
0.0
  0
VERTEX
  5
296
330
27C
100
AcDbEntity
  8
001
 62
    40
370
    50
100
AcDbVertex
100
AcDb2dVertex
 10
57.42272
 20
66.640886
 30
0.0
  0
VERTEX
  5
297
330
27C
100
AcDbEntity
  8
001
 62
    40
370
    50
100
AcDbVertex
100
AcDb2dVertex
 10
57.285527
 20
66.664848
 30
0.0
  0
VERTEX
  5
298
330
27C
100
AcDbEntity
  8
001
 62
    40
370
    50
100
AcDbVertex
100
AcDb2dVertex
 10
57.147787
 20
66.685366
 30
0.0
  0
VERTEX
  5
299
330
27C
100
AcDbEntity
  8
001
 62
    40
370
    50
100
AcDbVertex
100
AcDb2dVertex
 10
57.010286
 20
66.702893
 30
0.0
  0
VERTEX
  5
29A
330
27C
100
AcDbEntity
  8
001
 62
    40
370
    50
100
AcDbVertex
100
AcDb2dVertex
 10
56.872584
 20
66.71887
 30
0.0
  0
SEQEND
  5
27D
330
27C
100
AcDbEntity
  8
001
370
    50
  0
LINE
  5
29B
330
25A
100
AcDbEntity
  8
001
 62
    40
370
    50
100
AcDbLine
 10
55.607579
 20
67.852528
 30
0.0
 11
56.872584
 21
66.71887
 31
0.0
  0
POLYLINE
  5
29C
330
25A
100
AcDbEntity
  8
001
 62
    40
370
    50
100
AcDb2dPolyline
 66
     1
 10
0.0
 20
0.0
 30
0.0
  0
VERTEX
  5
29E
330
29C
100
AcDbEntity
  8
001
 62
    40
370
    50
100
AcDbVertex
100
AcDb2dVertex
 10
55.495318
 20
68.701052
 30
0.0
  0
VERTEX
  5
29F
330
29C
100
AcDbEntity
  8
001
 62
    40
370
    50
100
AcDbVertex
100
AcDb2dVertex
 10
55.501083
 20
68.533709
 30
0.0
  0
VERTEX
  5
2A0
330
29C
100
AcDbEntity
  8
001
 62
    40
370
    50
100
AcDbVertex
100
AcDb2dVertex
 10
55.523376
 20
68.290331
 30
0.0
  0
VERTEX
  5
2A1
330
29C
100
AcDbEntity
  8
001
 62
    40
370
    50
100
AcDbVertex
100
AcDb2dVertex
 10
55.567667
 20
68.029431
 30
0.0
  0
VERTEX
  5
2A2
330
29C
100
AcDbEntity
  8
001
 62
    40
370
    50
100
AcDbVertex
100
AcDb2dVertex
 10
55.607579
 20
67.852528
 30
0.0
  0
SEQEND
  5
29D
330
29C
100
AcDbEntity
  8
001
370
    50
  0
POLYLINE
  5
2A3
330
25A
100
AcDbEntity
  8
001
 62
    40
370
    50
100
AcDb2dPolyline
 66
     1
 10
0.0
 20
0.0
 30
0.0
  0
VERTEX
  5
2A5
330
2A3
100
AcDbEntity
  8
001
 62
    40
370
    50
100
AcDbVertex
100
AcDb2dVertex
 10
55.495318
 20
68.701052
 30
0.0
  0
VERTEX
  5
2A6
330
2A3
100
AcDbEntity
  8
001
 62
    40
370
    50
100
AcDbVertex
100
AcDb2dVertex
 10
55.540414
 20
68.732644
 30
0.0
  0
VERTEX
  5
2A7
330
2A3
100
AcDbEntity
  8
001
 62
    40
370
    50
100
AcDbVertex
100
AcDb2dVertex
 10
55.604135
 20
68.777796
 30
0.0
  0
VERTEX
  5
2A8
330
2A3
100
AcDbEntity
  8
001
 62
    40
370
    50
100
AcDbVertex
100
AcDb2dVertex
 10
55.769794
 20
68.899058
 30
0.0
  0
VERTEX
  5
2A9
330
2A3
100
AcDbEntity
  8
001
 62
    40
370
    50
100
AcDbVertex
100
AcDb2dVertex
 10
55.913654
 20
69.010972
 30
0.0
  0
VERTEX
  5
2AA
330
2A3
100
AcDbEntity
  8
001
 62
    40
370
    50
100
AcDbVertex
100
AcDb2dVertex
 10
56.062462
 20
69.132205
 30
0.0
  0
VERTEX
  5
2AB
330
2A3
100
AcDbEntity
  8
001
 62
    40
370
    50
100
AcDbVertex
100
AcDb2dVertex
 10
56.212202
 20
69.258041
 30
0.0
  0
VERTEX
  5
2AC
330
2A3
100
AcDbEntity
  8
001
 62
    40
370
    50
100
AcDbVertex
100
AcDb2dVertex
 10
56.47577
 20
69.492337
 30
0.0
  0
VERTEX
  5
2AD
330
2A3
100
AcDbEntity
  8
001
 62
    40
370
    50
100
AcDbVertex
100
AcDb2dVertex
 10
56.740705
 20
69.763632
 30
0.0
  0
VERTEX
  5
2AE
330
2A3
100
AcDbEntity
  8
001
 62
    40
370
    50
100
AcDbVertex
100
AcDb2dVertex
 10
56.970506
 20
70.032466
 30
0.0
  0
VERTEX
  5
2AF
330
2A3
100
AcDbEntity
  8
001
 62
    40
370
    50
100
AcDbVertex
100
AcDb2dVertex
 10
57.12709
 20
70.235329
 30
0.0
  0
SEQEND
  5
2A4
330
2A3
100
AcDbEntity
  8
001
370
    50
  0
POLYLINE
  5
2B0
330
25A
100
AcDbEntity
  8
001
 62
    40
370
    50
100
AcDb2dPolyline
 66
     1
 10
0.0
 20
0.0
 30
0.0
  0
VERTEX
  5
2B2
330
2B0
100
AcDbEntity
  8
001
 62
    40
370
    50
100
AcDbVertex
100
AcDb2dVertex
 10
57.89951
 20
70.007522
 30
0.0
  0
VERTEX
  5
2B3
330
2B0
100
AcDbEntity
  8
001
 62
    40
370
    50
100
AcDbVertex
100
AcDb2dVertex
 10
57.612298
 20
70.117923
 30
0.0
  0
VERTEX
  5
2B4
330
2B0
100
AcDbEntity
  8
001
 62
    40
370
    50
100
AcDbVertex
100
AcDb2dVertex
 10
57.178907
 20
70.227604
 30
0.0
  0
VERTEX
  5
2B5
330
2B0
100
AcDbEntity
  8
001
 62
    40
370
    50
100
AcDbVertex
100
AcDb2dVertex
 10
57.148161
 20
70.232311
 30
0.0
  0
VERTEX
  5
2B6
330
2B0
100
AcDbEntity
  8
001
 62
    40
370
    50
100
AcDbVertex
100
AcDb2dVertex
 10
57.12709
 20
70.235329
 30
0.0
  0
SEQEND
  5
2B1
330
2B0
100
AcDbEntity
  8
001
370
    50
  0
LINE
  5
2B7
330
25A
100
AcDbEntity
  8
001
 62
    40
370
    50
100
AcDbLine
 10
63.537568
 20
64.954868
 30
0.0
 11
57.89951
 21
70.007522
 31
0.0
  0
POLYLINE
  5
2B8
330
25A
100
AcDbEntity
  8
001
 62
    40
370
    50
100
AcDb2dPolyline
 66
     1
 10
0.0
 20
0.0
 30
0.0
  0
VERTEX
  5
2BA
330
2B8
100
AcDbEntity
  8
001
 62
    40
370
    50
100
AcDbVertex
100
AcDb2dVertex
 10
63.878453
 20
63.985023
 30
0.0
  0
VERTEX
  5
2BB
330
2B8
100
AcDbEntity
  8
001
 62
    40
370
    50
100
AcDbVertex
100
AcDb2dVertex
 10
63.901688
 20
64.017486
 30
0.0
  0
VERTEX
  5
2BC
330
2B8
100
AcDbEntity
  8
001
 62
    40
370
    50
100
AcDbVertex
100
AcDb2dVertex
 10
63.923778
 20
64.050666
 30
0.0
  0
VERTEX
  5
2BD
330
2B8
100
AcDbEntity
  8
001
 62
    40
370
    50
100
AcDbVertex
100
AcDb2dVertex
 10
63.943507
 20
64.084218
 30
0.0
  0
VERTEX
  5
2BE
330
2B8
100
AcDbEntity
  8
001
 62
    40
370
    50
100
AcDbVertex
100
AcDb2dVertex
 10
63.962144
 20
64.118453
 30
0.0
  0
SEQEND
  5
2B9
330
2B8
100
AcDbEntity
  8
001
370
    50
  0
POLYLINE
  5
2BF
330
25A
100
AcDbEntity
  8
001
 62
    40
370
    50
100
AcDb2dPolyline
 66
     1
 10
0.0
 20
0.0
 30
0.0
  0
VERTEX
  5
2C1
330
2BF
100
AcDbEntity
  8
001
 62
    40
370
    50
100
AcDbVertex
100
AcDb2dVertex
 10
62.334411
 20
62.572067
 30
0.0
  0
VERTEX
  5
2C2
330
2BF
100
AcDbEntity
  8
001
 62
    40
370
    50
100
AcDbVertex
100
AcDb2dVertex
 10
62.379509
 20
62.60366
 30
0.0
  0
VERTEX
  5
2C3
330
2BF
100
AcDbEntity
  8
001
 62
    40
370
    50
100
AcDbVertex
100
AcDb2dVertex
 10
62.443228
 20
62.648811
 30
0.0
  0
VERTEX
  5
2C4
330
2BF
100
AcDbEntity
  8
001
 62
    40
370
    50
100
AcDbVertex
100
AcDb2dVertex
 10
62.608846
 20
62.770047
 30
0.0
  0
VERTEX
  5
2C5
330
2BF
100
AcDbEntity
  8
001
 62
    40
370
    50
100
AcDbVertex
100
AcDb2dVertex
 10
62.752747
 20
62.881987
 30
0.0
  0
VERTEX
  5
2C6
330
2BF
100
AcDbEntity
  8
001
 62
    40
370
    50
100
AcDbVertex
100
AcDb2dVertex
 10
62.901729
 20
63.003331
 30
0.0
  0
VERTEX
  5
2C7
330
2BF
100
AcDbEntity
  8
001
 62
    40
370
    50
100
AcDbVertex
100
AcDb2dVertex
 10
63.051295
 20
63.129056
 30
0.0
  0
VERTEX
  5
2C8
330
2BF
100
AcDbEntity
  8
001
 62
    40
370
    50
100
AcDbVertex
100
AcDb2dVertex
 10
63.313214
 20
63.362305
 30
0.0
  0
VERTEX
  5
2C9
330
2BF
100
AcDbEntity
  8
001
 62
    40
370
    50
100
AcDbVertex
100
AcDb2dVertex
 10
63.579798
 20
63.634648
 30
0.0
  0
VERTEX
  5
2CA
330
2BF
100
AcDbEntity
  8
001
 62
    40
370
    50
100
AcDbVertex
100
AcDb2dVertex
 10
63.756465
 20
63.836142
 30
0.0
  0
VERTEX
  5
2CB
330
2BF
100
AcDbEntity
  8
001
 62
    40
370
    50
100
AcDbVertex
100
AcDb2dVertex
 10
63.878453
 20
63.985023
 30
0.0
  0
SEQEND
  5
2C0
330
2BF
100
AcDbEntity
  8
001
370
    50
  0
LINE
  5
2CC
330
25A
100
AcDbEntity
  8
001
 62
    40
370
    50
100
AcDbLine
 10
57.544579
 20
70.439342
 30
0.0
 11
57.89951
 21
70.007522
 31
0.0
  0
LINE
  5
2CD
330
25A
100
AcDbEntity
  8
001
 62
    40
370
    50
100
AcDbLine
 10
63.321087
 20
66.3047
 30
0.0
 11
62.82835
 21
66.746276
 31
0.0
  0
LINE
  5
2CE
330
25A
100
AcDbEntity
  8
001
 62
    40
370
    50
100
AcDbLine
 10
58.987903
 20
70.187967
 30
0.0
 11
58.707403
 21
70.439342
 31
0.0
  0
POLYLINE
  5
2CF
330
25A
100
AcDbEntity
  8
001
 62
    40
370
    50
100
AcDb2dPolyline
 66
     1
 10
0.0
 20
0.0
 30
0.0
  0
VERTEX
  5
2D1
330
2CF
100
AcDbEntity
  8
001
 62
    40
370
    50
100
AcDbVertex
100
AcDb2dVertex
 10
63.362473
 20
62.474746
 30
0.0
  0
VERTEX
  5
2D2
330
2CF
100
AcDbEntity
  8
001
 62
    40
370
    50
100
AcDbVertex
100
AcDb2dVertex
 10
63.586638
 20
62.732911
 30
0.0
  0
VERTEX
  5
2D3
330
2CF
100
AcDbEntity
  8
001
 62
    40
370
    50
100
AcDbVertex
100
AcDb2dVertex
 10
63.852014
 20
63.120727
 30
0.0
  0
VERTEX
  5
2D4
330
2CF
100
AcDbEntity
  8
001
 62
    40
370
    50
100
AcDbVertex
100
AcDb2dVertex
 10
64.033358
 20
63.529905
 30
0.0
  0
VERTEX
  5
2D5
330
2CF
100
AcDbEntity
  8
001
 62
    40
370
    50
100
AcDbVertex
100
AcDb2dVertex
 10
64.12345
 20
63.936606
 30
0.0
  0
VERTEX
  5
2D6
330
2CF
100
AcDbEntity
  8
001
 62
    40
370
    50
100
AcDbVertex
100
AcDb2dVertex
 10
64.148599
 20
64.151554
 30
0.0
  0
VERTEX
  5
2D7
330
2CF
100
AcDbEntity
  8
001
 62
    40
370
    50
100
AcDbVertex
100
AcDb2dVertex
 10
64.158166
 20
64.370727
 30
0.0
  0
VERTEX
  5
2D8
330
2CF
100
AcDbEntity
  8
001
 62
    40
370
    50
100
AcDbVertex
100
AcDb2dVertex
 10
64.148607
 20
64.589856
 30
0.0
  0
VERTEX
  5
2D9
330
2CF
100
AcDbEntity
  8
001
 62
    40
370
    50
100
AcDbVertex
100
AcDb2dVertex
 10
64.12345
 20
64.804847
 30
0.0
  0
VERTEX
  5
2DA
330
2CF
100
AcDbEntity
  8
001
 62
    40
370
    50
100
AcDbVertex
100
AcDb2dVertex
 10
64.033297
 20
65.212139
 30
0.0
  0
VERTEX
  5
2DB
330
2CF
100
AcDbEntity
  8
001
 62
    40
370
    50
100
AcDbVertex
100
AcDb2dVertex
 10
63.852014
 20
65.620727
 30
0.0
  0
VERTEX
  5
2DC
330
2CF
100
AcDbEntity
  8
001
 62
    40
370
    50
100
AcDbVertex
100
AcDb2dVertex
 10
63.565465
 20
66.032409
 30
0.0
  0
VERTEX
  5
2DD
330
2CF
100
AcDbEntity
  8
001
 62
    40
370
    50
100
AcDbVertex
100
AcDb2dVertex
 10
63.321087
 20
66.3047
 30
0.0
  0
SEQEND
  5
2D0
330
2CF
100
AcDbEntity
  8
001
370
    50
  0
LINE
  5
2DE
330
25A
100
AcDbEntity
  8
001
 62
    40
370
    50
100
AcDbLine
 10
57.921599
 20
58.42291
 30
0.0
 11
57.707854
 21
58.221936
 31
0.0
  0
POLYLINE
  5
2DF
330
25A
100
AcDbEntity
  8
001
 62
    40
370
    50
100
AcDb2dPolyline
 66
     1
 10
0.0
 20
0.0
 30
0.0
  0
VERTEX
  5
2E1
330
2DF
100
AcDbEntity
  8
001
 62
    40
370
    50
100
AcDbVertex
100
AcDb2dVertex
 10
57.921599
 20
58.42291
 30
0.0
  0
VERTEX
  5
2E2
330
2DF
100
AcDbEntity
  8
001
 62
    40
370
    50
100
AcDbVertex
100
AcDb2dVertex
 10
57.966642
 20
58.454445
 30
0.0
  0
VERTEX
  5
2E3
330
2DF
100
AcDbEntity
  8
001
 62
    40
370
    50
100
AcDbVertex
100
AcDb2dVertex
 10
58.030416
 20
58.499654
 30
0.0
  0
VERTEX
  5
2E4
330
2DF
100
AcDbEntity
  8
001
 62
    40
370
    50
100
AcDbVertex
100
AcDb2dVertex
 10
58.197432
 20
58.622375
 30
0.0
  0
VERTEX
  5
2E5
330
2DF
100
AcDbEntity
  8
001
 62
    40
370
    50
100
AcDbVertex
100
AcDb2dVertex
 10
58.339935
 20
58.73283
 30
0.0
  0
VERTEX
  5
2E6
330
2DF
100
AcDbEntity
  8
001
 62
    40
370
    50
100
AcDbVertex
100
AcDb2dVertex
 10
58.482877
 20
58.84776
 30
0.0
  0
VERTEX
  5
2E7
330
2DF
100
AcDbEntity
  8
001
 62
    40
370
    50
100
AcDbVertex
100
AcDb2dVertex
 10
58.638483
 20
58.979899
 30
0.0
  0
VERTEX
  5
2E8
330
2DF
100
AcDbEntity
  8
001
 62
    40
370
    50
100
AcDbVertex
100
AcDb2dVertex
 10
58.852575
 20
59.173968
 30
0.0
  0
VERTEX
  5
2E9
330
2DF
100
AcDbEntity
  8
001
 62
    40
370
    50
100
AcDbVertex
100
AcDb2dVertex
 10
59.004771
 20
59.318806
 30
0.0
  0
SEQEND
  5
2E0
330
2DF
100
AcDbEntity
  8
001
370
    50
  0
LINE
  5
2EA
330
25A
100
AcDbEntity
  8
001
 62
    40
370
    50
100
AcDbLine
 10
62.334411
 20
62.572067
 30
0.0
 11
61.747848
 21
62.02055
 31
0.0
  0
LINE
  5
2EB
330
25A
100
AcDbEntity
  8
001
 62
    40
370
    50
100
AcDbLine
 10
58.839422
 20
58.221936
 30
0.0
 11
59.079763
 21
58.447917
 31
0.0
  0
LINE
  5
2EC
330
25A
100
AcDbEntity
  8
001
 62
    40
370
    50
100
AcDbLine
 10
62.879416
 20
62.02055
 30
0.0
 11
63.362473
 21
62.474746
 31
0.0
  0
POLYLINE
  5
2ED
330
25A
100
AcDbEntity
  8
001
 62
    40
370
    50
100
AcDb2dPolyline
 66
     1
 10
0.0
 20
0.0
 30
0.0
  0
VERTEX
  5
2EF
330
2ED
100
AcDbEntity
  8
001
 62
    40
370
    50
100
AcDbVertex
100
AcDb2dVertex
 10
59.534555
 20
60.011951
 30
0.0
  0
VERTEX
  5
2F0
330
2ED
100
AcDbEntity
  8
001
 62
    40
370
    50
100
AcDbVertex
100
AcDb2dVertex
 10
59.514945
 20
60.064739
 30
0.0
  0
VERTEX
  5
2F1
330
2ED
100
AcDbEntity
  8
001
 62
    40
370
    50
100
AcDbVertex
100
AcDb2dVertex
 10
59.484716
 20
60.141249
 30
0.0
  0
VERTEX
  5
2F2
330
2ED
100
AcDbEntity
  8
001
 62
    40
370
    50
100
AcDbVertex
100
AcDb2dVertex
 10
59.285903
 20
60.543211
 30
0.0
  0
VERTEX
  5
2F3
330
2ED
100
AcDbEntity
  8
001
 62
    40
370
    50
100
AcDbVertex
100
AcDb2dVertex
 10
59.124757
 20
60.805711
 30
0.0
  0
SEQEND
  5
2EE
330
2ED
100
AcDbEntity
  8
001
370
    50
  0
LINE
  5
2F4
330
25A
100
AcDbEntity
  8
001
 62
    40
370
    50
100
AcDbLine
 10
61.245637
 20
62.799874
 30
0.0
 11
59.124757
 21
60.805711
 31
0.0
  0
LINE
  5
2F5
330
25A
100
AcDbEntity
  8
001
 62
    40
370
    50
100
AcDbLine
 10
59.124757
 20
60.805711
 30
0.0
 11
57.859752
 21
61.939369
 31
0.0
  0
POLYLINE
  5
2F6
330
25A
100
AcDbEntity
  8
001
 62
    40
370
    50
100
AcDb2dPolyline
 66
     1
 10
0.0
 20
0.0
 30
0.0
  0
VERTEX
  5
2F8
330
2F6
100
AcDbEntity
  8
001
 62
    40
370
    50
100
AcDbVertex
100
AcDb2dVertex
 10
57.859752
 20
61.939369
 30
0.0
  0
VERTEX
  5
2F9
330
2F6
100
AcDbEntity
  8
001
 62
    40
370
    50
100
AcDbVertex
100
AcDb2dVertex
 10
57.97454
 20
61.972882
 30
0.0
  0
VERTEX
  5
2FA
330
2F6
100
AcDbEntity
  8
001
 62
    40
370
    50
100
AcDbVertex
100
AcDb2dVertex
 10
58.132103
 20
62.026872
 30
0.0
  0
VERTEX
  5
2FB
330
2F6
100
AcDbEntity
  8
001
 62
    40
370
    50
100
AcDbVertex
100
AcDb2dVertex
 10
58.323654
 20
62.110977
 30
0.0
  0
VERTEX
  5
2FC
330
2F6
100
AcDbEntity
  8
001
 62
    40
370
    50
100
AcDbVertex
100
AcDb2dVertex
 10
58.485891
 20
62.207357
 30
0.0
  0
VERTEX
  5
2FD
330
2F6
100
AcDbEntity
  8
001
 62
    40
370
    50
100
AcDbVertex
100
AcDb2dVertex
 10
58.941782
 20
62.608703
 30
0.0
  0
VERTEX
  5
2FE
330
2F6
100
AcDbEntity
  8
001
 62
    40
370
    50
100
AcDbVertex
100
AcDb2dVertex
 10
59.305585
 20
63.104119
 30
0.0
  0
VERTEX
  5
2FF
330
2F6
100
AcDbEntity
  8
001
 62
    40
370
    50
100
AcDbVertex
100
AcDb2dVertex
 10
59.472718
 20
63.469021
 30
0.0
  0
VERTEX
  5
300
330
2F6
100
AcDbEntity
  8
001
 62
    40
370
    50
100
AcDbVertex
100
AcDb2dVertex
 10
59.571592
 20
63.903681
 30
0.0
  0
VERTEX
  5
301
330
2F6
100
AcDbEntity
  8
001
 62
    40
370
    50
100
AcDbVertex
100
AcDb2dVertex
 10
59.595183
 20
64.117802
 30
0.0
  0
VERTEX
  5
302
330
2F6
100
AcDbEntity
  8
001
 62
    40
370
    50
100
AcDbVertex
100
AcDb2dVertex
 10
59.604966
 20
64.270193
 30
0.0
  0
SEQEND
  5
2F7
330
2F6
100
AcDbEntity
  8
001
370
    50
  0
POLYLINE
  5
303
330
25A
100
AcDbEntity
  8
001
 62
    40
370
    50
100
AcDb2dPolyline
 66
     1
 10
0.0
 20
0.0
 30
0.0
  0
VERTEX
  5
305
330
303
100
AcDbEntity
  8
001
 62
    40
370
    50
100
AcDbVertex
100
AcDb2dVertex
 10
55.12737
 20
64.388046
 30
0.0
  0
VERTEX
  5
306
330
303
100
AcDbEntity
  8
001
 62
    40
370
    50
100
AcDbVertex
100
AcDb2dVertex
 10
55.207603
 20
64.240603
 30
0.0
  0
VERTEX
  5
307
330
303
100
AcDbEntity
  8
001
 62
    40
370
    50
100
AcDbVertex
100
AcDb2dVertex
 10
55.287658
 20
64.093062
 30
0.0
  0
VERTEX
  5
308
330
303
100
AcDbEntity
  8
001
 62
    40
370
    50
100
AcDbVertex
100
AcDb2dVertex
 10
55.37
 20
63.941142
 30
0.0
  0
VERTEX
  5
309
330
303
100
AcDbEntity
  8
001
 62
    40
370
    50
100
AcDbVertex
100
AcDb2dVertex
 10
55.453608
 20
63.78992
 30
0.0
  0
VERTEX
  5
30A
330
303
100
AcDbEntity
  8
001
 62
    40
370
    50
100
AcDbVertex
100
AcDb2dVertex
 10
55.53819
 20
63.643207
 30
0.0
  0
VERTEX
  5
30B
330
303
100
AcDbEntity
  8
001
 62
    40
370
    50
100
AcDbVertex
100
AcDb2dVertex
 10
55.626135
 20
63.498482
 30
0.0
  0
VERTEX
  5
30C
330
303
100
AcDbEntity
  8
001
 62
    40
370
    50
100
AcDbVertex
100
AcDb2dVertex
 10
55.718488
 20
63.355525
 30
0.0
  0
VERTEX
  5
30D
330
303
100
AcDbEntity
  8
001
 62
    40
370
    50
100
AcDbVertex
100
AcDb2dVertex
 10
55.815438
 20
63.215637
 30
0.0
  0
VERTEX
  5
30E
330
303
100
AcDbEntity
  8
001
 62
    40
370
    50
100
AcDbVertex
100
AcDb2dVertex
 10
55.9161
 20
63.081453
 30
0.0
  0
VERTEX
  5
30F
330
303
100
AcDbEntity
  8
001
 62
    40
370
    50
100
AcDbVertex
100
AcDb2dVertex
 10
56.022545
 20
62.951838
 30
0.0
  0
VERTEX
  5
310
330
303
100
AcDbEntity
  8
001
 62
    40
370
    50
100
AcDbVertex
100
AcDb2dVertex
 10
56.12055
 20
62.84324
 30
0.0
  0
VERTEX
  5
311
330
303
100
AcDbEntity
  8
001
 62
    40
370
    50
100
AcDbVertex
100
AcDb2dVertex
 10
56.22333
 20
62.73914
 30
0.0
  0
VERTEX
  5
312
330
303
100
AcDbEntity
  8
001
 62
    40
370
    50
100
AcDbVertex
100
AcDb2dVertex
 10
56.328524
 20
62.641777
 30
0.0
  0
VERTEX
  5
313
330
303
100
AcDbEntity
  8
001
 62
    40
370
    50
100
AcDbVertex
100
AcDb2dVertex
 10
56.438096
 20
62.549368
 30
0.0
  0
VERTEX
  5
314
330
303
100
AcDbEntity
  8
001
 62
    40
370
    50
100
AcDbVertex
100
AcDb2dVertex
 10
56.548101
 20
62.465174
 30
0.0
  0
VERTEX
  5
315
330
303
100
AcDbEntity
  8
001
 62
    40
370
    50
100
AcDbVertex
100
AcDb2dVertex
 10
56.662126
 20
62.386536
 30
0.0
  0
VERTEX
  5
316
330
303
100
AcDbEntity
  8
001
 62
    40
370
    50
100
AcDbVertex
100
AcDb2dVertex
 10
56.76797
 20
62.32099
 30
0.0
  0
VERTEX
  5
317
330
303
100
AcDbEntity
  8
001
 62
    40
370
    50
100
AcDbVertex
100
AcDb2dVertex
 10
56.876697
 20
62.260336
 30
0.0
  0
VERTEX
  5
318
330
303
100
AcDbEntity
  8
001
 62
    40
370
    50
100
AcDbVertex
100
AcDb2dVertex
 10
56.983496
 20
62.206669
 30
0.0
  0
VERTEX
  5
319
330
303
100
AcDbEntity
  8
001
 62
    40
370
    50
100
AcDbVertex
100
AcDb2dVertex
 10
57.092435
 20
62.157494
 30
0.0
  0
VERTEX
  5
31A
330
303
100
AcDbEntity
  8
001
 62
    40
370
    50
100
AcDbVertex
100
AcDb2dVertex
 10
57.197115
 20
62.115215
 30
0.0
  0
VERTEX
  5
31B
330
303
100
AcDbEntity
  8
001
 62
    40
370
    50
100
AcDbVertex
100
AcDb2dVertex
 10
57.303366
 20
62.077076
 30
0.0
  0
VERTEX
  5
31C
330
303
100
AcDbEntity
  8
001
 62
    40
370
    50
100
AcDbVertex
100
AcDb2dVertex
 10
57.40262
 20
62.045581
 30
0.0
  0
VERTEX
  5
31D
330
303
100
AcDbEntity
  8
001
 62
    40
370
    50
100
AcDbVertex
100
AcDb2dVertex
 10
57.502858
 20
62.017353
 30
0.0
  0
VERTEX
  5
31E
330
303
100
AcDbEntity
  8
001
 62
    40
370
    50
100
AcDbVertex
100
AcDb2dVertex
 10
57.596044
 20
61.993932
 30
0.0
  0
VERTEX
  5
31F
330
303
100
AcDbEntity
  8
001
 62
    40
370
    50
100
AcDbVertex
100
AcDb2dVertex
 10
57.689784
 20
61.972872
 30
0.0
  0
VERTEX
  5
320
330
303
100
AcDbEntity
  8
001
 62
    40
370
    50
100
AcDbVertex
100
AcDb2dVertex
 10
57.774675
 20
61.955667
 30
0.0
  0
VERTEX
  5
321
330
303
100
AcDbEntity
  8
001
 62
    40
370
    50
100
AcDbVertex
100
AcDb2dVertex
 10
57.859752
 20
61.939369
 30
0.0
  0
SEQEND
  5
304
330
303
100
AcDbEntity
  8
001
370
    50
  0
POLYLINE
  5
322
330
25A
100
AcDbEntity
  8
001
 62
    40
370
    50
100
AcDb2dPolyline
 66
     1
 10
0.0
 20
0.0
 30
0.0
  0
VERTEX
  5
324
330
322
100
AcDbEntity
  8
001
 62
    40
370
    50
100
AcDbVertex
100
AcDb2dVertex
 10
56.872584
 20
66.71887
 30
0.0
  0
VERTEX
  5
325
330
322
100
AcDbEntity
  8
001
 62
    40
370
    50
100
AcDbVertex
100
AcDb2dVertex
 10
56.757796
 20
66.685356
 30
0.0
  0
VERTEX
  5
326
330
322
100
AcDbEntity
  8
001
 62
    40
370
    50
100
AcDbVertex
100
AcDb2dVertex
 10
56.600232
 20
66.631366
 30
0.0
  0
VERTEX
  5
327
330
322
100
AcDbEntity
  8
001
 62
    40
370
    50
100
AcDbVertex
100
AcDb2dVertex
 10
56.408682
 20
66.547262
 30
0.0
  0
VERTEX
  5
328
330
322
100
AcDbEntity
  8
001
 62
    40
370
    50
100
AcDbVertex
100
AcDb2dVertex
 10
56.246445
 20
66.450882
 30
0.0
  0
VERTEX
  5
329
330
322
100
AcDbEntity
  8
001
 62
    40
370
    50
100
AcDbVertex
100
AcDb2dVertex
 10
55.790554
 20
66.049536
 30
0.0
  0
VERTEX
  5
32A
330
322
100
AcDbEntity
  8
001
 62
    40
370
    50
100
AcDbVertex
100
AcDb2dVertex
 10
55.426751
 20
65.55412
 30
0.0
  0
VERTEX
  5
32B
330
322
100
AcDbEntity
  8
001
 62
    40
370
    50
100
AcDbVertex
100
AcDb2dVertex
 10
55.259618
 20
65.189218
 30
0.0
  0
VERTEX
  5
32C
330
322
100
AcDbEntity
  8
001
 62
    40
370
    50
100
AcDbVertex
100
AcDb2dVertex
 10
55.160744
 20
64.754558
 30
0.0
  0
VERTEX
  5
32D
330
322
100
AcDbEntity
  8
001
 62
    40
370
    50
100
AcDbVertex
100
AcDb2dVertex
 10
55.137153
 20
64.540437
 30
0.0
  0
VERTEX
  5
32E
330
322
100
AcDbEntity
  8
001
 62
    40
370
    50
100
AcDbVertex
100
AcDb2dVertex
 10
55.12737
 20
64.388046
 30
0.0
  0
SEQEND
  5
323
330
322
100
AcDbEntity
  8
001
370
    50
  0
POLYLINE
  5
32F
330
25A
100
AcDbEntity
  8
001
 62
    40
370
    50
100
AcDb2dPolyline
 66
     1
 10
0.0
 20
0.0
 30
0.0
  0
VERTEX
  5
331
330
32F
100
AcDbEntity
  8
001
 62
    40
370
    50
100
AcDbVertex
100
AcDb2dVertex
 10
53.486698
 20
65.858365
 30
0.0
  0
VERTEX
  5
332
330
32F
100
AcDbEntity
  8
001
 62
    40
370
    50
100
AcDbVertex
100
AcDb2dVertex
 10
53.199487
 20
65.968766
 30
0.0
  0
VERTEX
  5
333
330
32F
100
AcDbEntity
  8
001
 62
    40
370
    50
100
AcDbVertex
100
AcDb2dVertex
 10
52.766095
 20
66.078447
 30
0.0
  0
VERTEX
  5
334
330
32F
100
AcDbEntity
  8
001
 62
    40
370
    50
100
AcDbVertex
100
AcDb2dVertex
 10
52.735349
 20
66.083154
 30
0.0
  0
VERTEX
  5
335
330
32F
100
AcDbEntity
  8
001
 62
    40
370
    50
100
AcDbVertex
100
AcDb2dVertex
 10
52.714278
 20
66.086172
 30
0.0
  0
SEQEND
  5
330
330
32F
100
AcDbEntity
  8
001
370
    50
  0
LINE
  5
336
330
25A
100
AcDbEntity
  8
001
 62
    40
370
    50
100
AcDbLine
 10
55.12737
 20
64.388046
 30
0.0
 11
53.486698
 21
65.858365
 31
0.0
  0
POLYLINE
  5
337
330
25A
100
AcDbEntity
  8
001
 62
    40
370
    50
100
AcDb2dPolyline
 66
     1
 10
0.0
 20
0.0
 30
0.0
  0
VERTEX
  5
339
330
337
100
AcDbEntity
  8
001
 62
    40
370
    50
100
AcDbVertex
100
AcDb2dVertex
 10
56.832825
 20
58.650717
 30
0.0
  0
VERTEX
  5
33A
330
337
100
AcDbEntity
  8
001
 62
    40
370
    50
100
AcDbVertex
100
AcDb2dVertex
 10
57.061651
 20
58.58593
 30
0.0
  0
VERTEX
  5
33B
330
337
100
AcDbEntity
  8
001
 62
    40
370
    50
100
AcDbVertex
100
AcDb2dVertex
 10
57.399413
 20
58.5053
 30
0.0
  0
VERTEX
  5
33C
330
337
100
AcDbEntity
  8
001
 62
    40
370
    50
100
AcDbVertex
100
AcDb2dVertex
 10
57.708497
 20
58.450753
 30
0.0
  0
VERTEX
  5
33D
330
337
100
AcDbEntity
  8
001
 62
    40
370
    50
100
AcDbVertex
100
AcDb2dVertex
 10
57.921599
 20
58.42291
 30
0.0
  0
SEQEND
  5
338
330
337
100
AcDbEntity
  8
001
370
    50
  0
POLYLINE
  5
33E
330
25A
100
AcDbEntity
  8
001
 62
    40
370
    50
100
AcDb2dPolyline
 66
     1
 10
0.0
 20
0.0
 30
0.0
  0
VERTEX
  5
340
330
33E
100
AcDbEntity
  8
001
 62
    40
370
    50
100
AcDbVertex
100
AcDb2dVertex
 10
51.082524
 20
64.539786
 30
0.0
  0
VERTEX
  5
341
330
33E
100
AcDbEntity
  8
001
 62
    40
370
    50
100
AcDbVertex
100
AcDb2dVertex
 10
51.088813
 20
64.374711
 30
0.0
  0
VERTEX
  5
342
330
33E
100
AcDbEntity
  8
001
 62
    40
370
    50
100
AcDbVertex
100
AcDb2dVertex
 10
51.111434
 20
64.134647
 30
0.0
  0
VERTEX
  5
343
330
33E
100
AcDbEntity
  8
001
 62
    40
370
    50
100
AcDbVertex
100
AcDb2dVertex
 10
51.155391
 20
63.877645
 30
0.0
  0
VERTEX
  5
344
330
33E
100
AcDbEntity
  8
001
 62
    40
370
    50
100
AcDbVertex
100
AcDb2dVertex
 10
51.194767
 20
63.703371
 30
0.0
  0
SEQEND
  5
33F
330
33E
100
AcDbEntity
  8
001
370
    50
  0
POLYLINE
  5
345
330
25A
100
AcDbEntity
  8
001
 62
    40
370
    50
100
AcDb2dPolyline
 66
     1
 10
0.0
 20
0.0
 30
0.0
  0
VERTEX
  5
347
330
345
100
AcDbEntity
  8
001
 62
    40
370
    50
100
AcDbVertex
100
AcDb2dVertex
 10
51.252836
 20
64.673215
 30
0.0
  0
VERTEX
  5
348
330
345
100
AcDbEntity
  8
001
 62
    40
370
    50
100
AcDbVertex
100
AcDb2dVertex
 10
51.209402
 20
64.640641
 30
0.0
  0
VERTEX
  5
349
330
345
100
AcDbEntity
  8
001
 62
    40
370
    50
100
AcDbVertex
100
AcDb2dVertex
 10
51.166355
 20
64.607573
 30
0.0
  0
VERTEX
  5
34A
330
345
100
AcDbEntity
  8
001
 62
    40
370
    50
100
AcDbVertex
100
AcDb2dVertex
 10
51.124249
 20
64.573923
 30
0.0
  0
VERTEX
  5
34B
330
345
100
AcDbEntity
  8
001
 62
    40
370
    50
100
AcDbVertex
100
AcDb2dVertex
 10
51.082524
 20
64.539786
 30
0.0
  0
SEQEND
  5
346
330
345
100
AcDbEntity
  8
001
370
    50
  0
POLYLINE
  5
34C
330
25A
100
AcDbEntity
  8
001
 62
    40
370
    50
100
AcDb2dPolyline
 66
     1
 10
0.0
 20
0.0
 30
0.0
  0
VERTEX
  5
34E
330
34C
100
AcDbEntity
  8
001
 62
    40
370
    50
100
AcDbVertex
100
AcDb2dVertex
 10
51.252836
 20
64.673215
 30
0.0
  0
VERTEX
  5
34F
330
34C
100
AcDbEntity
  8
001
 62
    40
370
    50
100
AcDbVertex
100
AcDb2dVertex
 10
51.357145
 20
64.751234
 30
0.0
  0
VERTEX
  5
350
330
34C
100
AcDbEntity
  8
001
 62
    40
370
    50
100
AcDbVertex
100
AcDb2dVertex
 10
51.500843
 20
64.861815
 30
0.0
  0
VERTEX
  5
351
330
34C
100
AcDbEntity
  8
001
 62
    40
370
    50
100
AcDbVertex
100
AcDb2dVertex
 10
51.66028
 20
64.990686
 30
0.0
  0
VERTEX
  5
352
330
34C
100
AcDbEntity
  8
001
 62
    40
370
    50
100
AcDbVertex
100
AcDb2dVertex
 10
51.79939
 20
65.108884
 30
0.0
  0
VERTEX
  5
353
330
34C
100
AcDbEntity
  8
001
 62
    40
370
    50
100
AcDbVertex
100
AcDb2dVertex
 10
52.056708
 20
65.338688
 30
0.0
  0
VERTEX
  5
354
330
34C
100
AcDbEntity
  8
001
 62
    40
370
    50
100
AcDbVertex
100
AcDb2dVertex
 10
52.327893
 20
65.614475
 30
0.0
  0
VERTEX
  5
355
330
34C
100
AcDbEntity
  8
001
 62
    40
370
    50
100
AcDbVertex
100
AcDb2dVertex
 10
52.55866
 20
65.884003
 30
0.0
  0
VERTEX
  5
356
330
34C
100
AcDbEntity
  8
001
 62
    40
370
    50
100
AcDbVertex
100
AcDb2dVertex
 10
52.714278
 20
66.086172
 30
0.0
  0
SEQEND
  5
34D
330
34C
100
AcDbEntity
  8
001
370
    50
  0
LINE
  5
357
330
25A
100
AcDbEntity
  8
001
 62
    40
370
    50
100
AcDbLine
 10
57.12709
 20
70.235329
 30
0.0
 11
57.340834
 21
70.436303
 31
0.0
  0
POLYLINE
  5
358
330
25A
100
AcDbEntity
  8
001
 62
    40
370
    50
100
AcDb2dPolyline
 66
     1
 10
0.0
 20
0.0
 30
0.0
  0
VERTEX
  5
35A
330
358
100
AcDbEntity
  8
001
 62
    40
370
    50
100
AcDbVertex
100
AcDb2dVertex
 10
57.450851
 20
70.484624
 30
0.0
  0
VERTEX
  5
35B
330
358
100
AcDbEntity
  8
001
 62
    40
370
    50
100
AcDbVertex
100
AcDb2dVertex
 10
57.444976
 20
70.484412
 30
0.0
  0
VERTEX
  5
35C
330
358
100
AcDbEntity
  8
001
 62
    40
370
    50
100
AcDbVertex
100
AcDb2dVertex
 10
57.436755
 20
70.483841
 30
0.0
  0
VERTEX
  5
35D
330
358
100
AcDbEntity
  8
001
 62
    40
370
    50
100
AcDbVertex
100
AcDb2dVertex
 10
57.421942
 20
70.481713
 30
0.0
  0
VERTEX
  5
35E
330
358
100
AcDbEntity
  8
001
 62
    40
370
    50
100
AcDbVertex
100
AcDb2dVertex
 10
57.408736
 20
70.477743
 30
0.0
  0
VERTEX
  5
35F
330
358
100
AcDbEntity
  8
001
 62
    40
370
    50
100
AcDbVertex
100
AcDb2dVertex
 10
57.369056
 20
70.456862
 30
0.0
  0
VERTEX
  5
360
330
358
100
AcDbEntity
  8
001
 62
    40
370
    50
100
AcDbVertex
100
AcDb2dVertex
 10
57.340834
 20
70.436303
 30
0.0
  0
SEQEND
  5
359
330
358
100
AcDbEntity
  8
001
370
    50
  0
POLYLINE
  5
361
330
25A
100
AcDbEntity
  8
001
 62
    40
370
    50
100
AcDb2dPolyline
 66
     1
 10
0.0
 20
0.0
 30
0.0
  0
VERTEX
  5
363
330
361
100
AcDbEntity
  8
001
 62
    40
370
    50
100
AcDbVertex
100
AcDb2dVertex
 10
58.989462
 20
62.992185
 30
0.0
  0
VERTEX
  5
364
330
361
100
AcDbEntity
  8
001
 62
    40
370
    50
100
AcDbVertex
100
AcDb2dVertex
 10
59.109472
 20
63.147527
 30
0.0
  0
VERTEX
  5
365
330
361
100
AcDbEntity
  8
001
 62
    40
370
    50
100
AcDbVertex
100
AcDb2dVertex
 10
59.257018
 20
63.376619
 30
0.0
  0
VERTEX
  5
366
330
361
100
AcDbEntity
  8
001
 62
    40
370
    50
100
AcDbVertex
100
AcDb2dVertex
 10
59.395402
 20
63.690295
 30
0.0
  0
VERTEX
  5
367
330
361
100
AcDbEntity
  8
001
 62
    40
370
    50
100
AcDbVertex
100
AcDb2dVertex
 10
59.463852
 20
63.99832
 30
0.0
  0
VERTEX
  5
368
330
361
100
AcDbEntity
  8
001
 62
    40
370
    50
100
AcDbVertex
100
AcDb2dVertex
 10
59.483002
 20
64.161858
 30
0.0
  0
VERTEX
  5
369
330
361
100
AcDbEntity
  8
001
 62
    40
370
    50
100
AcDbVertex
100
AcDb2dVertex
 10
59.490306
 20
64.329119
 30
0.0
  0
VERTEX
  5
36A
330
361
100
AcDbEntity
  8
001
 62
    40
370
    50
100
AcDbVertex
100
AcDb2dVertex
 10
59.483002
 20
64.496381
 30
0.0
  0
VERTEX
  5
36B
330
361
100
AcDbEntity
  8
001
 62
    40
370
    50
100
AcDbVertex
100
AcDb2dVertex
 10
59.463852
 20
64.659919
 30
0.0
  0
VERTEX
  5
36C
330
361
100
AcDbEntity
  8
001
 62
    40
370
    50
100
AcDbVertex
100
AcDb2dVertex
 10
59.395402
 20
64.967944
 30
0.0
  0
VERTEX
  5
36D
330
361
100
AcDbEntity
  8
001
 62
    40
370
    50
100
AcDbVertex
100
AcDb2dVertex
 10
59.257018
 20
65.281619
 30
0.0
  0
VERTEX
  5
36E
330
361
100
AcDbEntity
  8
001
 62
    40
370
    50
100
AcDbVertex
100
AcDb2dVertex
 10
59.109473
 20
65.510712
 30
0.0
  0
VERTEX
  5
36F
330
361
100
AcDbEntity
  8
001
 62
    40
370
    50
100
AcDbVertex
100
AcDb2dVertex
 10
58.989463
 20
65.666054
 30
0.0
  0
SEQEND
  5
362
330
361
100
AcDbEntity
  8
001
370
    50
  0
LINE
  5
370
330
25A
100
AcDbEntity
  8
001
 62
    40
370
    50
100
AcDbLine
 10
57.441596
 20
58.218897
 30
0.0
 11
56.832825
 21
58.650717
 31
0.0
  0
POLYLINE
  5
371
330
25A
100
AcDbEntity
  8
001
 62
    40
370
    50
100
AcDb2dPolyline
 66
     1
 10
0.0
 20
0.0
 30
0.0
  0
VERTEX
  5
373
330
371
100
AcDbEntity
  8
001
 62
    40
370
    50
100
AcDbVertex
100
AcDb2dVertex
 10
57.579559
 20
58.173615
 30
0.0
  0
VERTEX
  5
374
330
371
100
AcDbEntity
  8
001
 62
    40
370
    50
100
AcDbVertex
100
AcDb2dVertex
 10
57.609782
 20
58.176544
 30
0.0
  0
VERTEX
  5
375
330
371
100
AcDbEntity
  8
001
 62
    40
370
    50
100
AcDbVertex
100
AcDb2dVertex
 10
57.649693
 20
58.186014
 30
0.0
  0
VERTEX
  5
376
330
371
100
AcDbEntity
  8
001
 62
    40
370
    50
100
AcDbVertex
100
AcDb2dVertex
 10
57.666083
 20
58.192989
 30
0.0
  0
VERTEX
  5
377
330
371
100
AcDbEntity
  8
001
 62
    40
370
    50
100
AcDbVertex
100
AcDb2dVertex
 10
57.680258
 20
58.200902
 30
0.0
  0
VERTEX
  5
378
330
371
100
AcDbEntity
  8
001
 62
    40
370
    50
100
AcDbVertex
100
AcDb2dVertex
 10
57.693044
 20
58.209438
 30
0.0
  0
VERTEX
  5
379
330
371
100
AcDbEntity
  8
001
 62
    40
370
    50
100
AcDbVertex
100
AcDb2dVertex
 10
57.706891
 20
58.221038
 30
0.0
  0
VERTEX
  5
37A
330
371
100
AcDbEntity
  8
001
 62
    40
370
    50
100
AcDbVertex
100
AcDb2dVertex
 10
57.707463
 20
58.22157
 30
0.0
  0
VERTEX
  5
37B
330
371
100
AcDbEntity
  8
001
 62
    40
370
    50
100
AcDbVertex
100
AcDb2dVertex
 10
57.707854
 20
58.221936
 30
0.0
  0
SEQEND
  5
372
330
371
100
AcDbEntity
  8
001
370
    50
  0
LINE
  5
37C
330
25A
100
AcDbEntity
  8
001
 62
    40
370
    50
100
AcDbLine
 10
53.486698
 20
65.858365
 30
0.0
 11
55.607579
 21
67.852528
 31
0.0
  0
POLYLINE
  5
37D
330
25A
100
AcDbEntity
  8
001
 62
    40
370
    50
100
AcDb2dPolyline
 66
     1
 10
0.0
 20
0.0
 30
0.0
  0
VERTEX
  5
37F
330
37D
100
AcDbEntity
  8
001
 62
    40
370
    50
100
AcDbVertex
100
AcDb2dVertex
 10
57.544579
 20
70.439342
 30
0.0
  0
VERTEX
  5
380
330
37D
100
AcDbEntity
  8
001
 62
    40
370
    50
100
AcDbVertex
100
AcDb2dVertex
 10
57.541184
 20
70.443248
 30
0.0
  0
VERTEX
  5
381
330
37D
100
AcDbEntity
  8
001
 62
    40
370
    50
100
AcDbVertex
100
AcDb2dVertex
 10
57.536235
 20
70.4486
 30
0.0
  0
VERTEX
  5
382
330
37D
100
AcDbEntity
  8
001
 62
    40
370
    50
100
AcDbVertex
100
AcDb2dVertex
 10
57.525569
 20
70.458488
 30
0.0
  0
VERTEX
  5
383
330
37D
100
AcDbEntity
  8
001
 62
    40
370
    50
100
AcDbVertex
100
AcDb2dVertex
 10
57.514837
 20
70.465993
 30
0.0
  0
VERTEX
  5
384
330
37D
100
AcDbEntity
  8
001
 62
    40
370
    50
100
AcDbVertex
100
AcDb2dVertex
 10
57.503002
 20
70.472475
 30
0.0
  0
VERTEX
  5
385
330
37D
100
AcDbEntity
  8
001
 62
    40
370
    50
100
AcDbVertex
100
AcDb2dVertex
 10
57.490623
 20
70.477875
 30
0.0
  0
VERTEX
  5
386
330
37D
100
AcDbEntity
  8
001
 62
    40
370
    50
100
AcDbVertex
100
AcDb2dVertex
 10
57.478361
 20
70.481673
 30
0.0
  0
VERTEX
  5
387
330
37D
100
AcDbEntity
  8
001
 62
    40
370
    50
100
AcDbVertex
100
AcDb2dVertex
 10
57.46433
 20
70.483885
 30
0.0
  0
VERTEX
  5
388
330
37D
100
AcDbEntity
  8
001
 62
    40
370
    50
100
AcDbVertex
100
AcDb2dVertex
 10
57.456463
 20
70.484438
 30
0.0
  0
VERTEX
  5
389
330
37D
100
AcDbEntity
  8
001
 62
    40
370
    50
100
AcDbVertex
100
AcDb2dVertex
 10
57.450851
 20
70.484624
 30
0.0
  0
SEQEND
  5
37E
330
37D
100
AcDbEntity
  8
001
370
    50
  0
LINE
  5
38A
330
25A
100
AcDbEntity
  8
001
 62
    40
370
    50
100
AcDbLine
 10
58.591558
 20
70.484624
 30
0.0
 11
57.450851
 21
70.484624
 31
0.0
  0
POLYLINE
  5
38B
330
25A
100
AcDbEntity
  8
001
 62
    40
370
    50
100
AcDb2dPolyline
 66
     1
 10
0.0
 20
0.0
 30
0.0
  0
VERTEX
  5
38D
330
38B
100
AcDbEntity
  8
001
 62
    40
370
    50
100
AcDbVertex
100
AcDb2dVertex
 10
58.707403
 20
70.439342
 30
0.0
  0
VERTEX
  5
38E
330
38B
100
AcDbEntity
  8
001
 62
    40
370
    50
100
AcDbVertex
100
AcDb2dVertex
 10
58.697426
 20
70.447464
 30
0.0
  0
VERTEX
  5
38F
330
38B
100
AcDbEntity
  8
001
 62
    40
370
    50
100
AcDbVertex
100
AcDb2dVertex
 10
58.682964
 20
70.457829
 30
0.0
  0
VERTEX
  5
390
330
38B
100
AcDbEntity
  8
001
 62
    40
370
    50
100
AcDbVertex
100
AcDb2dVertex
 10
58.668156
 20
70.466332
 30
0.0
  0
VERTEX
  5
391
330
38B
100
AcDbEntity
  8
001
 62
    40
370
    50
100
AcDbVertex
100
AcDb2dVertex
 10
58.654083
 20
70.472562
 30
0.0
  0
VERTEX
  5
392
330
38B
100
AcDbEntity
  8
001
 62
    40
370
    50
100
AcDbVertex
100
AcDb2dVertex
 10
58.639726
 20
70.477677
 30
0.0
  0
VERTEX
  5
393
330
38B
100
AcDbEntity
  8
001
 62
    40
370
    50
100
AcDbVertex
100
AcDb2dVertex
 10
58.623303
 20
70.481586
 30
0.0
  0
VERTEX
  5
394
330
38B
100
AcDbEntity
  8
001
 62
    40
370
    50
100
AcDbVertex
100
AcDb2dVertex
 10
58.604939
 20
70.483885
 30
0.0
  0
VERTEX
  5
395
330
38B
100
AcDbEntity
  8
001
 62
    40
370
    50
100
AcDbVertex
100
AcDb2dVertex
 10
58.591558
 20
70.484624
 30
0.0
  0
SEQEND
  5
38C
330
38B
100
AcDbEntity
  8
001
370
    50
  0
POLYLINE
  5
396
330
25A
100
AcDbEntity
  8
001
 62
    40
370
    50
100
AcDb2dPolyline
 66
     1
 10
0.0
 20
0.0
 30
0.0
  0
VERTEX
  5
398
330
396
100
AcDbEntity
  8
001
 62
    40
370
    50
100
AcDbVertex
100
AcDb2dVertex
 10
58.720266
 20
58.173615
 30
0.0
  0
VERTEX
  5
399
330
396
100
AcDbEntity
  8
001
 62
    40
370
    50
100
AcDbVertex
100
AcDb2dVertex
 10
58.733649
 20
58.174354
 30
0.0
  0
VERTEX
  5
39A
330
396
100
AcDbEntity
  8
001
 62
    40
370
    50
100
AcDbVertex
100
AcDb2dVertex
 10
58.752011
 20
58.176653
 30
0.0
  0
VERTEX
  5
39B
330
396
100
AcDbEntity
  8
001
 62
    40
370
    50
100
AcDbVertex
100
AcDb2dVertex
 10
58.768424
 20
58.180558
 30
0.0
  0
VERTEX
  5
39C
330
396
100
AcDbEntity
  8
001
 62
    40
370
    50
100
AcDbVertex
100
AcDb2dVertex
 10
58.782791
 20
58.185676
 30
0.0
  0
VERTEX
  5
39D
330
396
100
AcDbEntity
  8
001
 62
    40
370
    50
100
AcDbVertex
100
AcDb2dVertex
 10
58.796902
 20
58.191923
 30
0.0
  0
VERTEX
  5
39E
330
396
100
AcDbEntity
  8
001
 62
    40
370
    50
100
AcDbVertex
100
AcDb2dVertex
 10
58.811672
 20
58.20041
 30
0.0
  0
VERTEX
  5
39F
330
396
100
AcDbEntity
  8
001
 62
    40
370
    50
100
AcDbVertex
100
AcDb2dVertex
 10
58.82812
 20
58.212406
 30
0.0
  0
VERTEX
  5
3A0
330
396
100
AcDbEntity
  8
001
 62
    40
370
    50
100
AcDbVertex
100
AcDb2dVertex
 10
58.839422
 20
58.221936
 30
0.0
  0
SEQEND
  5
397
330
396
100
AcDbEntity
  8
001
370
    50
  0
POLYLINE
  5
3A1
330
25A
100
AcDbEntity
  8
001
 62
    40
370
    50
100
AcDb2dPolyline
 66
     1
 10
0.0
 20
0.0
 30
0.0
  0
VERTEX
  5
3A3
330
3A1
100
AcDbEntity
  8
001
 62
    40
370
    50
100
AcDbVertex
100
AcDb2dVertex
 10
57.441596
 20
58.218897
 30
0.0
  0
VERTEX
  5
3A4
330
3A1
100
AcDbEntity
  8
001
 62
    40
370
    50
100
AcDbVertex
100
AcDb2dVertex
 10
57.454529
 20
58.210627
 30
0.0
  0
VERTEX
  5
3A5
330
3A1
100
AcDbEntity
  8
001
 62
    40
370
    50
100
AcDbVertex
100
AcDb2dVertex
 10
57.472935
 20
58.199922
 30
0.0
  0
VERTEX
  5
3A6
330
3A1
100
AcDbEntity
  8
001
 62
    40
370
    50
100
AcDbVertex
100
AcDb2dVertex
 10
57.507256
 20
58.18435
 30
0.0
  0
VERTEX
  5
3A7
330
3A1
100
AcDbEntity
  8
001
 62
    40
370
    50
100
AcDbVertex
100
AcDb2dVertex
 10
57.544123
 20
58.176485
 30
0.0
  0
VERTEX
  5
3A8
330
3A1
100
AcDbEntity
  8
001
 62
    40
370
    50
100
AcDbVertex
100
AcDb2dVertex
 10
57.564691
 20
58.174411
 30
0.0
  0
VERTEX
  5
3A9
330
3A1
100
AcDbEntity
  8
001
 62
    40
370
    50
100
AcDbVertex
100
AcDb2dVertex
 10
57.579559
 20
58.173615
 30
0.0
  0
SEQEND
  5
3A2
330
3A1
100
AcDbEntity
  8
001
370
    50
  0
LINE
  5
3AA
330
25A
100
AcDbEntity
  8
001
 62
    40
370
    50
100
AcDbLine
 10
52.714278
 20
66.086172
 30
0.0
 11
55.495318
 21
68.701052
 31
0.0
  0
POLYLINE
  5
3AB
330
25A
100
AcDbEntity
  8
001
 62
    40
370
    50
100
AcDb2dPolyline
 66
     1
 10
0.0
 20
0.0
 30
0.0
  0
VERTEX
  5
3AD
330
3AB
100
AcDbEntity
  8
001
 62
    40
370
    50
100
AcDbVertex
100
AcDb2dVertex
 10
51.082524
 20
64.539786
 30
0.0
  0
VERTEX
  5
3AE
330
3AB
100
AcDbEntity
  8
001
 62
    40
370
    50
100
AcDbVertex
100
AcDb2dVertex
 10
51.039702
 20
64.47484
 30
0.0
  0
VERTEX
  5
3AF
330
3AB
100
AcDbEntity
  8
001
 62
    40
370
    50
100
AcDbVertex
100
AcDb2dVertex
 10
51.001148
 20
64.407592
 30
0.0
  0
VERTEX
  5
3B0
330
3AB
100
AcDbEntity
  8
001
 62
    40
370
    50
100
AcDbVertex
100
AcDb2dVertex
 10
50.980942
 20
64.363695
 30
0.0
  0
VERTEX
  5
3B1
330
3AB
100
AcDbEntity
  8
001
 62
    40
370
    50
100
AcDbVertex
100
AcDb2dVertex
 10
50.963669
 20
64.318466
 30
0.0
  0
VERTEX
  5
3B2
330
3AB
100
AcDbEntity
  8
001
 62
    40
370
    50
100
AcDbVertex
100
AcDb2dVertex
 10
50.949337
 20
64.273088
 30
0.0
  0
VERTEX
  5
3B3
330
3AB
100
AcDbEntity
  8
001
 62
    40
370
    50
100
AcDbVertex
100
AcDb2dVertex
 10
50.938043
 20
64.226937
 30
0.0
  0
VERTEX
  5
3B4
330
3AB
100
AcDbEntity
  8
001
 62
    40
370
    50
100
AcDbVertex
100
AcDb2dVertex
 10
50.928924
 20
64.166582
 30
0.0
  0
VERTEX
  5
3B5
330
3AB
100
AcDbEntity
  8
001
 62
    40
370
    50
100
AcDbVertex
100
AcDb2dVertex
 10
50.927103
 20
64.105221
 30
0.0
  0
VERTEX
  5
3B6
330
3AB
100
AcDbEntity
  8
001
 62
    40
370
    50
100
AcDbVertex
100
AcDb2dVertex
 10
50.931122
 20
64.063874
 30
0.0
  0
VERTEX
  5
3B7
330
3AB
100
AcDbEntity
  8
001
 62
    40
370
    50
100
AcDbVertex
100
AcDb2dVertex
 10
50.942291
 20
64.0245
 30
0.0
  0
VERTEX
  5
3B8
330
3AB
100
AcDbEntity
  8
001
 62
    40
370
    50
100
AcDbVertex
100
AcDb2dVertex
 10
50.953578
 20
64.002203
 30
0.0
  0
VERTEX
  5
3B9
330
3AB
100
AcDbEntity
  8
001
 62
    40
370
    50
100
AcDbVertex
100
AcDb2dVertex
 10
50.966807
 20
63.980715
 30
0.0
  0
SEQEND
  5
3AC
330
3AB
100
AcDbEntity
  8
001
370
    50
  0
LINE
  5
3BA
330
25A
100
AcDbEntity
  8
001
 62
    40
370
    50
100
AcDbLine
 10
51.194767
 20
63.703371
 30
0.0
 11
50.966807
 21
63.980715
 31
0.0
  0
LINE
  5
3BB
330
25A
100
AcDbEntity
  8
001
 62
    40
370
    50
100
AcDbLine
 10
57.365205
 20
58.173615
 30
0.0
 11
58.720266
 21
58.173615
 31
0.0
  0
LINE
  5
3BC
330
25A
100
AcDbEntity
  8
001
 62
    40
370
    50
100
AcDbLine
 10
50.926532
 20
63.943755
 30
0.0
 11
56.832825
 21
58.650717
 31
0.0
  0
ENDBLK
  5
25C
330
25A
100
AcDbEntity
  8
0
100
AcDbBlockEnd
  0
BLOCK
  5
3BE
330
3BD
100
AcDbEntity
  8
0
100
AcDbBlockBegin
  2
*D3
 70
     1
 10
0.0
 20
0.0
 30
0.0
  3
*D3
  1

  0
LINE
  5
3C0
330
3BD
100
AcDbEntity
  8
001
370
     9
100
AcDbLine
 10
80.926532
 20
57.347863
 30
0.0
 11
80.926532
 21
28.515511
 31
0.0
  0
LINE
  5
3C1
330
3BD
100
AcDbEntity
  8
001
370
     9
100
AcDbLine
 10
50.926532
 20
51.854101
 30
0.0
 11
50.926532
 21
28.515511
 31
0.0
  0
LINE
  5
3C2
330
3BD
100
AcDbEntity
  8
001
370
     9
100
AcDbLine
 10
80.926532
 20
31.265511
 30
0.0
 11
50.926532
 21
31.265511
 31
0.0
  0
POLYLINE
  5
3C3
330
3BD
100
AcDbEntity
  8
001
370
     9
100
AcDb2dPolyline
 66
     1
 10
0.0
 20
0.0
 30
0.0
  0
VERTEX
  5
3C5
330
3C3
100
AcDbEntity
  8
001
370
     9
100
AcDbVertex
100
AcDb2dVertex
 10
79.426532
 20
31.667435
 30
0.0
  0
VERTEX
  5
3C6
330
3C3
100
AcDbEntity
  8
001
370
     9
100
AcDbVertex
100
AcDb2dVertex
 10
80.926532
 20
31.265511
 30
0.0
  0
VERTEX
  5
3C7
330
3C3
100
AcDbEntity
  8
001
370
     9
100
AcDbVertex
100
AcDb2dVertex
 10
79.426532
 20
30.863587
 30
0.0
  0
SEQEND
  5
3C4
330
3C3
100
AcDbEntity
  8
001
370
     9
  0
POLYLINE
  5
3C8
330
3BD
100
AcDbEntity
  8
001
370
     9
100
AcDb2dPolyline
 66
     1
 10
0.0
 20
0.0
 30
0.0
  0
VERTEX
  5
3CA
330
3C8
100
AcDbEntity
  8
001
370
     9
100
AcDbVertex
100
AcDb2dVertex
 10
52.426532
 20
30.863587
 30
0.0
  0
VERTEX
  5
3CB
330
3C8
100
AcDbEntity
  8
001
370
     9
100
AcDbVertex
100
AcDb2dVertex
 10
50.926532
 20
31.265511
 30
0.0
  0
VERTEX
  5
3CC
330
3C8
100
AcDbEntity
  8
001
370
     9
100
AcDbVertex
100
AcDb2dVertex
 10
52.426532
 20
31.667435
 30
0.0
  0
SEQEND
  5
3C9
330
3C8
100
AcDbEntity
  8
001
370
     9
  0
TEXT
  5
3CD
330
3BD
100
AcDbEntity
  8
001
370
    30
100
AcDbText
 10
65.675635
 20
32.265511
 30
0.0
 40
4.0
  1
３０
 41
0.833333
100
AcDbText
  0
POINT
  5
3CE
330
3BD
100
AcDbEntity
  8
001
370
     9
100
AcDbPoint
 10
80.926532
 20
57.347863
 30
0.0
  0
POINT
  5
3CF
330
3BD
100
AcDbEntity
  8
001
370
     9
100
AcDbPoint
 10
50.926532
 20
51.854101
 30
0.0
  0
POINT
  5
3D0
330
3BD
100
AcDbEntity
  8
001
370
     9
100
AcDbPoint
 10
50.926532
 20
31.265511
 30
0.0
  0
ENDBLK
  5
3BF
330
3BD
100
AcDbEntity
  8
0
100
AcDbBlockEnd
  0
BLOCK
  5
3D2
330
3D1
100
AcDbEntity
  8
0
100
AcDbBlockBegin
  2
*D4
 70
     1
 10
0.0
 20
0.0
 30
0.0
  3
*D4
  1

  0
LINE
  5
3D4
330
3D1
100
AcDbEntity
  8
001
370
     9
100
AcDbLine
 10
50.926532
 20
51.854101
 30
0.0
 11
50.926532
 21
38.471832
 31
0.0
  0
LINE
  5
3D5
330
3D1
100
AcDbEntity
  8
001
370
     9
100
AcDbLine
 10
57.365205
 20
58.173615
 30
0.0
 11
57.365205
 21
38.471832
 31
0.0
  0
LINE
  5
3D6
330
3D1
100
AcDbEntity
  8
001
370
     9
100
AcDbLine
 10
50.926532
 20
41.221832
 30
0.0
 11
57.365205
 21
41.221832
 31
0.0
  0
POLYLINE
  5
3D7
330
3D1
100
AcDbEntity
  8
001
370
     9
100
AcDb2dPolyline
 66
     1
 10
0.0
 20
0.0
 30
0.0
  0
VERTEX
  5
3D9
330
3D7
100
AcDbEntity
  8
001
370
     9
100
AcDbVertex
100
AcDb2dVertex
 10
49.426532
 20
41.623756
 30
0.0
  0
VERTEX
  5
3DA
330
3D7
100
AcDbEntity
  8
001
370
     9
100
AcDbVertex
100
AcDb2dVertex
 10
50.926532
 20
41.221832
 30
0.0
  0
VERTEX
  5
3DB
330
3D7
100
AcDbEntity
  8
001
370
     9
100
AcDbVertex
100
AcDb2dVertex
 10
49.426532
 20
40.819908
 30
0.0
  0
SEQEND
  5
3D8
330
3D7
100
AcDbEntity
  8
001
370
     9
  0
POLYLINE
  5
3DC
330
3D1
100
AcDbEntity
  8
001
370
     9
100
AcDb2dPolyline
 66
     1
 10
0.0
 20
0.0
 30
0.0
  0
VERTEX
  5
3DE
330
3DC
100
AcDbEntity
  8
001
370
     9
100
AcDbVertex
100
AcDb2dVertex
 10
58.865205
 20
40.819908
 30
0.0
  0
VERTEX
  5
3DF
330
3DC
100
AcDbEntity
  8
001
370
     9
100
AcDbVertex
100
AcDb2dVertex
 10
57.365205
 20
41.221832
 30
0.0
  0
VERTEX
  5
3E0
330
3DC
100
AcDbEntity
  8
001
370
     9
100
AcDbVertex
100
AcDb2dVertex
 10
58.865205
 20
41.623756
 30
0.0
  0
SEQEND
  5
3DD
330
3DC
100
AcDbEntity
  8
001
370
     9
  0
TEXT
  5
3E1
330
3D1
100
AcDbEntity
  8
001
370
    30
100
AcDbText
 10
27.426532
 20
42.221832
 30
0.0
 40
4.0
  1
（６．４）
 41
0.833333
100
AcDbText
  0
POINT
  5
3E2
330
3D1
100
AcDbEntity
  8
001
370
     9
100
AcDbPoint
 10
50.926532
 20
51.854101
 30
0.0
  0
POINT
  5
3E3
330
3D1
100
AcDbEntity
  8
001
370
     9
100
AcDbPoint
 10
57.365205
 20
58.173615
 30
0.0
  0
POINT
  5
3E4
330
3D1
100
AcDbEntity
  8
001
370
     9
100
AcDbPoint
 10
57.365205
 20
41.221832
 30
0.0
  0
LINE
  5
3E5
330
3D1
100
AcDbEntity
  8
001
370
     9
100
AcDbLine
 10
50.926532
 20
41.221832
 30
0.0
 11
24.426532
 21
41.221832
 31
0.0
  0
LINE
  5
3E6
330
3D1
100
AcDbEntity
  8
001
370
     9
100
AcDbLine
 10
57.365205
 20
41.221832
 30
0.0
 11
59.865205
 21
41.221832
 31
0.0
  0
ENDBLK
  5
3D3
330
3D1
100
AcDbEntity
  8
0
100
AcDbBlockEnd
  0
BLOCK
  5
3E8
330
3E7
100
AcDbEntity
  8
0
100
AcDbBlockBegin
  2
*D5
 70
     1
 10
0.0
 20
0.0
 30
0.0
  3
*D5
  1

  0
LINE
  5
3EA
330
3E7
100
AcDbEntity
  8
001
370
     9
100
AcDbLine
 10
56.832825
 20
58.650717
 30
0.0
 11
74.573269
 21
42.752276
 31
0.0
  0
LINE
  5
3EB
330
3E7
100
AcDbEntity
  8
001
370
     9
100
AcDbLine
 10
50.926532
 20
51.854101
 30
0.0
 11
50.926532
 21
32.190851
 31
0.0
  0
ARC
  5
3EC
330
3E7
100
AcDbEntity
  8
001
370
     9
100
AcDbCircle
 10
50.926532
 20
63.943755
 30
0.0
 40
29.0029046054342
100
AcDbArc
 50
270.0
 51
318.13428
  0
POLYLINE
  5
3ED
330
3E7
100
AcDbEntity
  8
001
370
     9
100
AcDb2dPolyline
 66
     1
 10
0.0
 20
0.0
 30
0.0
  0
VERTEX
  5
3EF
330
3ED
100
AcDbEntity
  8
001
370
     9
100
AcDbVertex
100
AcDb2dVertex
 10
73.803329
 20
45.469758
 30
0.0
  0
VERTEX
  5
3F0
330
3ED
100
AcDbEntity
  8
001
370
     9
100
AcDbVertex
100
AcDb2dVertex
 10
72.525314
 20
44.587591
 30
0.0
  0
VERTEX
  5
3F1
330
3ED
100
AcDbEntity
  8
001
370
     9
100
AcDbVertex
100
AcDb2dVertex
 10
73.191024
 20
45.990578
 30
0.0
  0
SEQEND
  5
3EE
330
3ED
100
AcDbEntity
  8
001
370
     9
  0
POLYLINE
  5
3F2
330
3E7
100
AcDbEntity
  8
001
370
     9
100
AcDb2dPolyline
 66
     1
 10
0.0
 20
0.0
 30
0.0
  0
VERTEX
  5
3F4
330
3F2
100
AcDbEntity
  8
001
370
     9
100
AcDbVertex
100
AcDb2dVertex
 10
49.437426
 20
35.381425
 30
0.0
  0
VERTEX
  5
3F5
330
3F2
100
AcDbEntity
  8
001
370
     9
100
AcDbVertex
100
AcDb2dVertex
 10
50.926532
 20
34.940851
 30
0.0
  0
VERTEX
  5
3F6
330
3F2
100
AcDbEntity
  8
001
370
     9
100
AcDbVertex
100
AcDb2dVertex
 10
49.416642
 20
34.577846
 30
0.0
  0
SEQEND
  5
3F3
330
3F2
100
AcDbEntity
  8
001
370
     9
  0
TEXT
  5
3F7
330
3E7
100
AcDbEntity
  8
001
370
    30
100
AcDbText
 10
73.56175
 20
46.399253
 30
0.0
 40
4.0
  1
４５%%d
 50
64.314359
 41
0.978261
100
AcDbText
  0
POINT
  5
3F8
330
3E7
100
AcDbEntity
  8
001
370
     9
100
AcDbPoint
 10
56.832825
 20
58.650717
 30
0.0
  0
POINT
  5
3F9
330
3E7
100
AcDbEntity
  8
001
370
     9
100
AcDbPoint
 10
50.926532
 20
63.943755
 30
0.0
  0
POINT
  5
3FA
330
3E7
100
AcDbEntity
  8
001
370
     9
100
AcDbPoint
 10
50.926532
 20
63.943755
 30
0.0
  0
POINT
  5
3FB
330
3E7
100
AcDbEntity
  8
001
370
     9
100
AcDbPoint
 10
50.926532
 20
51.854101
 30
0.0
  0
ARC
  5
3FC
330
3E7
100
AcDbEntity
  8
001
370
     9
100
AcDbCircle
 10
50.926532
 20
63.943755
 30
0.0
 40
29.0029046054342
100
AcDbArc
 50
265.061203
 51
270.0
  0
ARC
  5
3FD
330
3E7
100
AcDbEntity
  8
001
370
     9
100
AcDbCircle
 10
50.926532
 20
63.943755
 30
0.0
 40
29.0029046054342
100
AcDbArc
 50
318.13428
 51
346.167475
  0
ENDBLK
  5
3E9
330
3E7
100
AcDbEntity
  8
0
100
AcDbBlockEnd
  0
BLOCK
  5
3FF
330
3FE
100
AcDbEntity
  8
0
100
AcDbBlockBegin
  2
*D6
 70
     1
 10
0.0
 20
0.0
 30
0.0
  3
*D6
  1

  0
LINE
  5
401
330
3FE
100
AcDbEntity
  8
001
370
     9
100
AcDbLine
 10
50.926532
 20
51.854101
 30
0.0
 11
50.926532
 21
17.844493
 31
0.0
  0
LINE
  5
402
330
3FE
100
AcDbEntity
  8
001
370
     9
100
AcDbLine
 10
175.926532
 20
60.347863
 30
0.0
 11
175.926532
 21
17.844493
 31
0.0
  0
LINE
  5
403
330
3FE
100
AcDbEntity
  8
001
370
     9
100
AcDbLine
 10
50.926532
 20
20.594493
 30
0.0
 11
175.926532
 21
20.594493
 31
0.0
  0
POLYLINE
  5
404
330
3FE
100
AcDbEntity
  8
001
370
     9
100
AcDb2dPolyline
 66
     1
 10
0.0
 20
0.0
 30
0.0
  0
VERTEX
  5
406
330
404
100
AcDbEntity
  8
001
370
     9
100
AcDbVertex
100
AcDb2dVertex
 10
52.426532
 20
20.192569
 30
0.0
  0
VERTEX
  5
407
330
404
100
AcDbEntity
  8
001
370
     9
100
AcDbVertex
100
AcDb2dVertex
 10
50.926532
 20
20.594493
 30
0.0
  0
VERTEX
  5
408
330
404
100
AcDbEntity
  8
001
370
     9
100
AcDbVertex
100
AcDb2dVertex
 10
52.426532
 20
20.996417
 30
0.0
  0
SEQEND
  5
405
330
404
100
AcDbEntity
  8
001
370
     9
  0
POLYLINE
  5
409
330
3FE
100
AcDbEntity
  8
001
370
     9
100
AcDb2dPolyline
 66
     1
 10
0.0
 20
0.0
 30
0.0
  0
VERTEX
  5
40B
330
409
100
AcDbEntity
  8
001
370
     9
100
AcDbVertex
100
AcDb2dVertex
 10
174.426532
 20
20.996417
 30
0.0
  0
VERTEX
  5
40C
330
409
100
AcDbEntity
  8
001
370
     9
100
AcDbVertex
100
AcDb2dVertex
 10
175.926532
 20
20.594493
 30
0.0
  0
VERTEX
  5
40D
330
409
100
AcDbEntity
  8
001
370
     9
100
AcDbVertex
100
AcDb2dVertex
 10
174.426532
 20
20.192569
 30
0.0
  0
SEQEND
  5
40A
330
409
100
AcDbEntity
  8
001
370
     9
  0
TEXT
  5
40E
330
3FE
100
AcDbEntity
  8
001
370
    30
100
AcDbText
 10
107.426532
 20
21.594493
 30
0.0
 40
4.0
  1
１２５
 41
0.833333
100
AcDbText
  0
POINT
  5
40F
330
3FE
100
AcDbEntity
  8
001
370
     9
100
AcDbPoint
 10
50.926532
 20
51.854101
 30
0.0
  0
POINT
  5
410
330
3FE
100
AcDbEntity
  8
001
370
     9
100
AcDbPoint
 10
175.926532
 20
60.347863
 30
0.0
  0
POINT
  5
411
330
3FE
100
AcDbEntity
  8
001
370
     9
100
AcDbPoint
 10
175.926532
 20
20.594493
 30
0.0
  0
ENDBLK
  5
400
330
3FE
100
AcDbEntity
  8
0
100
AcDbBlockEnd
  0
BLOCK
  5
413
330
412
100
AcDbEntity
  8
0
100
AcDbBlockBegin
  2
*D7
 70
     1
 10
0.0
 20
0.0
 30
0.0
  3
*D7
  1

  0
LINE
  5
415
330
412
100
AcDbEntity
  8
001
370
     9
100
AcDbLine
 10
175.926532
 20
60.347863
 30
0.0
 11
175.926532
 21
28.515511
 31
0.0
  0
LINE
  5
416
330
412
100
AcDbEntity
  8
001
370
     9
100
AcDbLine
 10
80.926532
 20
56.647863
 30
0.0
 11
80.926532
 21
28.515511
 31
0.0
  0
LINE
  5
417
330
412
100
AcDbEntity
  8
001
370
     9
100
AcDbLine
 10
175.926532
 20
31.265511
 30
0.0
 11
80.926532
 21
31.265511
 31
0.0
  0
POLYLINE
  5
418
330
412
100
AcDbEntity
  8
001
370
     9
100
AcDb2dPolyline
 66
     1
 10
0.0
 20
0.0
 30
0.0
  0
VERTEX
  5
41A
330
418
100
AcDbEntity
  8
001
370
     9
100
AcDbVertex
100
AcDb2dVertex
 10
174.426532
 20
31.667435
 30
0.0
  0
VERTEX
  5
41B
330
418
100
AcDbEntity
  8
001
370
     9
100
AcDbVertex
100
AcDb2dVertex
 10
175.926532
 20
31.265511
 30
0.0
  0
VERTEX
  5
41C
330
418
100
AcDbEntity
  8
001
370
     9
100
AcDbVertex
100
AcDb2dVertex
 10
174.426532
 20
30.863587
 30
0.0
  0
SEQEND
  5
419
330
418
100
AcDbEntity
  8
001
370
     9
  0
POLYLINE
  5
41D
330
412
100
AcDbEntity
  8
001
370
     9
100
AcDb2dPolyline
 66
     1
 10
0.0
 20
0.0
 30
0.0
  0
VERTEX
  5
41F
330
41D
100
AcDbEntity
  8
001
370
     9
100
AcDbVertex
100
AcDb2dVertex
 10
82.426532
 20
30.863587
 30
0.0
  0
VERTEX
  5
420
330
41D
100
AcDbEntity
  8
001
370
     9
100
AcDbVertex
100
AcDb2dVertex
 10
80.926532
 20
31.265511
 30
0.0
  0
VERTEX
  5
421
330
41D
100
AcDbEntity
  8
001
370
     9
100
AcDbVertex
100
AcDb2dVertex
 10
82.426532
 20
31.667435
 30
0.0
  0
SEQEND
  5
41E
330
41D
100
AcDbEntity
  8
001
370
     9
  0
TEXT
  5
422
330
412
100
AcDbEntity
  8
001
370
    30
100
AcDbText
 10
124.426532
 20
32.265511
 30
0.0
 40
4.0
  1
９５
 41
0.833333
100
AcDbText
  0
POINT
  5
423
330
412
100
AcDbEntity
  8
001
370
     9
100
AcDbPoint
 10
175.926532
 20
60.347863
 30
0.0
  0
POINT
  5
424
330
412
100
AcDbEntity
  8
001
370
     9
100
AcDbPoint
 10
80.926532
 20
56.647863
 30
0.0
  0
POINT
  5
425
330
412
100
AcDbEntity
  8
001
370
     9
100
AcDbPoint
 10
80.926532
 20
31.265511
 30
0.0
  0
ENDBLK
  5
414
330
412
100
AcDbEntity
  8
0
100
AcDbBlockEnd
  0
BLOCK
  5
427
330
426
100
AcDbEntity
  8
0
100
AcDbBlockBegin
  2
*D8
 70
     1
 10
0.0
 20
0.0
 30
0.0
  3
*D8
  1

  0
LINE
  5
429
330
426
100
AcDbEntity
  8
001
370
     9
100
AcDbLine
 10
169.926532
 20
74.347863
 30
0.0
 11
201.332423
 21
74.347863
 31
0.0
  0
LINE
  5
42A
330
426
100
AcDbEntity
  8
001
370
     9
100
AcDbLine
 10
169.926532
 20
54.347863
 30
0.0
 11
201.332423
 21
54.347863
 31
0.0
  0
LINE
  5
42B
330
426
100
AcDbEntity
  8
001
370
     9
100
AcDbLine
 10
198.582423
 20
74.347863
 30
0.0
 11
198.582423
 21
54.347863
 31
0.0
  0
POLYLINE
  5
42C
330
426
100
AcDbEntity
  8
001
370
     9
100
AcDb2dPolyline
 66
     1
 10
0.0
 20
0.0
 30
0.0
  0
VERTEX
  5
42E
330
42C
100
AcDbEntity
  8
001
370
     9
100
AcDbVertex
100
AcDb2dVertex
 10
198.180499
 20
72.847863
 30
0.0
  0
VERTEX
  5
42F
330
42C
100
AcDbEntity
  8
001
370
     9
100
AcDbVertex
100
AcDb2dVertex
 10
198.582423
 20
74.347863
 30
0.0
  0
VERTEX
  5
430
330
42C
100
AcDbEntity
  8
001
370
     9
100
AcDbVertex
100
AcDb2dVertex
 10
198.984347
 20
72.847863
 30
0.0
  0
SEQEND
  5
42D
330
42C
100
AcDbEntity
  8
001
370
     9
  0
POLYLINE
  5
431
330
426
100
AcDbEntity
  8
001
370
     9
100
AcDb2dPolyline
 66
     1
 10
0.0
 20
0.0
 30
0.0
  0
VERTEX
  5
433
330
431
100
AcDbEntity
  8
001
370
     9
100
AcDbVertex
100
AcDb2dVertex
 10
198.984347
 20
55.847863
 30
0.0
  0
VERTEX
  5
434
330
431
100
AcDbEntity
  8
001
370
     9
100
AcDbVertex
100
AcDb2dVertex
 10
198.582423
 20
54.347863
 30
0.0
  0
VERTEX
  5
435
330
431
100
AcDbEntity
  8
001
370
     9
100
AcDbVertex
100
AcDb2dVertex
 10
198.180499
 20
55.847863
 30
0.0
  0
SEQEND
  5
432
330
431
100
AcDbEntity
  8
001
370
     9
  0
TEXT
  5
436
330
426
100
AcDbEntity
  8
001
370
    30
100
AcDbText
 10
197.582423
 20
38.847863
 30
0.0
 40
4.0
  1
%%c２０
 50
90.000003
 41
0.882353
100
AcDbText
  0
POINT
  5
437
330
426
100
AcDbEntity
  8
001
370
     9
100
AcDbPoint
 10
169.926532
 20
74.347863
 30
0.0
  0
POINT
  5
438
330
426
100
AcDbEntity
  8
001
370
     9
100
AcDbPoint
 10
169.926532
 20
54.347863
 30
0.0
  0
POINT
  5
439
330
426
100
AcDbEntity
  8
001
370
     9
100
AcDbPoint
 10
198.582423
 20
54.347863
 30
0.0
  0
LINE
  5
43A
330
426
100
AcDbEntity
  8
001
370
     9
100
AcDbLine
 10
198.582423
 20
54.347863
 30
0.0
 11
198.582423
 21
35.847863
 31
0.0
  0
ENDBLK
  5
428
330
426
100
AcDbEntity
  8
0
100
AcDbBlockEnd
  0
ENDSEC
  0
SECTION
  2
ENTITIES
  0
INSERT
  5
43B
330
1F
100
AcDbEntity
  8
001
  6
ByBlock
 62
     0
370
    -2
100
AcDbBlockReference
  2
M-1-1
 10
0.0
 20
0.0
 30
0.0
  0
INSERT
  5
43C
330
1F
100
AcDbEntity
  8
001
  6
ByBlock
 62
     0
370
    -2
100
AcDbBlockReference
  2
C32GUX-2
 10
0.0
 20
0.0
 30
0.0
  0
DIMENSION
  5
43D
330
1F
100
AcDbEntity
  8
001
370
     9
100
AcDbDimension
  2
*D3
 10
50.926532
 20
31.265511
 30
0.0
 11
69.675635
 21
34.265511
 31
0.0
 70
   160
 71
     5
 42
-1.0
  3
Standard
100
AcDbAlignedDimension
 13
80.926532
 23
57.347863
 33
0.0
 14
50.926532
 24
51.854101
 34
0.0
 50
180.0
100
AcDbRotatedDimension
  0
DIMENSION
  5
43E
330
1F
100
AcDbEntity
  8
001
370
     9
100
AcDbDimension
  2
*D4
 10
57.365205
 20
41.221832
 30
0.0
 11
37.426532
 21
44.221832
 31
0.0
 70
   160
 71
     5
 42
-1.0
  3
Standard
100
AcDbAlignedDimension
 13
50.926532
 23
51.854101
 33
0.0
 14
57.365205
 24
58.173615
 34
0.0
100
AcDbRotatedDimension
  0
TEXT
  5
43F
330
1F
100
AcDbEntity
  8
001
370
    30
100
AcDbText
 10
39.484055
 20
68.345611
 30
0.0
 40
4.0
  1
%%c０．９
 50
90.000003
 41
0.869565
100
AcDbText
  0
POLYLINE
  5
440
330
1F
100
AcDbEntity
  8
001
370
     9
100
AcDb2dPolyline
 66
     1
 10
0.0
 20
0.0
 30
0.0
  0
VERTEX
  5
442
330
440
100
AcDbEntity
  8
001
370
     9
100
AcDbVertex
100
AcDb2dVertex
 10
40.885978
 20
65.443755
 30
0.0
  0
VERTEX
  5
443
330
440
100
AcDbEntity
  8
001
370
     9
100
AcDbVertex
100
AcDb2dVertex
 10
40.484055
 20
63.943755
 30
0.0
  0
VERTEX
  5
444
330
440
100
AcDbEntity
  8
001
370
     9
100
AcDbVertex
100
AcDb2dVertex
 10
40.082131
 20
65.443755
 30
0.0
  0
SEQEND
  5
441
330
440
100
AcDbEntity
  8
001
370
     9
  0
LINE
  5
445
330
1F
100
AcDbEntity
  8
001
370
     9
100
AcDbLine
 10
40.484055
 20
87.345611
 30
0.0
 11
40.484055
 21
63.943755
 31
0.0
  0
POLYLINE
  5
446
330
1F
100
AcDbEntity
  8
001
370
     9
100
AcDb2dPolyline
 66
     1
 10
0.0
 20
0.0
 30
0.0
  0
VERTEX
  5
448
330
446
100
AcDbEntity
  8
001
370
     9
100
AcDbVertex
100
AcDb2dVertex
 10
50.926532
 20
63.943755
 30
0.0
  0
VERTEX
  5
449
330
446
100
AcDbEntity
  8
001
370
     9
100
AcDbVertex
100
AcDb2dVertex
 10
40.484055
 20
63.943755
 30
0.0
  0
VERTEX
  5
44A
330
446
100
AcDbEntity
  8
001
370
     9
100
AcDbVertex
100
AcDb2dVertex
 10
37.734055
 20
63.943755
 30
0.0
  0
SEQEND
  5
447
330
446
100
AcDbEntity
  8
001
370
     9
  0
DIMENSION
  5
44B
330
1F
100
AcDbEntity
  8
001
370
     9
100
AcDbDimension
  2
*D5
 10
50.926532
 20
63.943755
 30
0.0
 11
74.359979
 21
52.673233
 31
0.0
 70
    34
 71
     5
 42
-1.0
  3
Standard
100
AcDb2LineAngularDimension
 13
56.832825
 23
58.650717
 33
0.0
 14
50.926532
 24
63.943755
 34
0.0
 15
50.926532
 25
51.854101
 35
0.0
 16
62.754116
 26
37.462125
 36
0.0
  0
DIMENSION
  5
44C
330
1F
100
AcDbEntity
  8
001
370
     9
100
AcDbDimension
  2
*D6
 10
175.926532
 20
20.594493
 30
0.0
 11
113.426532
 21
23.594493
 31
0.0
 70
   160
 71
     5
 42
-1.0
  3
Standard
100
AcDbAlignedDimension
 13
50.926532
 23
51.854101
 33
0.0
 14
175.926532
 24
60.347863
 34
0.0
100
AcDbRotatedDimension
  0
DIMENSION
  5
44D
330
1F
100
AcDbEntity
  8
001
370
     9
100
AcDbDimension
  2
*D7
 10
80.926532
 20
31.265511
 30
0.0
 11
128.426532
 21
34.265511
 31
0.0
 70
   160
 71
     5
 42
-1.0
  3
Standard
100
AcDbAlignedDimension
 13
175.926532
 23
60.347863
 33
0.0
 14
80.926532
 24
56.647863
 34
0.0
 50
180.0
100
AcDbRotatedDimension
  0
DIMENSION
  5
44E
330
1F
100
AcDbEntity
  8
001
370
     9
100
AcDbDimension
  2
*D8
 10
198.582423
 20
54.347863
 30
0.0
 11
195.582423
 21
44.847863
 31
0.0
 70
   160
 71
     5
 42
-1.0
  3
Standard
100
AcDbAlignedDimension
 13
169.926532
 23
74.347863
 33
0.0
 14
169.926532
 24
54.347863
 34
0.0
 50
270.0
100
AcDbRotatedDimension
  0
TEXT
  5
44F
330
1F
100
AcDbEntity
  8
001
370
    30
100
AcDbText
 10
29.284801
 20
59.311139
 30
0.0
 40
4.0
  1
%%c１３．５２
 50
90.000003
 41
0.857143
100
AcDbText
  0
POLYLINE
  5
450
330
1F
100
AcDbEntity
  8
001
370
     9
100
AcDb2dPolyline
 66
     1
 10
0.0
 20
0.0
 30
0.0
  0
VERTEX
  5
452
330
450
100
AcDbEntity
  8
001
370
     9
100
AcDbVertex
100
AcDb2dVertex
 10
30.686725
 20
59.673615
 30
0.0
  0
VERTEX
  5
453
330
450
100
AcDbEntity
  8
001
370
     9
100
AcDbVertex
100
AcDb2dVertex
 10
30.284801
 20
58.173615
 30
0.0
  0
VERTEX
  5
454
330
450
100
AcDbEntity
  8
001
370
     9
100
AcDbVertex
100
AcDb2dVertex
 10
29.882877
 20
59.673615
 30
0.0
  0
SEQEND
  5
451
330
450
100
AcDbEntity
  8
001
370
     9
  0
LINE
  5
455
330
1F
100
AcDbEntity
  8
001
370
     9
100
AcDbLine
 10
30.284801
 20
58.173615
 30
0.0
 11
30.284801
 21
71.691658
 31
0.0
  0
POLYLINE
  5
456
330
1F
100
AcDbEntity
  8
001
370
     9
100
AcDb2dPolyline
 66
     1
 10
0.0
 20
0.0
 30
0.0
  0
VERTEX
  5
458
330
456
100
AcDbEntity
  8
001
370
     9
100
AcDbVertex
100
AcDb2dVertex
 10
57.365205
 20
58.173615
 30
0.0
  0
VERTEX
  5
459
330
456
100
AcDbEntity
  8
001
370
     9
100
AcDbVertex
100
AcDb2dVertex
 10
30.284801
 20
58.173615
 30
0.0
  0
VERTEX
  5
45A
330
456
100
AcDbEntity
  8
001
370
     9
100
AcDbVertex
100
AcDb2dVertex
 10
27.534801
 20
58.173615
 30
0.0
  0
SEQEND
  5
457
330
456
100
AcDbEntity
  8
001
370
     9
  0
TEXT
  5
45B
330
1F
100
AcDbEntity
  8
001
370
    30
100
AcDbText
 10
40.20875
 20
111.683334
 30
0.0
 40
8.0
  1
面取りカッター面面　ＳＮＫ４５１２Ｃ
 41
0.833333
100
AcDbText
  0
LINE
  5
45C
330
1F
100
AcDbEntity
  8
001
 62
   253
370
    50
100
AcDbLine
 10
169.926532
 20
54.347863
 30
0.0
 11
84.926532
 21
54.347863
 31
0.0
  0
LINE
  5
45D
330
1F
100
AcDbEntity
  8
001
 62
   253
370
    50
100
AcDbLine
 10
169.926532
 20
74.347863
 30
0.0
 11
84.926532
 21
74.347863
 31
0.0
  0
LINE
  5
45E
330
1F
100
AcDbEntity
  8
001
 62
   253
370
    50
100
AcDbLine
 10
84.926532
 20
54.347863
 30
0.0
 11
84.926532
 21
74.347863
 31
0.0
  0
LINE
  5
45F
330
1F
100
AcDbEntity
  8
001
 62
   253
370
    50
100
AcDbLine
 10
84.926532
 20
74.347863
 30
0.0
 11
80.926532
 21
70.347863
 31
0.0
  0
LINE
  5
460
330
1F
100
AcDbEntity
  8
001
 62
   253
370
    50
100
AcDbLine
 10
80.926532
 20
58.347863
 30
0.0
 11
84.926532
 21
54.347863
 31
0.0
  0
LINE
  5
461
330
1F
100
AcDbEntity
  8
001
 62
   253
370
    50
100
AcDbLine
 10
80.926532
 20
58.347863
 30
0.0
 11
80.926532
 21
70.347863
 31
0.0
  0
ARC
  5
462
330
1F
100
AcDbEntity
  8
001
 62
   253
370
    50
100
AcDbCircle
 10
169.926532
 20
68.347863
 30
0.0
 40
5.999999999999999
100
AcDbArc
 50
0.0
 51
90.0
  0
ARC
  5
463
330
1F
100
AcDbEntity
  8
001
 62
   253
370
    50
100
AcDbCircle
 10
169.926532
 20
60.347863
 30
0.0
 40
5.999999999999999
100
AcDbArc
 50
270.0
 51
0.0
  0
LINE
  5
464
330
1F
100
AcDbEntity
  8
001
 62
   253
370
    50
100
AcDbLine
 10
175.926532
 20
68.347863
 30
0.0
 11
175.926532
 21
60.347863
 31
0.0
  0
POLYLINE
  5
465
330
1F
100
AcDbEntity
  8
001
 62
   253
370
    50
100
AcDb2dPolyline
 66
     1
 10
0.0
 20
0.0
 30
0.0
  0
VERTEX
  5
467
330
465
100
AcDbEntity
  8
001
 62
   253
370
    50
100
AcDbVertex
100
AcDb2dVertex
 10
63.548291
 20
66.548884
 30
0.0
  0
VERTEX
  5
468
330
465
100
AcDbEntity
  8
001
 62
   253
370
    50
100
AcDbVertex
100
AcDb2dVertex
 10
63.542389
 20
66.552657
 30
0.0
  0
VERTEX
  5
469
330
465
100
AcDbEntity
  8
001
 62
   253
370
    50
100
AcDbVertex
100
AcDb2dVertex
 10
63.533785
 20
66.558124
 30
0.0
  0
VERTEX
  5
46A
330
465
100
AcDbEntity
  8
001
 62
   253
370
    50
100
AcDbVertex
100
AcDb2dVertex
 10
63.34284
 20
66.666839
 30
0.0
  0
VERTEX
  5
46B
330
465
100
AcDbEntity
  8
001
 62
   253
370
    50
100
AcDbVertex
100
AcDb2dVertex
 10
63.172777
 20
66.742292
 30
0.0
  0
VERTEX
  5
46C
330
465
100
AcDbEntity
  8
001
 62
   253
370
    50
100
AcDbVertex
100
AcDb2dVertex
 10
62.994829
 20
66.805593
 30
0.0
  0
VERTEX
  5
46D
330
465
100
AcDbEntity
  8
001
 62
   253
370
    50
100
AcDbVertex
100
AcDb2dVertex
 10
62.788022
 20
66.85508
 30
0.0
  0
VERTEX
  5
46E
330
465
100
AcDbEntity
  8
001
 62
   253
370
    50
100
AcDbVertex
100
AcDb2dVertex
 10
62.55818
 20
66.883949
 30
0.0
  0
VERTEX
  5
46F
330
465
100
AcDbEntity
  8
001
 62
   253
370
    50
100
AcDbVertex
100
AcDb2dVertex
 10
62.39121
 20
66.893061
 30
0.0
  0
SEQEND
  5
466
330
465
100
AcDbEntity
  8
001
370
    50
  0
POLYLINE
  5
470
330
1F
100
AcDbEntity
  8
001
 62
   253
370
    50
100
AcDb2dPolyline
 66
     1
 10
0.0
 20
0.0
 30
0.0
  0
VERTEX
  5
472
330
470
100
AcDbEntity
  8
001
 62
   253
370
    50
100
AcDbVertex
100
AcDb2dVertex
 10
61.670788
 20
62.02055
 30
0.0
  0
VERTEX
  5
473
330
470
100
AcDbEntity
  8
001
 62
   253
370
    50
100
AcDbVertex
100
AcDb2dVertex
 10
61.800878
 20
61.978534
 30
0.0
  0
VERTEX
  5
474
330
470
100
AcDbEntity
  8
001
 62
   253
370
    50
100
AcDbVertex
100
AcDb2dVertex
 10
61.994398
 20
61.931041
 30
0.0
  0
VERTEX
  5
475
330
470
100
AcDbEntity
  8
001
 62
   253
370
    50
100
AcDbVertex
100
AcDb2dVertex
 10
62.228959
 20
61.90029
 30
0.0
  0
VERTEX
  5
476
330
470
100
AcDbEntity
  8
001
 62
   253
370
    50
100
AcDbVertex
100
AcDb2dVertex
 10
62.39121
 20
61.893061
 30
0.0
  0
SEQEND
  5
471
330
470
100
AcDbEntity
  8
001
370
    50
  0
POLYLINE
  5
477
330
1F
100
AcDbEntity
  8
001
 62
   253
370
    50
100
AcDb2dPolyline
 66
     1
 10
0.0
 20
0.0
 30
0.0
  0
VERTEX
  5
479
330
477
100
AcDbEntity
  8
001
 62
   253
370
    50
100
AcDbVertex
100
AcDb2dVertex
 10
62.995524
 20
66.804058
 30
0.0
  0
VERTEX
  5
47A
330
477
100
AcDbEntity
  8
001
 62
   253
370
    50
100
AcDbVertex
100
AcDb2dVertex
 10
62.961236
 20
66.793412
 30
0.0
  0
VERTEX
  5
47B
330
477
100
AcDbEntity
  8
001
 62
   253
370
    50
100
AcDbVertex
100
AcDb2dVertex
 10
62.91143
 20
66.776922
 30
0.0
  0
VERTEX
  5
47C
330
477
100
AcDbEntity
  8
001
 62
   253
370
    50
100
AcDbVertex
100
AcDb2dVertex
 10
62.861966
 20
66.759101
 30
0.0
  0
VERTEX
  5
47D
330
477
100
AcDbEntity
  8
001
 62
   253
370
    50
100
AcDbVertex
100
AcDb2dVertex
 10
62.82835
 20
66.746276
 30
0.0
  0
SEQEND
  5
478
330
477
100
AcDbEntity
  8
001
370
    50
  0
POLYLINE
  5
47E
330
1F
100
AcDbEntity
  8
001
 62
   253
370
    50
100
AcDb2dPolyline
 66
     1
 10
0.0
 20
0.0
 30
0.0
  0
VERTEX
  5
480
330
47E
100
AcDbEntity
  8
001
 62
   253
370
    50
100
AcDbVertex
100
AcDb2dVertex
 10
62.39121
 20
66.893061
 30
0.0
  0
VERTEX
  5
481
330
47E
100
AcDbEntity
  8
001
 62
   253
370
    50
100
AcDbVertex
100
AcDb2dVertex
 10
62.228944
 20
66.885827
 30
0.0
  0
VERTEX
  5
482
330
47E
100
AcDbEntity
  8
001
 62
   253
370
    50
100
AcDbVertex
100
AcDb2dVertex
 10
61.994398
 20
66.85508
 30
0.0
  0
VERTEX
  5
483
330
47E
100
AcDbEntity
  8
001
 62
   253
370
    50
100
AcDbVertex
100
AcDb2dVertex
 10
61.770004
 20
66.798079
 30
0.0
  0
VERTEX
  5
484
330
47E
100
AcDbEntity
  8
001
 62
   253
370
    50
100
AcDbVertex
100
AcDb2dVertex
 10
61.619722
 20
66.746276
 30
0.0
  0
SEQEND
  5
47F
330
47E
100
AcDbEntity
  8
001
370
    50
  0
POLYLINE
  5
485
330
1F
100
AcDbEntity
  8
001
 62
   253
370
    50
100
AcDb2dPolyline
 66
     1
 10
0.0
 20
0.0
 30
0.0
  0
VERTEX
  5
487
330
485
100
AcDbEntity
  8
001
 62
   253
370
    50
100
AcDbVertex
100
AcDb2dVertex
 10
63.737571
 20
62.373053
 30
0.0
  0
VERTEX
  5
488
330
485
100
AcDbEntity
  8
001
 62
   253
370
    50
100
AcDbVertex
100
AcDb2dVertex
 10
63.836122
 20
62.452266
 30
0.0
  0
VERTEX
  5
489
330
485
100
AcDbEntity
  8
001
 62
   253
370
    50
100
AcDbVertex
100
AcDb2dVertex
 10
63.931765
 20
62.534755
 30
0.0
  0
VERTEX
  5
48A
330
485
100
AcDbEntity
  8
001
 62
   253
370
    50
100
AcDbVertex
100
AcDb2dVertex
 10
64.022098
 20
62.623001
 30
0.0
  0
VERTEX
  5
48B
330
485
100
AcDbEntity
  8
001
 62
   253
370
    50
100
AcDbVertex
100
AcDb2dVertex
 10
64.107037
 20
62.716599
 30
0.0
  0
VERTEX
  5
48C
330
485
100
AcDbEntity
  8
001
 62
   253
370
    50
100
AcDbVertex
100
AcDb2dVertex
 10
64.190075
 20
62.818667
 30
0.0
  0
VERTEX
  5
48D
330
485
100
AcDbEntity
  8
001
 62
   253
370
    50
100
AcDbVertex
100
AcDb2dVertex
 10
64.267407
 20
62.925067
 30
0.0
  0
VERTEX
  5
48E
330
485
100
AcDbEntity
  8
001
 62
   253
370
    50
100
AcDbVertex
100
AcDb2dVertex
 10
64.339205
 20
63.036287
 30
0.0
  0
VERTEX
  5
48F
330
485
100
AcDbEntity
  8
001
 62
   253
370
    50
100
AcDbVertex
100
AcDb2dVertex
 10
64.404877
 20
63.151253
 30
0.0
  0
VERTEX
  5
490
330
485
100
AcDbEntity
  8
001
 62
   253
370
    50
100
AcDbVertex
100
AcDb2dVertex
 10
64.464448
 20
63.269711
 30
0.0
  0
VERTEX
  5
491
330
485
100
AcDbEntity
  8
001
 62
   253
370
    50
100
AcDbVertex
100
AcDb2dVertex
 10
64.517666
 20
63.391146
 30
0.0
  0
VERTEX
  5
492
330
485
100
AcDbEntity
  8
001
 62
   253
370
    50
100
AcDbVertex
100
AcDb2dVertex
 10
64.566018
 20
63.519883
 30
0.0
  0
VERTEX
  5
493
330
485
100
AcDbEntity
  8
001
 62
   253
370
    50
100
AcDbVertex
100
AcDb2dVertex
 10
64.607457
 20
63.651018
 30
0.0
  0
VERTEX
  5
494
330
485
100
AcDbEntity
  8
001
 62
   253
370
    50
100
AcDbVertex
100
AcDb2dVertex
 10
64.642299
 20
63.785111
 30
0.0
  0
VERTEX
  5
495
330
485
100
AcDbEntity
  8
001
 62
   253
370
    50
100
AcDbVertex
100
AcDb2dVertex
 10
64.670216
 20
63.920816
 30
0.0
  0
VERTEX
  5
496
330
485
100
AcDbEntity
  8
001
 62
   253
370
    50
100
AcDbVertex
100
AcDb2dVertex
 10
64.691186
 20
64.057759
 30
0.0
  0
VERTEX
  5
497
330
485
100
AcDbEntity
  8
001
 62
   253
370
    50
100
AcDbVertex
100
AcDb2dVertex
 10
64.705166
 20
64.195577
 30
0.0
  0
VERTEX
  5
498
330
485
100
AcDbEntity
  8
001
 62
   253
370
    50
100
AcDbVertex
100
AcDb2dVertex
 10
64.710841
 20
64.294248
 30
0.0
  0
VERTEX
  5
499
330
485
100
AcDbEntity
  8
001
 62
   253
370
    50
100
AcDbVertex
100
AcDb2dVertex
 10
64.71293
 20
64.393061
 30
0.0
  0
VERTEX
  5
49A
330
485
100
AcDbEntity
  8
001
 62
   253
370
    50
100
AcDbVertex
100
AcDb2dVertex
 10
64.709753
 20
64.533193
 30
0.0
  0
VERTEX
  5
49B
330
485
100
AcDbEntity
  8
001
 62
   253
370
    50
100
AcDbVertex
100
AcDb2dVertex
 10
64.699414
 20
64.672993
 30
0.0
  0
VERTEX
  5
49C
330
485
100
AcDbEntity
  8
001
 62
   253
370
    50
100
AcDbVertex
100
AcDb2dVertex
 10
64.68194
 20
64.81218
 30
0.0
  0
VERTEX
  5
49D
330
485
100
AcDbEntity
  8
001
 62
   253
370
    50
100
AcDbVertex
100
AcDb2dVertex
 10
64.657347
 20
64.950285
 30
0.0
  0
VERTEX
  5
49E
330
485
100
AcDbEntity
  8
001
 62
   253
370
    50
100
AcDbVertex
100
AcDb2dVertex
 10
64.625872
 20
65.085944
 30
0.0
  0
VERTEX
  5
49F
330
485
100
AcDbEntity
  8
001
 62
   253
370
    50
100
AcDbVertex
100
AcDb2dVertex
 10
64.587255
 20
65.219739
 30
0.0
  0
VERTEX
  5
4A0
330
485
100
AcDbEntity
  8
001
 62
   253
370
    50
100
AcDbVertex
100
AcDb2dVertex
 10
64.541663
 20
65.350572
 30
0.0
  0
VERTEX
  5
4A1
330
485
100
AcDbEntity
  8
001
 62
   253
370
    50
100
AcDbVertex
100
AcDb2dVertex
 10
64.489011
 20
65.478731
 30
0.0
  0
VERTEX
  5
4A2
330
485
100
AcDbEntity
  8
001
 62
   253
370
    50
100
AcDbVertex
100
AcDb2dVertex
 10
64.429561
 20
65.60355
 30
0.0
  0
VERTEX
  5
4A3
330
485
100
AcDbEntity
  8
001
 62
   253
370
    50
100
AcDbVertex
100
AcDb2dVertex
 10
64.363287
 20
65.724883
 30
0.0
  0
VERTEX
  5
4A4
330
485
100
AcDbEntity
  8
001
 62
   253
370
    50
100
AcDbVertex
100
AcDb2dVertex
 10
64.290842
 20
65.841385
 30
0.0
  0
VERTEX
  5
4A5
330
485
100
AcDbEntity
  8
001
 62
   253
370
    50
100
AcDbVertex
100
AcDb2dVertex
 10
64.211764
 20
65.953485
 30
0.0
  0
VERTEX
  5
4A6
330
485
100
AcDbEntity
  8
001
 62
   253
370
    50
100
AcDbVertex
100
AcDb2dVertex
 10
64.126956
 20
66.059694
 30
0.0
  0
VERTEX
  5
4A7
330
485
100
AcDbEntity
  8
001
 62
   253
370
    50
100
AcDbVertex
100
AcDb2dVertex
 10
64.036005
 20
66.160686
 30
0.0
  0
VERTEX
  5
4A8
330
485
100
AcDbEntity
  8
001
 62
   253
370
    50
100
AcDbVertex
100
AcDb2dVertex
 10
63.938964
 20
66.256412
 30
0.0
  0
VERTEX
  5
4A9
330
485
100
AcDbEntity
  8
001
 62
   253
370
    50
100
AcDbVertex
100
AcDb2dVertex
 10
63.836484
 20
66.346335
 30
0.0
  0
VERTEX
  5
4AA
330
485
100
AcDbEntity
  8
001
 62
   253
370
    50
100
AcDbVertex
100
AcDb2dVertex
 10
63.729041
 20
66.430033
 30
0.0
  0
VERTEX
  5
4AB
330
485
100
AcDbEntity
  8
001
 62
   253
370
    50
100
AcDbVertex
100
AcDb2dVertex
 10
63.616618
 20
66.506782
 30
0.0
  0
VERTEX
  5
4AC
330
485
100
AcDbEntity
  8
001
 62
   253
370
    50
100
AcDbVertex
100
AcDb2dVertex
 10
63.582561
 20
66.528005
 30
0.0
  0
VERTEX
  5
4AD
330
485
100
AcDbEntity
  8
001
 62
   253
370
    50
100
AcDbVertex
100
AcDb2dVertex
 10
63.548291
 20
66.548884
 30
0.0
  0
SEQEND
  5
486
330
485
100
AcDbEntity
  8
001
370
    50
  0
POLYLINE
  5
4AE
330
1F
100
AcDbEntity
  8
001
 62
   253
370
    50
100
AcDb2dPolyline
 66
     1
 10
0.0
 20
0.0
 30
0.0
  0
VERTEX
  5
4B0
330
4AE
100
AcDbEntity
  8
001
 62
   253
370
    50
100
AcDbVertex
100
AcDb2dVertex
 10
62.39121
 20
61.893061
 30
0.0
  0
VERTEX
  5
4B1
330
4AE
100
AcDbEntity
  8
001
 62
   253
370
    50
100
AcDbVertex
100
AcDb2dVertex
 10
62.558407
 20
61.902266
 30
0.0
  0
VERTEX
  5
4B2
330
4AE
100
AcDbEntity
  8
001
 62
   253
370
    50
100
AcDbVertex
100
AcDb2dVertex
 10
62.788022
 20
61.931041
 30
0.0
  0
VERTEX
  5
4B3
330
4AE
100
AcDbEntity
  8
001
 62
   253
370
    50
100
AcDbVertex
100
AcDb2dVertex
 10
62.993689
 20
61.980058
 30
0.0
  0
VERTEX
  5
4B4
330
4AE
100
AcDbEntity
  8
001
 62
   253
370
    50
100
AcDbVertex
100
AcDb2dVertex
 10
63.172777
 20
62.043829
 30
0.0
  0
VERTEX
  5
4B5
330
4AE
100
AcDbEntity
  8
001
 62
   253
370
    50
100
AcDbVertex
100
AcDb2dVertex
 10
63.347242
 20
62.121097
 30
0.0
  0
VERTEX
  5
4B6
330
4AE
100
AcDbEntity
  8
001
 62
   253
370
    50
100
AcDbVertex
100
AcDb2dVertex
 10
63.533785
 20
62.227997
 30
0.0
  0
VERTEX
  5
4B7
330
4AE
100
AcDbEntity
  8
001
 62
   253
370
    50
100
AcDbVertex
100
AcDb2dVertex
 10
63.654111
 20
62.310664
 30
0.0
  0
VERTEX
  5
4B8
330
4AE
100
AcDbEntity
  8
001
 62
   253
370
    50
100
AcDbVertex
100
AcDb2dVertex
 10
63.737571
 20
62.373053
 30
0.0
  0
SEQEND
  5
4AF
330
4AE
100
AcDbEntity
  8
001
370
    50
  0
LINE
  5
4B9
330
1F
100
AcDbEntity
  8
001
 62
   253
370
    50
100
AcDbLine
 10
61.670788
 20
62.02055
 30
0.0
 11
62.879415
 21
62.02055
 31
0.0
  0
POLYLINE
  5
4BA
330
1F
100
AcDbEntity
  8
001
 62
   253
370
    50
100
AcDb2dPolyline
 66
     1
 10
0.0
 20
0.0
 30
0.0
  0
VERTEX
  5
4BC
330
4BA
100
AcDbEntity
  8
001
 62
   253
370
    50
100
AcDbVertex
100
AcDb2dVertex
 10
62.879415
 20
62.02055
 30
0.0
  0
VERTEX
  5
4BD
330
4BA
100
AcDbEntity
  8
001
 62
   253
370
    50
100
AcDbVertex
100
AcDb2dVertex
 10
62.902843
 20
62.012209
 30
0.0
  0
VERTEX
  5
4BE
330
4BA
100
AcDbEntity
  8
001
 62
   253
370
    50
100
AcDbVertex
100
AcDb2dVertex
 10
62.937236
 20
62.000464
 30
0.0
  0
VERTEX
  5
4BF
330
4BA
100
AcDbEntity
  8
001
 62
   253
370
    50
100
AcDbVertex
100
AcDb2dVertex
 10
62.971786
 20
61.989357
 30
0.0
  0
VERTEX
  5
4C0
330
4BA
100
AcDbEntity
  8
001
 62
   253
370
    50
100
AcDbVertex
100
AcDb2dVertex
 10
62.995524
 20
61.982064
 30
0.0
  0
SEQEND
  5
4BB
330
4BA
100
AcDbEntity
  8
001
370
    50
  0
LINE
  5
4C1
330
1F
100
AcDbEntity
  8
001
 62
   253
370
    50
100
AcDbLine
 10
62.82835
 20
66.746276
 30
0.0
 11
61.619722
 21
66.746276
 31
0.0
  0
LINE
  5
4C2
330
1F
100
AcDbEntity
  8
001
 62
   253
370
    50
100
AcDbLine
 10
59.213691
 20
58.347863
 30
0.0
 11
59.213691
 21
59.592219
 31
0.0
  0
LINE
  5
4C3
330
1F
100
AcDbEntity
  8
001
 62
   253
370
    50
100
AcDbLine
 10
59.213691
 20
58.347863
 30
0.0
 11
80.926532
 21
58.347863
 31
0.0
  0
LINE
  5
4C4
330
1F
100
AcDbEntity
  8
001
 62
   253
370
    50
100
AcDbLine
 10
80.926532
 20
70.347863
 30
0.0
 11
59.213691
 21
70.347863
 31
0.0
  0
POLYLINE
  5
4C5
330
1F
100
AcDbEntity
  8
001
 62
   253
370
    50
100
AcDb2dPolyline
 66
     1
 10
0.0
 20
0.0
 30
0.0
  0
VERTEX
  5
4C7
330
4C5
100
AcDbEntity
  8
001
 62
   253
370
    50
100
AcDbVertex
100
AcDb2dVertex
 10
63.548291
 20
66.548884
 30
0.0
  0
VERTEX
  5
4C8
330
4C5
100
AcDbEntity
  8
001
 62
   253
370
    50
100
AcDbVertex
100
AcDb2dVertex
 10
63.208853
 20
66.889239
 30
0.0
  0
VERTEX
  5
4C9
330
4C5
100
AcDbEntity
  8
001
 62
   253
370
    50
100
AcDbVertex
100
AcDb2dVertex
 10
62.679352
 20
67.347863
 30
0.0
  0
VERTEX
  5
4CA
330
4C5
100
AcDbEntity
  8
001
 62
   253
370
    50
100
AcDbVertex
100
AcDb2dVertex
 10
60.702257
 20
68.523365
 30
0.0
  0
VERTEX
  5
4CB
330
4C5
100
AcDbEntity
  8
001
 62
   253
370
    50
100
AcDbVertex
100
AcDb2dVertex
 10
59.213691
 20
69.103506
 30
0.0
  0
SEQEND
  5
4C6
330
4C5
100
AcDbEntity
  8
001
370
    50
  0
LINE
  5
4CC
330
1F
100
AcDbEntity
  8
001
 62
   253
370
    50
100
AcDbLine
 10
59.213691
 20
69.103506
 30
0.0
 11
59.213691
 21
70.347863
 31
0.0
  0
POLYLINE
  5
4CD
330
1F
100
AcDbEntity
  8
001
 62
   253
370
    50
100
AcDb2dPolyline
 66
     1
 10
0.0
 20
0.0
 30
0.0
  0
VERTEX
  5
4CF
330
4CD
100
AcDbEntity
  8
001
 62
   253
370
    50
100
AcDbVertex
100
AcDb2dVertex
 10
59.213691
 20
59.592219
 30
0.0
  0
VERTEX
  5
4D0
330
4CD
100
AcDbEntity
  8
001
 62
   253
370
    50
100
AcDbVertex
100
AcDb2dVertex
 10
60.786239
 20
60.273635
 30
0.0
  0
VERTEX
  5
4D1
330
4CD
100
AcDbEntity
  8
001
 62
   253
370
    50
100
AcDbVertex
100
AcDb2dVertex
 10
62.679352
 20
61.347863
 30
0.0
  0
VERTEX
  5
4D2
330
4CD
100
AcDbEntity
  8
001
 62
   253
370
    50
100
AcDbVertex
100
AcDb2dVertex
 10
63.181773
 20
61.754395
 30
0.0
  0
VERTEX
  5
4D3
330
4CD
100
AcDbEntity
  8
001
 62
   253
370
    50
100
AcDbVertex
100
AcDb2dVertex
 10
63.6755
 20
62.295742
 30
0.0
  0
VERTEX
  5
4D4
330
4CD
100
AcDbEntity
  8
001
 62
   253
370
    50
100
AcDbVertex
100
AcDb2dVertex
 10
63.712349
 20
62.341399
 30
0.0
  0
VERTEX
  5
4D5
330
4CD
100
AcDbEntity
  8
001
 62
   253
370
    50
100
AcDbVertex
100
AcDb2dVertex
 10
63.737571
 20
62.373053
 30
0.0
  0
SEQEND
  5
4CE
330
4CD
100
AcDbEntity
  8
001
370
    50
  0
LINE
  5
4D6
330
1F
100
AcDbEntity
  8
001
 62
   253
370
    50
100
AcDbLine
 10
59.132281
 20
59.633712
 30
0.0
 11
59.213691
 21
59.592219
 31
0.0
  0
LINE
  5
4D7
330
1F
100
AcDbEntity
  8
001
 62
   253
370
    50
100
AcDbLine
 10
59.132281
 20
59.633712
 30
0.0
 11
61.670788
 21
62.02055
 31
0.0
  0
LINE
  5
4D8
330
1F
100
AcDbEntity
  8
001
 62
   253
370
    50
100
AcDbLine
 10
59.213691
 20
69.103506
 30
0.0
 11
59.070704
 21
69.030628
 31
0.0
  0
LINE
  5
4D9
330
1F
100
AcDbEntity
  8
001
 62
   253
370
    50
100
AcDbLine
 10
61.619722
 20
66.746276
 30
0.0
 11
59.070704
 21
69.030628
 31
0.0
  0
LINE
  5
4DA
330
1F
100
AcDbEntity
  8
001
 62
   253
370
    50
100
AcDbLine
 10
59.213691
 20
70.347863
 30
0.0
 11
58.983064
 21
70.192303
 31
0.0
  0
LINE
  5
4DB
330
1F
100
AcDbEntity
  8
001
 62
   253
370
    50
100
AcDbLine
 10
59.073744
 20
58.442258
 30
0.0
 11
59.213691
 21
58.347863
 31
0.0
  0
POLYLINE
  5
4DC
330
1F
100
AcDbEntity
  8
001
 62
   253
370
    50
100
AcDb2dPolyline
 66
     1
 10
0.0
 20
0.0
 30
0.0
  0
VERTEX
  5
4DE
330
4DC
100
AcDbEntity
  8
001
 62
   253
370
    50
100
AcDbVertex
100
AcDb2dVertex
 10
58.987902
 20
70.187967
 30
0.0
  0
VERTEX
  5
4DF
330
4DC
100
AcDbEntity
  8
001
 62
   253
370
    50
100
AcDbVertex
100
AcDb2dVertex
 10
58.958751
 20
70.157105
 30
0.0
  0
VERTEX
  5
4E0
330
4DC
100
AcDbEntity
  8
001
 62
   253
370
    50
100
AcDbVertex
100
AcDb2dVertex
 10
58.920511
 20
70.10935
 30
0.0
  0
VERTEX
  5
4E1
330
4DC
100
AcDbEntity
  8
001
 62
   253
370
    50
100
AcDbVertex
100
AcDb2dVertex
 10
58.867237
 20
69.495384
 30
0.0
  0
VERTEX
  5
4E2
330
4DC
100
AcDbEntity
  8
001
 62
   253
370
    50
100
AcDbVertex
100
AcDb2dVertex
 10
59.070704
 20
69.030628
 30
0.0
  0
SEQEND
  5
4DD
330
4DC
100
AcDbEntity
  8
001
370
    50
  0
POLYLINE
  5
4E3
330
1F
100
AcDbEntity
  8
001
 62
   253
370
    50
100
AcDb2dPolyline
 66
     1
 10
0.0
 20
0.0
 30
0.0
  0
VERTEX
  5
4E5
330
4E3
100
AcDbEntity
  8
001
 62
   253
370
    50
100
AcDbVertex
100
AcDb2dVertex
 10
59.132281
 20
59.633712
 30
0.0
  0
VERTEX
  5
4E6
330
4E3
100
AcDbEntity
  8
001
 62
   253
370
    50
100
AcDbVertex
100
AcDb2dVertex
 10
58.943255
 20
59.151259
 30
0.0
  0
VERTEX
  5
4E7
330
4E3
100
AcDbEntity
  8
001
 62
   253
370
    50
100
AcDbVertex
100
AcDb2dVertex
 10
59.018545
 20
58.519151
 30
0.0
  0
VERTEX
  5
4E8
330
4E3
100
AcDbEntity
  8
001
 62
   253
370
    50
100
AcDbVertex
100
AcDb2dVertex
 10
59.053526
 20
58.476015
 30
0.0
  0
VERTEX
  5
4E9
330
4E3
100
AcDbEntity
  8
001
 62
   253
370
    50
100
AcDbVertex
100
AcDb2dVertex
 10
59.079763
 20
58.447917
 30
0.0
  0
SEQEND
  5
4E4
330
4E3
100
AcDbEntity
  8
001
370
    50
  0
LINE
  5
4EA
330
1F
100
AcDbEntity
  8
001
  6
CENTER
 62
   253
370
     9
100
AcDbLine
 10
47.778262
 20
64.347863
 30
0.0
 11
186.008516
 21
64.347863
 31
0.0
  0
LINE
  5
4EB
330
1F
100
AcDbEntity
  8
001
370
     9
100
AcDbLine
 10
50.926532
 20
64.114389
 30
0.0
 11
50.926532
 21
51.854101
 31
0.0
  0
LINE
  5
4EC
330
1F
100
AcDbEntity
  8
001
370
    50
100
AcDbLine
 10
175.926532
 20
64.347863
 30
0.0
 11
180.031857
 21
66.718073
 31
0.0
  0
LINE
  5
4ED
330
1F
100
AcDbEntity
  8
001
370
    50
100
AcDbLine
 10
175.926532
 20
64.347863
 30
0.0
 11
180.031857
 21
61.977653
 31
0.0
  0
ENDSEC
  0
SECTION
  2
OBJECTS
  0
DICTIONARY
  5
C
330
0
100
AcDbDictionary
281
     1
  3
ACAD_GROUP
350
D
  3
ACAD_LAYOUT
350
1A
  3
ACAD_MLEADERSTYLE
350
4F1
  3
ACAD_MLINESTYLE
350
17
  3
ACAD_PLOTSETTINGS
350
19
  3
ACAD_PLOTSTYLENAME
350
E
  3
ACAD_SCALELIST
350
3B
  3
ACAD_TABLESTYLE
350
4F0
  3
ACAD_VISUALSTYLE
350
2A
  3
AcDbVariableDictionary
350
4EE
  0
DICTIONARY
  5
D
102
{ACAD_REACTORS
330
C
102
}
330
C
100
AcDbDictionary
281
     1
  0
DICTIONARY
  5
1A
102
{ACAD_REACTORS
330
C
102
}
330
C
100
AcDbDictionary
281
     1
  3
Layout1
350
1E
  3
Layout2
350
26
  3
Model
350
22
  0
DICTIONARY
  5
4F1
102
{ACAD_REACTORS
330
C
102
}
330
C
100
AcDbDictionary
281
     1
  0
DICTIONARY
  5
17
102
{ACAD_REACTORS
330
C
102
}
330
C
100
AcDbDictionary
281
     1
  3
Standard
350
18
  0
DICTIONARY
  5
19
102
{ACAD_REACTORS
330
C
102
}
330
C
100
AcDbDictionary
281
     1
  0
ACDBDICTIONARYWDFLT
  5
E
102
{ACAD_REACTORS
330
C
102
}
330
C
100
AcDbDictionary
281
     1
  3
Normal
350
F
100
AcDbDictionaryWithDefault
340
F
  0
DICTIONARY
  5
3B
102
{ACAD_REACTORS
330
C
102
}
330
C
100
AcDbDictionary
281
     1
  3
A0
350
3C
  3
A1
350
3D
  3
A2
350
3E
  3
A3
350
3F
  3
A4
350
40
  3
A5
350
41
  3
A6
350
42
  3
A7
350
43
  3
A8
350
44
  3
A9
350
45
  3
B0
350
46
  3
B1
350
47
  3
B2
350
48
  3
B3
350
49
  3
B4
350
4A
  3
B5
350
4B
  3
B6
350
4C
  3
B7
350
4D
  3
B8
350
4E
  3
B9
350
4F
  3
C0
350
50
  3
C1
350
51
  3
C2
350
52
  3
C3
350
53
  3
C4
350
54
  3
C5
350
55
  3
C6
350
56
  3
C7
350
57
  3
C8
350
58
  3
C9
350
59
  3
D0
350
5A
  3
D1
350
5B
  3
D2
350
5C
  0
DICTIONARY
  5
4F0
102
{ACAD_REACTORS
330
C
102
}
330
C
100
AcDbDictionary
281
     1
  0
DICTIONARY
  5
2A
102
{ACAD_REACTORS
330
C
102
}
330
C
100
AcDbDictionary
281
     1
  3
2dWireframe
350
2F
  3
3D Hidden
350
31
  3
3dWireframe
350
30
  3
Basic
350
32
  3
Brighten
350
36
  3
ColorChange
350
3A
  3
Conceptual
350
34
  3
Dim
350
35
  3
Facepattern
350
39
  3
Flat
350
2B
  3
FlatWithEdges
350
2C
  3
Gouraud
350
2D
  3
GouraudWithEdges
350
2E
  3
Linepattern
350
38
  3
Realistic
350
33
  3
Thicken
350
37
  0
DICTIONARY
  5
4EE
102
{ACAD_REACTORS
330
C
102
}
330
C
100
AcDbDictionary
281
     1
  3
CANNOSCALE
350
4EF
  3
PSOLHEIGHT
350
4F3
  3
PSOLWIDTH
350
4F2
  0
LAYOUT
  5
1E
102
{ACAD_REACTORS
330
1A
102
}
330
1A
100
AcDbPlotSettings
  1

  2
none_device
  4

  6

 40
0.0
 41
0.0
 42
0.0
 43
0.0
 44
0.0
 45
0.0
 46
0.0
 47
0.0
 48
0.0
 49
0.0
140
0.0
141
0.0
142
1.0
143
1.0
 70
   688
 72
     0
 73
     0
 74
     5
  7

 75
    16
147
1.0
148
0.0
149
0.0
100
AcDbLayout
  1
Layout1
 70
     1
 71
     1
 10
0.0
 20
0.0
 11
12.0
 21
9.0
 12
0.0
 22
0.0
 32
0.0
 14
1.000000E+20
 24
1.000000E+20
 34
0.0
 15
-1.000000E+20
 25
-1.000000E+20
 35
0.0
146
0.0
 13
0.0
 23
0.0
 33
0.0
 16
1.0
 26
0.0
 36
0.0
 17
0.0
 27
1.0
 37
0.0
 76
     0
330
1B
  0
LAYOUT
  5
26
102
{ACAD_REACTORS
330
1A
102
}
330
1A
100
AcDbPlotSettings
  1

  2
none_device
  4

  6

 40
0.0
 41
0.0
 42
0.0
 43
0.0
 44
0.0
 45
0.0
 46
0.0
 47
0.0
 48
0.0
 49
0.0
140
0.0
141
0.0
142
1.0
143
1.0
 70
   688
 72
     0
 73
     0
 74
     5
  7

 75
    16
147
1.0
148
0.0
149
0.0
100
AcDbLayout
  1
Layout2
 70
     1
 71
     2
 10
0.0
 20
0.0
 11
0.0
 21
0.0
 12
0.0
 22
0.0
 32
0.0
 14
0.0
 24
0.0
 34
0.0
 15
0.0
 25
0.0
 35
0.0
146
0.0
 13
0.0
 23
0.0
 33
0.0
 16
1.0
 26
0.0
 36
0.0
 17
0.0
 27
1.0
 37
0.0
 76
     0
330
23
  0
LAYOUT
  5
22
102
{ACAD_REACTORS
330
1A
102
}
330
1A
100
AcDbPlotSettings
  1

  2
none_device
  4

  6

 40
0.0
 41
0.0
 42
0.0
 43
0.0
 44
0.0
 45
0.0
 46
0.0
 47
0.0
 48
0.0
 49
0.0
140
0.0
141
0.0
142
1.0
143
1.0
 70
  1712
 72
     0
 73
     0
 74
     0
  7

 75
     0
147
1.0
148
0.0
149
0.0
100
AcDbLayout
  1
Model
 70
     1
 71
     0
 10
0.0
 20
0.0
 11
12.0
 21
9.0
 12
0.0
 22
0.0
 32
0.0
 14
24.426529
 24
17.844498
 34
0.0
 15
201.332428
 25
119.683334
 35
0.0
146
0.0
 13
0.0
 23
0.0
 33
0.0
 16
1.0
 26
0.0
 36
0.0
 17
0.0
 27
1.0
 37
0.0
 76
     0
330
1F
331
29
  0
MLINESTYLE
  5
18
102
{ACAD_REACTORS
330
17
102
}
330
17
100
AcDbMlineStyle
  2
Standard
 70
     0
  3

 62
   256
 51
90.0
 52
90.0
 71
     2
 49
0.5
 62
   256
  6
BYLAYER
 49
-0.5
 62
   256
  6
BYLAYER
  0
ACDBPLACEHOLDER
  5
F
102
{ACAD_REACTORS
330
E
102
}
330
E
  0
SCALE
  5
3C
102
{ACAD_REACTORS
330
3B
102
}
330
3B
100
AcDbScale
 70
     0
300
1:1
140
1.0
141
1.0
290
     1
  0
SCALE
  5
3D
102
{ACAD_REACTORS
330
3B
102
}
330
3B
100
AcDbScale
 70
     0
300
1:2
140
1.0
141
2.0
290
     0
  0
SCALE
  5
3E
102
{ACAD_REACTORS
330
3B
102
}
330
3B
100
AcDbScale
 70
     0
300
1:4
140
1.0
141
4.0
290
     0
  0
SCALE
  5
3F
102
{ACAD_REACTORS
330
3B
102
}
330
3B
100
AcDbScale
 70
     0
300
1:5
140
1.0
141
5.0
290
     0
  0
SCALE
  5
40
102
{ACAD_REACTORS
330
3B
102
}
330
3B
100
AcDbScale
 70
     0
300
1:8
140
1.0
141
8.0
290
     0
  0
SCALE
  5
41
102
{ACAD_REACTORS
330
3B
102
}
330
3B
100
AcDbScale
 70
     0
300
1:10
140
1.0
141
10.0
290
     0
  0
SCALE
  5
42
102
{ACAD_REACTORS
330
3B
102
}
330
3B
100
AcDbScale
 70
     0
300
1:16
140
1.0
141
16.0
290
     0
  0
SCALE
  5
43
102
{ACAD_REACTORS
330
3B
102
}
330
3B
100
AcDbScale
 70
     0
300
1:20
140
1.0
141
20.0
290
     0
  0
SCALE
  5
44
102
{ACAD_REACTORS
330
3B
102
}
330
3B
100
AcDbScale
 70
     0
300
1:30
140
1.0
141
30.0
290
     0
  0
SCALE
  5
45
102
{ACAD_REACTORS
330
3B
102
}
330
3B
100
AcDbScale
 70
     0
300
1:40
140
1.0
141
40.0
290
     0
  0
SCALE
  5
46
102
{ACAD_REACTORS
330
3B
102
}
330
3B
100
AcDbScale
 70
     0
300
1:50
140
1.0
141
50.0
290
     0
  0
SCALE
  5
47
102
{ACAD_REACTORS
330
3B
102
}
330
3B
100
AcDbScale
 70
     0
300
1:100
140
1.0
141
100.0
290
     0
  0
SCALE
  5
48
102
{ACAD_REACTORS
330
3B
102
}
330
3B
100
AcDbScale
 70
     0
300
2:1
140
2.0
141
1.0
290
     0
  0
SCALE
  5
49
102
{ACAD_REACTORS
330
3B
102
}
330
3B
100
AcDbScale
 70
     0
300
4:1
140
4.0
141
1.0
290
     0
  0
SCALE
  5
4A
102
{ACAD_REACTORS
330
3B
102
}
330
3B
100
AcDbScale
 70
     0
300
8:1
140
8.0
141
1.0
290
     0
  0
SCALE
  5
4B
102
{ACAD_REACTORS
330
3B
102
}
330
3B
100
AcDbScale
 70
     0
300
10:1
140
10.0
141
1.0
290
     0
  0
SCALE
  5
4C
102
{ACAD_REACTORS
330
3B
102
}
330
3B
100
AcDbScale
 70
     0
300
100:1
140
100.0
141
1.0
290
     0
  0
SCALE
  5
4D
102
{ACAD_REACTORS
330
3B
102
}
330
3B
100
AcDbScale
 70
     0
300
1/128" = 1'-0"
140
0.007812
141
12.0
290
     0
  0
SCALE
  5
4E
102
{ACAD_REACTORS
330
3B
102
}
330
3B
100
AcDbScale
 70
     0
300
1/64" = 1'-0"
140
0.015625
141
12.0
290
     0
  0
SCALE
  5
4F
102
{ACAD_REACTORS
330
3B
102
}
330
3B
100
AcDbScale
 70
     0
300
1/32" = 1'-0"
140
0.03125
141
12.0
290
     0
  0
SCALE
  5
50
102
{ACAD_REACTORS
330
3B
102
}
330
3B
100
AcDbScale
 70
     0
300
1/16" = 1'-0"
140
0.0625
141
12.0
290
     0
  0
SCALE
  5
51
102
{ACAD_REACTORS
330
3B
102
}
330
3B
100
AcDbScale
 70
     0
300
3/32" = 1'-0"
140
0.09375
141
12.0
290
     0
  0
SCALE
  5
52
102
{ACAD_REACTORS
330
3B
102
}
330
3B
100
AcDbScale
 70
     0
300
1/8" = 1'-0"
140
0.125
141
12.0
290
     0
  0
SCALE
  5
53
102
{ACAD_REACTORS
330
3B
102
}
330
3B
100
AcDbScale
 70
     0
300
3/16" = 1'-0"
140
0.1875
141
12.0
290
     0
  0
SCALE
  5
54
102
{ACAD_REACTORS
330
3B
102
}
330
3B
100
AcDbScale
 70
     0
300
1/4" = 1'-0"
140
0.25
141
12.0
290
     0
  0
SCALE
  5
55
102
{ACAD_REACTORS
330
3B
102
}
330
3B
100
AcDbScale
 70
     0
300
3/8" = 1'-0"
140
0.375
141
12.0
290
     0
  0
SCALE
  5
56
102
{ACAD_REACTORS
330
3B
102
}
330
3B
100
AcDbScale
 70
     0
300
1/2" = 1'-0"
140
0.5
141
12.0
290
     0
  0
SCALE
  5
57
102
{ACAD_REACTORS
330
3B
102
}
330
3B
100
AcDbScale
 70
     0
300
3/4" = 1'-0"
140
0.75
141
12.0
290
     0
  0
SCALE
  5
58
102
{ACAD_REACTORS
330
3B
102
}
330
3B
100
AcDbScale
 70
     0
300
1" = 1'-0"
140
1.0
141
12.0
290
     0
  0
SCALE
  5
59
102
{ACAD_REACTORS
330
3B
102
}
330
3B
100
AcDbScale
 70
     0
300
1-1/2" = 1'-0"
140
1.5
141
12.0
290
     0
  0
SCALE
  5
5A
102
{ACAD_REACTORS
330
3B
102
}
330
3B
100
AcDbScale
 70
     0
300
3" = 1'-0"
140
3.0
141
12.0
290
     0
  0
SCALE
  5
5B
102
{ACAD_REACTORS
330
3B
102
}
330
3B
100
AcDbScale
 70
     0
300
6" = 1'-0"
140
6.0
141
12.0
290
     0
  0
SCALE
  5
5C
102
{ACAD_REACTORS
330
3B
102
}
330
3B
100
AcDbScale
 70
     0
300
1'-0" = 1'-0"
140
12.0
141
12.0
290
     0
  0
VISUALSTYLE
  5
2F
102
{ACAD_REACTORS
330
2A
102
}
330
2A
100
AcDbVisualStyle
  2
2dWireframe
 70
     4
 71
     0
 72
     2
 73
     0
 90
        0
 40
-0.6
 41
-30.0
 62
     5
 63
     7
 74
     1
 91
        4
 64
     7
 65
   257
 75
     1
175
     1
 42
1.0
 92
        0
 66
   257
 43
1.0
 76
     1
 77
     6
 78
     2
 67
     7
 79
     5
170
     0
171
     0
290
     0
174
     0
 93
        1
 44
0.0
173
     0
291
     0
 45
0.0
1001
ACAD
1000
AcDbSavedByObjectVersion
1070
     0
  0
VISUALSTYLE
  5
31
102
{ACAD_REACTORS
330
2A
102
}
330
2A
100
AcDbVisualStyle
  2
3D Hidden
 70
     6
 71
     1
 72
     2
 73
     2
 90
        0
 40
-0.6
 41
-30.0
 62
     5
 63
     7
 74
     2
 91
        2
 64
     7
 65
   257
 75
     2
175
     1
 42
40.0
 92
        0
 66
   257
 43
1.0
 76
     1
 77
     6
 78
     2
 67
     7
 79
     3
170
     0
171
     0
290
     0
174
     0
 93
        1
 44
0.0
173
     0
291
     0
 45
0.0
1001
ACAD
1000
AcDbSavedByObjectVersion
1070
     0
  0
VISUALSTYLE
  5
30
102
{ACAD_REACTORS
330
2A
102
}
330
2A
100
AcDbVisualStyle
  2
3dWireframe
 70
     5
 71
     0
 72
     2
 73
     0
 90
        0
 40
-0.6
 41
-30.0
 62
     5
 63
     7
 74
     1
 91
        4
 64
     7
 65
   257
 75
     1
175
     1
 42
1.0
 92
        0
 66
   257
 43
1.0
 76
     1
 77
     6
 78
     2
 67
     7
 79
     5
170
     0
171
     0
290
     0
174
     0
 93
        1
 44
0.0
173
     0
291
     0
 45
0.0
1001
ACAD
1000
AcDbSavedByObjectVersion
1070
     0
  0
VISUALSTYLE
  5
32
102
{ACAD_REACTORS
330
2A
102
}
330
2A
100
AcDbVisualStyle
  2
Basic
 70
     7
 71
     1
 72
     0
 73
     1
 90
        0
 40
-0.6
 41
-30.0
 62
     5
 63
     7
 74
     0
 91
        4
 64
     7
 65
   257
 75
     1
175
     1
 42
1.0
 92
        8
 66
     7
 43
1.0
 76
     1
 77
     6
 78
     2
 67
     7
 79
     5
170
     0
171
     0
290
     0
174
     0
 93
        1
 44
0.0
173
     0
291
     1
 45
0.0
1001
ACAD
1000
AcDbSavedByObjectVersion
1070
     0
  0
VISUALSTYLE
  5
36
102
{ACAD_REACTORS
330
2A
102
}
330
2A
100
AcDbVisualStyle
  2
Brighten
 70
    12
 71
     2
 72
     2
 73
     0
 90
        0
 40
-0.6
 41
-30.0
 62
     5
 63
     7
 74
     1
 91
        4
 64
     7
 65
   257
 75
     1
175
     1
 42
1.0
 92
        8
 66
     7
 43
1.0
 76
     1
 77
     6
 78
     2
 67
     7
 79
     5
170
     0
171
     0
290
     0
174
     0
 93
        1
 44
50.0
173
     0
291
     1
 45
0.0
1001
ACAD
1000
AcDbSavedByObjectVersion
1070
     0
  0
VISUALSTYLE
  5
3A
102
{ACAD_REACTORS
330
2A
102
}
330
2A
100
AcDbVisualStyle
  2
ColorChange
 70
    16
 71
     2
 72
     2
 73
     3
 90
        0
 40
-0.6
 41
-30.0
 62
     5
 63
     8
 74
     1
 91
        4
 64
     7
 65
   257
 75
     1
175
     1
 42
1.0
 92
        8
 66
     8
 43
1.0
 76
     1
 77
     6
 78
     2
 67
     7
 79
     5
170
     0
171
     0
290
     0
174
     0
 93
        1
 44
0.0
173
     0
291
     1
 45
0.0
1001
ACAD
1000
AcDbSavedByObjectVersion
1070
     0
  0
VISUALSTYLE
  5
34
102
{ACAD_REACTORS
330
2A
102
}
330
2A
100
AcDbVisualStyle
  2
Conceptual
 70
     9
 71
     3
 72
     2
 73
     0
 90
        0
 40
-0.6
 41
-30.0
 62
     5
 63
     7
 74
     2
 91
        2
 64
     7
 65
   257
 75
     1
175
     1
 42
40.0
 92
        8
 66
     7
 43
1.0
 76
     1
 77
     6
 78
     2
 67
     7
 79
     3
170
     0
171
     0
290
     0
174
     0
 93
        1
 44
0.0
173
     0
291
     0
 45
0.0
1001
ACAD
1000
AcDbSavedByObjectVersion
1070
     0
  0
VISUALSTYLE
  5
35
102
{ACAD_REACTORS
330
2A
102
}
330
2A
100
AcDbVisualStyle
  2
Dim
 70
    11
 71
     2
 72
     2
 73
     0
 90
        0
 40
-0.6
 41
-30.0
 62
     5
 63
     7
 74
     1
 91
        4
 64
     7
 65
   257
 75
     1
175
     1
 42
1.0
 92
        8
 66
     7
 43
1.0
 76
     1
 77
     6
 78
     2
 67
     7
 79
     5
170
     0
171
     0
290
     0
174
     0
 93
        1
 44
-50.0
173
     0
291
     1
 45
0.0
1001
ACAD
1000
AcDbSavedByObjectVersion
1070
     0
  0
VISUALSTYLE
  5
39
102
{ACAD_REACTORS
330
2A
102
}
330
2A
100
AcDbVisualStyle
  2
Facepattern
 70
    15
 71
     2
 72
     2
 73
     0
 90
        0
 40
-0.6
 41
-30.0
 62
     5
 63
     7
 74
     1
 91
        4
 64
     7
 65
   257
 75
     1
175
     1
 42
1.0
 92
        8
 66
     7
 43
1.0
 76
     1
 77
     6
 78
     2
 67
     7
 79
     5
170
     0
171
     0
290
     0
174
     0
 93
        1
 44
0.0
173
     0
291
     1
 45
0.0
1001
ACAD
1000
AcDbSavedByObjectVersion
1070
     0
  0
VISUALSTYLE
  5
2B
102
{ACAD_REACTORS
330
2A
102
}
330
2A
100
AcDbVisualStyle
  2
Flat
 70
     0
 71
     2
 72
     1
 73
     1
 90
        2
 40
-0.6
 41
30.0
 62
     5
 63
     7
 74
     0
 91
        4
 64
     7
 65
   257
 75
     1
175
     1
 42
1.0
 92
        8
 66
     7
 43
1.0
 76
     1
 77
     6
 78
     2
 67
     7
 79
     5
170
     0
171
     0
290
     0
174
     0
 93
       13
 44
0.0
173
     0
291
     1
 45
0.0
1001
ACAD
1000
AcDbSavedByObjectVersion
1070
     0
  0
VISUALSTYLE
  5
2C
102
{ACAD_REACTORS
330
2A
102
}
330
2A
100
AcDbVisualStyle
  2
FlatWithEdges
 70
     1
 71
     2
 72
     1
 73
     1
 90
        2
 40
-0.6
 41
30.0
 62
     5
 63
     7
 74
     1
 91
        4
 64
     7
 65
   257
 75
     1
175
     1
 42
1.0
 92
        0
 66
   257
 43
1.0
 76
     1
 77
     6
 78
     2
 67
     7
 79
     5
170
     0
171
     0
290
     0
174
     0
 93
       13
 44
0.0
173
     0
291
     1
 45
0.0
1001
ACAD
1000
AcDbSavedByObjectVersion
1070
     0
  0
VISUALSTYLE
  5
2D
102
{ACAD_REACTORS
330
2A
102
}
330
2A
100
AcDbVisualStyle
  2
Gouraud
 70
     2
 71
     2
 72
     2
 73
     1
 90
        2
 40
-0.6
 41
30.0
 62
     5
 63
     7
 74
     0
 91
        4
 64
     7
 65
   257
 75
     1
175
     1
 42
1.0
 92
        0
 66
     7
 43
1.0
 76
     1
 77
     6
 78
     2
 67
     7
 79
     5
170
     0
171
     0
290
     0
174
     0
 93
       13
 44
0.0
173
     0
291
     1
 45
0.0
1001
ACAD
1000
AcDbSavedByObjectVersion
1070
     0
  0
VISUALSTYLE
  5
2E
102
{ACAD_REACTORS
330
2A
102
}
330
2A
100
AcDbVisualStyle
  2
GouraudWithEdges
 70
     3
 71
     2
 72
     2
 73
     1
 90
        2
 40
-0.6
 41
30.0
 62
     5
 63
     7
 74
     1
 91
        4
 64
     7
 65
   257
 75
     1
175
     1
 42
1.0
 92
        0
 66
   257
 43
1.0
 76
     1
 77
     6
 78
     2
 67
     7
 79
     5
170
     0
171
     0
290
     0
174
     0
 93
       13
 44
0.0
173
     0
291
     1
 45
0.0
1001
ACAD
1000
AcDbSavedByObjectVersion
1070
     0
  0
VISUALSTYLE
  5
38
102
{ACAD_REACTORS
330
2A
102
}
330
2A
100
AcDbVisualStyle
  2
Linepattern
 70
    14
 71
     2
 72
     2
 73
     0
 90
        0
 40
-0.6
 41
-30.0
 62
     5
 63
     7
 74
     1
 91
        4
 64
     7
 65
   257
 75
     7
175
     7
 42
1.0
 92
        8
 66
     7
 43
1.0
 76
     1
 77
     6
 78
     2
 67
     7
 79
     5
170
     0
171
     0
290
     0
174
     0
 93
        1
 44
0.0
173
     0
291
     1
 45
0.0
1001
ACAD
1000
AcDbSavedByObjectVersion
1070
     0
  0
VISUALSTYLE
  5
33
102
{ACAD_REACTORS
330
2A
102
}
330
2A
100
AcDbVisualStyle
  2
Realistic
 70
     8
 71
     2
 72
     2
 73
     0
 90
        0
 40
-0.6
 41
-30.0
 62
     5
 63
     7
 74
     1
 91
        0
 64
     7
 65
   257
 75
     1
175
     1
 42
1.0
 92
        8
 66
     8
 43
1.0
 76
     1
 77
     6
 78
     2
 67
     7
 79
     5
170
     0
171
     0
290
     0
174
     0
 93
       13
 44
0.0
173
     0
291
     0
 45
0.0
1001
ACAD
1000
AcDbSavedByObjectVersion
1070
     0
  0
VISUALSTYLE
  5
37
102
{ACAD_REACTORS
330
2A
102
}
330
2A
100
AcDbVisualStyle
  2
Thicken
 70
    13
 71
     2
 72
     2
 73
     0
 90
        0
 40
-0.6
 41
-30.0
 62
     5
 63
     7
 74
     1
 91
        4
 64
     7
 65
   257
 75
     1
175
     1
 42
1.0
 92
       12
 66
     7
 43
1.0
 76
     1
 77
     6
 78
     2
 67
     7
 79
     5
170
     0
171
     0
290
     0
174
     0
 93
        1
 44
0.0
173
     0
291
     1
 45
0.0
1001
ACAD
1000
AcDbSavedByObjectVersion
1070
     0
  0
DICTIONARYVAR
  5
4EF
102
{ACAD_REACTORS
330
4EE
102
}
330
4EE
100
DictionaryVariables
280
     0
  1
1:1
  0
DICTIONARYVAR
  5
4F3
102
{ACAD_REACTORS
330
4EE
102
}
330
4EE
100
DictionaryVariables
280
     0
  1
80.000000
  0
DICTIONARYVAR
  5
4F2
102
{ACAD_REACTORS
330
4EE
102
}
330
4EE
100
DictionaryVariables
280
     0
  1
5.000000
  0
ENDSEC
  0
EOF
