  0
SECTION
  2
HEADER
  9
$ACADVER
  1
AC1015
  9
$ACADMAINTVER
 70
     6
  9
$DWGCODEPAGE
  3
ANSI_932
  9
$INSBASE
 10
0.0
 20
0.0
 30
0.0
  9
$EXTMIN
 10
24.355789
 20
26.435852
 30
0.0
  9
$EXTMAX
 10
205.04303
 20
121.953918
 30
0.0
  9
$LIMMIN
 10
0.0
 20
0.0
  9
$LIMMAX
 10
12.0
 20
9.0
  9
$ORTHOMODE
 70
     0
  9
$REGENMODE
 70
     1
  9
$FILLMODE
 70
     1
  9
$QTEXTMODE
 70
     0
  9
$MIRRTEXT
 70
     1
  9
$LTSCALE
 40
2.04381
  9
$ATTMODE
 70
     1
  9
$TEXTSIZE
 40
3.2
  9
$TRACEWID
 40
1.0
  9
$TEXTSTYLE
  7
Standard
  9
$CLAYER
  8
0
  9
$CELTYPE
  6
ByLayer
  9
$CECOLOR
 62
   256
  9
$CELTSCALE
 40
1.0
  9
$DISPSILH
 70
     0
  9
$DIMSCALE
 40
1.0
  9
$DIMASZ
 40
2.5
  9
$DIMEXO
 40
0.625
  9
$DIMDLI
 40
3.75
  9
$DIMRND
 40
0.0
  9
$DIMDLE
 40
0.0
  9
$DIMEXE
 40
1.25
  9
$DIMTP
 40
0.0
  9
$DIMTM
 40
0.0
  9
$DIMTXT
 40
2.5
  9
$DIMCEN
 40
0.09
  9
$DIMTSZ
 40
0.0
  9
$DIMTOL
 70
     0
  9
$DIMLIM
 70
     0
  9
$DIMTIH
 70
     0
  9
$DIMTOH
 70
     0
  9
$DIMSE1
 70
     0
  9
$DIMSE2
 70
     0
  9
$DIMTAD
 70
     0
  9
$DIMZIN
 70
     8
  9
$DIMBLK
  1

  9
$DIMASO
 70
     1
  9
$DIMSHO
 70
     0
  9
$DIMPOST
  1

  9
$DIMAPOST
  1

  9
$DIMALT
 70
     0
  9
$DIMALTD
 70
     3
  9
$DIMALTF
 40
0.03937
  9
$DIMLFAC
 40
1.0
  9
$DIMTOFL
 70
     1
  9
$DIMTVP
 40
0.0
  9
$DIMTIX
 70
     0
  9
$DIMSOXD
 70
     0
  9
$DIMSAH
 70
     0
  9
$DIMBLK1
  1

  9
$DIMBLK2
  1

  9
$DIMSTYLE
  2
ISO-25
  9
$DIMCLRD
 70
     0
  9
$DIMCLRE
 70
     0
  9
$DIMCLRT
 70
     0
  9
$DIMTFAC
 40
1.0
  9
$DIMGAP
 40
0.625
  9
$DIMJUST
 70
     0
  9
$DIMSD1
 70
     0
  9
$DIMSD2
 70
     0
  9
$DIMTOLJ
 70
     0
  9
$DIMTZIN
 70
     8
  9
$DIMALTZ
 70
     0
  9
$DIMALTTZ
 70
     0
  9
$DIMUPT
 70
     0
  9
$DIMDEC
 70
     2
  9
$DIMTDEC
 70
     2
  9
$DIMALTU
 70
     2
  9
$DIMALTTD
 70
     3
  9
$DIMTXSTY
  7
Standard
  9
$DIMAUNIT
 70
     0
  9
$DIMADEC
 70
     0
  9
$DIMALTRND
 40
0.0
  9
$DIMAZIN
 70
     0
  9
$DIMDSEP
 70
    44
  9
$DIMATFIT
 70
     3
  9
$DIMFRAC
 70
     0
  9
$DIMLDRBLK
  1

  9
$DIMLUNIT
 70
     2
  9
$DIMLWD
 70
    -2
  9
$DIMLWE
 70
    -2
  9
$DIMTMOVE
 70
     0
  9
$LUNITS
 70
     2
  9
$LUPREC
 70
     4
  9
$SKETCHINC
 40
1.0
  9
$FILLETRAD
 40
0.0
  9
$AUNITS
 70
     0
  9
$AUPREC
 70
     0
  9
$MENU
  1
.
  9
$ELEVATION
 40
0.0
  9
$PELEVATION
 40
0.0
  9
$THICKNESS
 40
0.0
  9
$LIMCHECK
 70
     0
  9
$CHAMFERA
 40
10.0
  9
$CHAMFERB
 40
10.0
  9
$CHAMFERC
 40
20.0
  9
$CHAMFERD
 40
0.0
  9
$SKPOLY
 70
     0
  9
$TDCREATE
 40
2456244.604978831
  9
$TDUCREATE
 40
2456244.229978831
  9
$TDUPDATE
 40
2456244.604978843
  9
$TDUUPDATE
 40
2456244.229978843
  9
$TDINDWG
 40
0.0000000116
  9
$TDUSRTIMER
 40
0.0000000116
  9
$USRTIMER
 70
     1
  9
$ANGBASE
 50
0.0
  9
$ANGDIR
 70
     0
  9
$PDMODE
 70
     0
  9
$PDSIZE
 40
0.0
  9
$PLINEWID
 40
0.0
  9
$SPLFRAME
 70
     0
  9
$SPLINETYPE
 70
     6
  9
$SPLINESEGS
 70
     8
  9
$HANDSEED
  5
4E2
  9
$SURFTAB1
 70
     6
  9
$SURFTAB2
 70
     6
  9
$SURFTYPE
 70
     6
  9
$SURFU
 70
     6
  9
$SURFV
 70
     6
  9
$UCSBASE
  2

  9
$UCSNAME
  2

  9
$UCSORG
 10
0.0
 20
0.0
 30
0.0
  9
$UCSXDIR
 10
1.0
 20
0.0
 30
0.0
  9
$UCSYDIR
 10
0.0
 20
1.0
 30
0.0
  9
$UCSORTHOREF
  2

  9
$UCSORTHOVIEW
 70
     0
  9
$UCSORGTOP
 10
0.0
 20
0.0
 30
0.0
  9
$UCSORGBOTTOM
 10
0.0
 20
0.0
 30
0.0
  9
$UCSORGLEFT
 10
0.0
 20
0.0
 30
0.0
  9
$UCSORGRIGHT
 10
0.0
 20
0.0
 30
0.0
  9
$UCSORGFRONT
 10
0.0
 20
0.0
 30
0.0
  9
$UCSORGBACK
 10
0.0
 20
0.0
 30
0.0
  9
$PUCSBASE
  2

  9
$PUCSNAME
  2

  9
$PUCSORG
 10
0.0
 20
0.0
 30
0.0
  9
$PUCSXDIR
 10
1.0
 20
0.0
 30
0.0
  9
$PUCSYDIR
 10
0.0
 20
1.0
 30
0.0
  9
$PUCSORTHOREF
  2

  9
$PUCSORTHOVIEW
 70
     0
  9
$PUCSORGTOP
 10
0.0
 20
0.0
 30
0.0
  9
$PUCSORGBOTTOM
 10
0.0
 20
0.0
 30
0.0
  9
$PUCSORGLEFT
 10
0.0
 20
0.0
 30
0.0
  9
$PUCSORGRIGHT
 10
0.0
 20
0.0
 30
0.0
  9
$PUCSORGFRONT
 10
0.0
 20
0.0
 30
0.0
  9
$PUCSORGBACK
 10
0.0
 20
0.0
 30
0.0
  9
$USERI1
 70
     0
  9
$USERI2
 70
     0
  9
$USERI3
 70
     0
  9
$USERI4
 70
     0
  9
$USERI5
 70
     0
  9
$USERR1
 40
0.0
  9
$USERR2
 40
0.0
  9
$USERR3
 40
0.0
  9
$USERR4
 40
0.0
  9
$USERR5
 40
0.0
  9
$WORLDVIEW
 70
     1
  9
$SHADEDGE
 70
     3
  9
$SHADEDIF
 70
    70
  9
$TILEMODE
 70
     1
  9
$MAXACTVP
 70
    64
  9
$PINSBASE
 10
0.0
 20
0.0
 30
0.0
  9
$PLIMCHECK
 70
     0
  9
$PEXTMIN
 10
1.000000E+20
 20
1.000000E+20
 30
0.0
  9
$PEXTMAX
 10
-1.000000E+20
 20
-1.000000E+20
 30
0.0
  9
$PLIMMIN
 10
0.0
 20
0.0
  9
$PLIMMAX
 10
12.0
 20
9.0
  9
$UNITMODE
 70
     0
  9
$VISRETAIN
 70
     1
  9
$PLINEGEN
 70
     0
  9
$PSLTSCALE
 70
     1
  9
$TREEDEPTH
 70
  3020
  9
$CMLSTYLE
  2
Standard
  9
$CMLJUST
 70
     0
  9
$CMLSCALE
 40
20.0
  9
$PROXYGRAPHICS
 70
     1
  9
$MEASUREMENT
 70
     1
  9
$CELWEIGHT
370
    -1
  9
$ENDCAPS
280
     0
  9
$JOINSTYLE
280
     0
  9
$LWDISPLAY
290
     0
  9
$INSUNITS
 70
     4
  9
$HYPERLINKBASE
  1

  9
$STYLESHEET
  1

  9
$XEDIT
290
     1
  9
$CEPSNTYPE
380
     0
  9
$PSTYLEMODE
290
     1
  9
$FINGERPRINTGUID
  2
{D648BF39-4202-47E7-B5DD-6FC30E89AF09}
  9
$VERSIONGUID
  2
{FAEB1C32-E019-11D5-929B-00C0DF256EC4}
  9
$EXTNAMES
290
     1
  9
$PSVPSCALE
 40
0.0
  9
$OLESTARTUP
290
     0
  0
ENDSEC
  0
SECTION
  2
CLASSES
  0
CLASS
  1
ACDBDICTIONARYWDFLT
  2
AcDbDictionaryWithDefault
  3
ObjectDBX Classes
 90
        0
280
     0
281
     0
  0
CLASS
  1
VISUALSTYLE
  2
AcDbVisualStyle
  3
ObjectDBX Classes
 90
     4095
280
     0
281
     0
  0
CLASS
  1
SCALE
  2
AcDbScale
  3
ObjectDBX Classes
 90
     1153
280
     0
281
     0
  0
CLASS
  1
DICTIONARYVAR
  2
AcDbDictionaryVar
  3
ObjectDBX Classes
 90
        0
280
     0
281
     0
  0
CLASS
  1
ACDBPLACEHOLDER
  2
AcDbPlaceHolder
  3
ObjectDBX Classes
 90
        0
280
     0
281
     0
  0
CLASS
  1
LAYOUT
  2
AcDbLayout
  3
ObjectDBX Classes
 90
        0
280
     0
281
     0
  0
ENDSEC
  0
SECTION
  2
TABLES
  0
TABLE
  2
VPORT
  5
8
330
0
100
AcDbSymbolTable
 70
     1
  0
VPORT
  5
29
330
8
100
AcDbSymbolTableRecord
100
AcDbViewportTableRecord
  2
*Active
 70
     0
 10
0.0
 20
0.0
 11
1.0
 21
1.0
 12
114.699409
 22
74.194885
 13
0.0
 23
0.0
 14
1.0
 24
1.0
 15
0.0
 25
0.0
 16
0.0
 26
0.0
 36
1.0
 17
0.0
 27
0.0
 37
0.0
 40
107.902447
 41
1.691288
 42
50.0
 43
0.0
 44
0.0
 50
0.0
 51
0.0
 71
     0
 72
   100
 73
     1
 74
     3
 75
     0
 76
     0
 77
     0
 78
     0
281
     0
 65
     1
110
0.0
120
0.0
130
0.0
111
1.0
121
0.0
131
0.0
112
0.0
122
1.0
132
0.0
 79
     0
146
0.0
  0
ENDTAB
  0
TABLE
  2
LTYPE
  5
5
330
0
100
AcDbSymbolTable
 70
     5
  0
LTYPE
  5
14
330
5
100
AcDbSymbolTableRecord
100
AcDbLinetypeTableRecord
  2
ByBlock
 70
     0
  3

 72
    65
 73
     0
 40
0.0
  0
LTYPE
  5
15
330
5
100
AcDbSymbolTableRecord
100
AcDbLinetypeTableRecord
  2
ByLayer
 70
     0
  3

 72
    65
 73
     0
 40
0.0
  0
LTYPE
  5
16
330
5
100
AcDbSymbolTableRecord
100
AcDbLinetypeTableRecord
  2
Continuous
 70
     0
  3
Solid line
 72
    65
 73
     0
 40
0.0
  0
LTYPE
  5
5D
330
5
100
AcDbSymbolTableRecord
100
AcDbLinetypeTableRecord
  2
DASHED
 70
     0
  3
DASHED
 72
    83
 73
     2
 40
0.75
 49
0.5
 74
     0
 49
-0.25
 74
     0
  0
LTYPE
  5
5E
330
5
100
AcDbSymbolTableRecord
100
AcDbLinetypeTableRecord
  2
HIDDEN
 70
     0
  3
HIDDEN
 72
    83
 73
     2
 40
0.375
 49
0.25
 74
     0
 49
-0.125
 74
     0
  0
LTYPE
  5
5F
330
5
100
AcDbSymbolTableRecord
100
AcDbLinetypeTableRecord
  2
CENTER
 70
     0
  3
CENTER
 72
    83
 73
     4
 40
2.0
 49
1.25
 74
     0
 49
-0.25
 74
     0
 49
0.25
 74
     0
 49
-0.25
 74
     0
  0
LTYPE
  5
60
330
5
100
AcDbSymbolTableRecord
100
AcDbLinetypeTableRecord
  2
PHANTOM
 70
     0
  3
PHANTOM
 72
    83
 73
     6
 40
2.5
 49
1.25
 74
     0
 49
-0.25
 74
     0
 49
0.25
 74
     0
 49
-0.25
 74
     0
 49
0.25
 74
     0
 49
-0.25
 74
     0
  0
ENDTAB
  0
TABLE
  2
LAYER
  5
2
330
0
100
AcDbSymbolTable
 70
     2
  0
LAYER
  5
10
330
2
100
AcDbSymbolTableRecord
100
AcDbLayerTableRecord
  2
0
 70
     0
 62
     7
  6
Continuous
370
    -3
390
F
  0
LAYER
  5
61
330
2
100
AcDbSymbolTableRecord
100
AcDbLayerTableRecord
  2
001
 70
     0
 62
     7
  6
Continuous
370
    -3
390
F
  0
ENDTAB
  0
TABLE
  2
STYLE
  5
3
330
0
100
AcDbSymbolTable
 70
     2
  0
STYLE
  5
11
330
3
100
AcDbSymbolTableRecord
100
AcDbTextStyleTableRecord
  2
Standard
 70
     0
 40
0.0
 41
1.0
 50
0.0
 71
     0
 42
0.2
  3
TXT
  4
BIGFONT
  0
STYLE
  5
62
330
3
100
AcDbSymbolTableRecord
100
AcDbTextStyleTableRecord
  2
TATEGAKI
 70
     4
 40
1.0
 41
1.0
 50
0.0
 71
     0
 42
0.2
  3
TXT
  4
BIGFONT
  0
ENDTAB
  0
TABLE
  2
VIEW
  5
6
330
0
100
AcDbSymbolTable
 70
     0
  0
ENDTAB
  0
TABLE
  2
UCS
  5
7
330
0
100
AcDbSymbolTable
 70
     0
  0
ENDTAB
  0
TABLE
  2
APPID
  5
9
330
0
100
AcDbSymbolTable
 70
     1
  0
APPID
  5
12
330
9
100
AcDbSymbolTableRecord
100
AcDbRegAppTableRecord
  2
ACAD
 70
     0
  0
ENDTAB
  0
TABLE
  2
DIMSTYLE
  5
A
330
0
100
AcDbSymbolTable
 70
     2
100
AcDbDimStyleTable
  0
DIMSTYLE
105
27
330
A
100
AcDbSymbolTableRecord
100
AcDbDimStyleTableRecord
  2
ISO-25
 70
     0
 41
2.5
 42
0.625
 43
3.75
 44
1.25
 73
     0
 74
     0
 77
     1
 78
     8
140
2.5
141
2.5
143
0.03937
147
0.625
171
     3
172
     1
271
     2
272
     2
274
     3
278
    44
283
     0
284
     8
340
11
  0
DIMSTYLE
105
63
102
{ACAD_REACTORS
330
43E
330
43F
330
440
330
44D
330
44E
330
45B
102
}
330
A
100
AcDbSymbolTableRecord
100
AcDbDimStyleTableRecord
  2
Standard
 70
     0
 41
1.5
 42
0.0
 44
2.75
 73
     0
 74
     0
 77
     1
 78
     8
 79
     2
140
4.0
146
0.8
147
1.0
172
     1
179
     1
271
     1
340
11
  0
ENDTAB
  0
TABLE
  2
BLOCK_RECORD
  5
1
330
0
100
AcDbSymbolTable
 70
     9
  0
BLOCK_RECORD
  5
1F
330
1
100
AcDbSymbolTableRecord
100
AcDbBlockTableRecord
  2
*Model_Space
340
22
  0
BLOCK_RECORD
  5
1B
330
1
100
AcDbSymbolTableRecord
100
AcDbBlockTableRecord
  2
*Paper_Space
340
1E
  0
BLOCK_RECORD
  5
23
330
1
100
AcDbSymbolTableRecord
100
AcDbBlockTableRecord
  2
*Paper_Space0
340
26
  0
BLOCK_RECORD
  5
64
330
1
100
AcDbSymbolTableRecord
100
AcDbBlockTableRecord
  2
C32GUX-1
340
0
102
{BLKREFS
331
43C
102
}
  0
BLOCK_RECORD
  5
1CD
330
1
100
AcDbSymbolTableRecord
100
AcDbBlockTableRecord
  2
M-1-2
340
0
102
{BLKREFS
331
43D
102
}
  0
BLOCK_RECORD
  5
3BE
330
1
100
AcDbSymbolTableRecord
100
AcDbBlockTableRecord
  2
*D3
340
0
  0
BLOCK_RECORD
  5
3D4
330
1
100
AcDbSymbolTableRecord
100
AcDbBlockTableRecord
  2
*D4
340
0
  0
BLOCK_RECORD
  5
3E8
330
1
100
AcDbSymbolTableRecord
100
AcDbBlockTableRecord
  2
*D5
340
0
  0
BLOCK_RECORD
  5
3FF
330
1
100
AcDbSymbolTableRecord
100
AcDbBlockTableRecord
  2
*D6
340
0
  0
BLOCK_RECORD
  5
413
330
1
100
AcDbSymbolTableRecord
100
AcDbBlockTableRecord
  2
*D7
340
0
  0
BLOCK_RECORD
  5
427
330
1
100
AcDbSymbolTableRecord
100
AcDbBlockTableRecord
  2
*D8
340
0
  0
ENDTAB
  0
ENDSEC
  0
SECTION
  2
BLOCKS
  0
BLOCK
  5
20
330
1F
100
AcDbEntity
  8
0
100
AcDbBlockBegin
  2
*Model_Space
 70
     0
 10
0.0
 20
0.0
 30
0.0
  3
*Model_Space
  1

  0
ENDBLK
  5
21
330
1F
100
AcDbEntity
  8
0
100
AcDbBlockEnd
  0
BLOCK
  5
1C
330
1B
100
AcDbEntity
 67
     1
  8
0
100
AcDbBlockBegin
  2
*Paper_Space
 70
     0
 10
0.0
 20
0.0
 30
0.0
  3
*Paper_Space
  1

  0
ENDBLK
  5
1D
330
1B
100
AcDbEntity
 67
     1
  8
0
100
AcDbBlockEnd
  0
BLOCK
  5
24
330
23
100
AcDbEntity
  8
0
100
AcDbBlockBegin
  2
*Paper_Space0
 70
     0
 10
0.0
 20
0.0
 30
0.0
  3
*Paper_Space0
  1

  0
ENDBLK
  5
25
330
23
100
AcDbEntity
  8
0
100
AcDbBlockEnd
  0
BLOCK
  5
65
330
64
100
AcDbEntity
  8
0
100
AcDbBlockBegin
  2
C32GUX-1
 70
     0
 10
0.0
 20
0.0
 30
0.0
  3
C32GUX-1
  1

  0
LINE
  5
67
330
64
100
AcDbEntity
  8
001
 62
    40
370
    50
100
AcDbLine
 10
67.69225
 20
71.667547
 30
0.0
 11
62.567035
 21
77.518367
 31
0.0
  0
LINE
  5
68
330
64
100
AcDbEntity
  8
001
 62
    40
370
    50
100
AcDbLine
 10
62.230325
 20
78.018401
 30
0.0
 11
62.237903
 21
78.007146
 31
0.0
  0
LINE
  5
69
330
64
100
AcDbEntity
  8
001
 62
    40
370
    50
100
AcDbLine
 10
62.351838
 20
77.837946
 30
0.0
 11
62.567035
 21
77.518367
 31
0.0
  0
LINE
  5
6A
330
64
100
AcDbEntity
  8
001
 62
    40
370
    50
100
AcDbLine
 10
67.35254
 20
73.230612
 30
0.0
 11
66.904622
 21
73.741943
 31
0.0
  0
LINE
  5
6B
330
64
100
AcDbEntity
  8
001
 62
    40
370
    50
100
AcDbLine
 10
67.69225
 20
71.667547
 30
0.0
 11
68.038645
 21
71.346391
 31
0.0
  0
POLYLINE
  5
6C
330
64
100
AcDbEntity
  8
001
 62
    40
370
    50
100
AcDb2dPolyline
 66
     1
 10
0.0
 20
0.0
 30
0.0
  0
VERTEX
  5
6E
330
6C
100
AcDbEntity
  8
001
 62
    40
370
    50
100
AcDbVertex
100
AcDb2dVertex
 10
65.062663
 20
69.876784
 30
0.0
  0
VERTEX
  5
6F
330
6C
100
AcDbEntity
  8
001
 62
    40
370
    50
100
AcDbVertex
100
AcDb2dVertex
 10
65.281046
 20
69.783519
 30
0.0
  0
VERTEX
  5
70
330
6C
100
AcDbEntity
  8
001
 62
    40
370
    50
100
AcDbVertex
100
AcDb2dVertex
 10
65.605264
 20
69.660593
 30
0.0
  0
VERTEX
  5
71
330
6C
100
AcDbEntity
  8
001
 62
    40
370
    50
100
AcDbVertex
100
AcDb2dVertex
 10
65.905381
 20
69.566665
 30
0.0
  0
VERTEX
  5
72
330
6C
100
AcDbEntity
  8
001
 62
    40
370
    50
100
AcDbVertex
100
AcDb2dVertex
 10
66.113525
 20
69.511507
 30
0.0
  0
SEQEND
  5
6D
330
6C
100
AcDbEntity
  8
001
370
    50
  0
LINE
  5
73
330
64
100
AcDbEntity
  8
001
 62
    40
370
    50
100
AcDbLine
 10
63.571229
 20
71.579369
 30
0.0
 11
65.062663
 21
69.876784
 31
0.0
  0
POLYLINE
  5
74
330
64
100
AcDbEntity
  8
001
 62
    40
370
    50
100
AcDb2dPolyline
 66
     1
 10
0.0
 20
0.0
 30
0.0
  0
VERTEX
  5
76
330
74
100
AcDbEntity
  8
001
 62
    40
370
    50
100
AcDbVertex
100
AcDb2dVertex
 10
63.571229
 20
71.579369
 30
0.0
  0
VERTEX
  5
77
330
74
100
AcDbEntity
  8
001
 62
    40
370
    50
100
AcDbVertex
100
AcDb2dVertex
 10
63.569717
 20
71.732696
 30
0.0
  0
VERTEX
  5
78
330
74
100
AcDbEntity
  8
001
 62
    40
370
    50
100
AcDbVertex
100
AcDb2dVertex
 10
63.563984
 20
71.885838
 30
0.0
  0
VERTEX
  5
79
330
74
100
AcDbEntity
  8
001
 62
    40
370
    50
100
AcDbVertex
100
AcDb2dVertex
 10
63.549782
 20
72.045074
 30
0.0
  0
VERTEX
  5
7A
330
74
100
AcDbEntity
  8
001
 62
    40
370
    50
100
AcDbVertex
100
AcDb2dVertex
 10
63.526621
 20
72.203324
 30
0.0
  0
VERTEX
  5
7B
330
74
100
AcDbEntity
  8
001
 62
    40
370
    50
100
AcDbVertex
100
AcDb2dVertex
 10
63.494904
 20
72.358909
 30
0.0
  0
VERTEX
  5
7C
330
74
100
AcDbEntity
  8
001
 62
    40
370
    50
100
AcDbVertex
100
AcDb2dVertex
 10
63.454349
 20
72.512397
 30
0.0
  0
VERTEX
  5
7D
330
74
100
AcDbEntity
  8
001
 62
    40
370
    50
100
AcDbVertex
100
AcDb2dVertex
 10
63.403591
 20
72.66648
 30
0.0
  0
VERTEX
  5
7E
330
74
100
AcDbEntity
  8
001
 62
    40
370
    50
100
AcDbVertex
100
AcDb2dVertex
 10
63.343394
 20
72.817151
 30
0.0
  0
VERTEX
  5
7F
330
74
100
AcDbEntity
  8
001
 62
    40
370
    50
100
AcDbVertex
100
AcDb2dVertex
 10
63.273222
 20
72.964728
 30
0.0
  0
VERTEX
  5
80
330
74
100
AcDbEntity
  8
001
 62
    40
370
    50
100
AcDbVertex
100
AcDb2dVertex
 10
63.193306
 20
73.107224
 30
0.0
  0
VERTEX
  5
81
330
74
100
AcDbEntity
  8
001
 62
    40
370
    50
100
AcDbVertex
100
AcDb2dVertex
 10
63.113485
 20
73.229727
 30
0.0
  0
VERTEX
  5
82
330
74
100
AcDbEntity
  8
001
 62
    40
370
    50
100
AcDbVertex
100
AcDb2dVertex
 10
63.026291
 20
73.347111
 30
0.0
  0
VERTEX
  5
83
330
74
100
AcDbEntity
  8
001
 62
    40
370
    50
100
AcDbVertex
100
AcDb2dVertex
 10
62.931325
 20
73.460161
 30
0.0
  0
VERTEX
  5
84
330
74
100
AcDbEntity
  8
001
 62
    40
370
    50
100
AcDbVertex
100
AcDb2dVertex
 10
62.829825
 20
73.567385
 30
0.0
  0
VERTEX
  5
85
330
74
100
AcDbEntity
  8
001
 62
    40
370
    50
100
AcDbVertex
100
AcDb2dVertex
 10
62.721907
 20
73.668676
 30
0.0
  0
VERTEX
  5
86
330
74
100
AcDbEntity
  8
001
 62
    40
370
    50
100
AcDbVertex
100
AcDb2dVertex
 10
62.608172
 20
73.763367
 30
0.0
  0
VERTEX
  5
87
330
74
100
AcDbEntity
  8
001
 62
    40
370
    50
100
AcDbVertex
100
AcDb2dVertex
 10
62.496547
 20
73.845929
 30
0.0
  0
VERTEX
  5
88
330
74
100
AcDbEntity
  8
001
 62
    40
370
    50
100
AcDbVertex
100
AcDb2dVertex
 10
62.380739
 20
73.922526
 30
0.0
  0
VERTEX
  5
89
330
74
100
AcDbEntity
  8
001
 62
    40
370
    50
100
AcDbVertex
100
AcDb2dVertex
 10
62.260237
 20
73.993979
 30
0.0
  0
VERTEX
  5
8A
330
74
100
AcDbEntity
  8
001
 62
    40
370
    50
100
AcDbVertex
100
AcDb2dVertex
 10
62.136546
 20
74.059755
 30
0.0
  0
VERTEX
  5
8B
330
74
100
AcDbEntity
  8
001
 62
    40
370
    50
100
AcDbVertex
100
AcDb2dVertex
 10
62.009825
 20
74.120149
 30
0.0
  0
VERTEX
  5
8C
330
74
100
AcDbEntity
  8
001
 62
    40
370
    50
100
AcDbVertex
100
AcDb2dVertex
 10
61.880691
 20
74.175175
 30
0.0
  0
VERTEX
  5
8D
330
74
100
AcDbEntity
  8
001
 62
    40
370
    50
100
AcDbVertex
100
AcDb2dVertex
 10
61.750847
 20
74.224588
 30
0.0
  0
VERTEX
  5
8E
330
74
100
AcDbEntity
  8
001
 62
    40
370
    50
100
AcDbVertex
100
AcDb2dVertex
 10
61.619392
 20
74.269572
 30
0.0
  0
VERTEX
  5
8F
330
74
100
AcDbEntity
  8
001
 62
    40
370
    50
100
AcDbVertex
100
AcDb2dVertex
 10
61.486842
 20
74.310689
 30
0.0
  0
VERTEX
  5
90
330
74
100
AcDbEntity
  8
001
 62
    40
370
    50
100
AcDbVertex
100
AcDb2dVertex
 10
61.353262
 20
74.348279
 30
0.0
  0
VERTEX
  5
91
330
74
100
AcDbEntity
  8
001
 62
    40
370
    50
100
AcDbVertex
100
AcDb2dVertex
 10
61.220534
 20
74.38238
 30
0.0
  0
VERTEX
  5
92
330
74
100
AcDbEntity
  8
001
 62
    40
370
    50
100
AcDbVertex
100
AcDb2dVertex
 10
61.087386
 20
74.414862
 30
0.0
  0
SEQEND
  5
75
330
74
100
AcDbEntity
  8
001
370
    50
  0
LINE
  5
93
330
64
100
AcDbEntity
  8
001
 62
    40
370
    50
100
AcDbLine
 10
59.937448
 20
75.727604
 30
0.0
 11
61.087386
 21
74.414862
 31
0.0
  0
POLYLINE
  5
94
330
64
100
AcDbEntity
  8
001
 62
    40
370
    50
100
AcDb2dPolyline
 66
     1
 10
0.0
 20
0.0
 30
0.0
  0
VERTEX
  5
96
330
94
100
AcDbEntity
  8
001
 62
    40
370
    50
100
AcDbVertex
100
AcDb2dVertex
 10
59.896523
 20
76.608685
 30
0.0
  0
VERTEX
  5
97
330
94
100
AcDbEntity
  8
001
 62
    40
370
    50
100
AcDbVertex
100
AcDb2dVertex
 10
59.887252
 20
76.437286
 30
0.0
  0
VERTEX
  5
98
330
94
100
AcDbEntity
  8
001
 62
    40
370
    50
100
AcDbVertex
100
AcDb2dVertex
 10
59.888455
 20
76.186762
 30
0.0
  0
VERTEX
  5
99
330
94
100
AcDbEntity
  8
001
 62
    40
370
    50
100
AcDbVertex
100
AcDb2dVertex
 10
59.911416
 20
75.913638
 30
0.0
  0
VERTEX
  5
9A
330
94
100
AcDbEntity
  8
001
 62
    40
370
    50
100
AcDbVertex
100
AcDb2dVertex
 10
59.937448
 20
75.727604
 30
0.0
  0
SEQEND
  5
95
330
94
100
AcDbEntity
  8
001
370
    50
  0
POLYLINE
  5
9B
330
64
100
AcDbEntity
  8
001
 62
    40
370
    50
100
AcDb2dPolyline
 66
     1
 10
0.0
 20
0.0
 30
0.0
  0
VERTEX
  5
9D
330
9B
100
AcDbEntity
  8
001
 62
    40
370
    50
100
AcDbVertex
100
AcDb2dVertex
 10
59.896523
 20
76.608685
 30
0.0
  0
VERTEX
  5
9E
330
9B
100
AcDbEntity
  8
001
 62
    40
370
    50
100
AcDbVertex
100
AcDb2dVertex
 10
59.979401
 20
76.654536
 30
0.0
  0
VERTEX
  5
9F
330
9B
100
AcDbEntity
  8
001
 62
    40
370
    50
100
AcDbVertex
100
AcDb2dVertex
 10
60.094902
 20
76.719393
 30
0.0
  0
VERTEX
  5
A0
330
9B
100
AcDbEntity
  8
001
 62
    40
370
    50
100
AcDbVertex
100
AcDb2dVertex
 10
60.271174
 20
76.82134
 30
0.0
  0
VERTEX
  5
A1
330
9B
100
AcDbEntity
  8
001
 62
    40
370
    50
100
AcDbVertex
100
AcDb2dVertex
 10
60.428595
 20
76.916606
 30
0.0
  0
VERTEX
  5
A2
330
9B
100
AcDbEntity
  8
001
 62
    40
370
    50
100
AcDbVertex
100
AcDb2dVertex
 10
60.59187
 20
77.018737
 30
0.0
  0
VERTEX
  5
A3
330
9B
100
AcDbEntity
  8
001
 62
    40
370
    50
100
AcDbVertex
100
AcDb2dVertex
 10
60.756163
 20
77.123833
 30
0.0
  0
VERTEX
  5
A4
330
9B
100
AcDbEntity
  8
001
 62
    40
370
    50
100
AcDbVertex
100
AcDb2dVertex
 10
61.047883
 20
77.318157
 30
0.0
  0
VERTEX
  5
A5
330
9B
100
AcDbEntity
  8
001
 62
    40
370
    50
100
AcDbVertex
100
AcDb2dVertex
 10
61.353601
 20
77.543029
 30
0.0
  0
VERTEX
  5
A6
330
9B
100
AcDbEntity
  8
001
 62
    40
370
    50
100
AcDbVertex
100
AcDb2dVertex
 10
61.597091
 20
77.737997
 30
0.0
  0
VERTEX
  5
A7
330
9B
100
AcDbEntity
  8
001
 62
    40
370
    50
100
AcDbVertex
100
AcDb2dVertex
 10
61.768694
 20
77.883643
 30
0.0
  0
SEQEND
  5
9C
330
9B
100
AcDbEntity
  8
001
370
    50
  0
POLYLINE
  5
A8
330
64
100
AcDbEntity
  8
001
 62
    40
370
    50
100
AcDb2dPolyline
 66
     1
 10
0.0
 20
0.0
 30
0.0
  0
VERTEX
  5
AA
330
A8
100
AcDbEntity
  8
001
 62
    40
370
    50
100
AcDbVertex
100
AcDb2dVertex
 10
62.567035
 20
77.518367
 30
0.0
  0
VERTEX
  5
AB
330
A8
100
AcDbEntity
  8
001
 62
    40
370
    50
100
AcDbVertex
100
AcDb2dVertex
 10
62.404957
 20
77.611719
 30
0.0
  0
VERTEX
  5
AC
330
A8
100
AcDbEntity
  8
001
 62
    40
370
    50
100
AcDbVertex
100
AcDb2dVertex
 10
62.161264
 20
77.734558
 30
0.0
  0
VERTEX
  5
AD
330
A8
100
AcDbEntity
  8
001
 62
    40
370
    50
100
AcDbVertex
100
AcDb2dVertex
 10
61.930415
 20
77.828666
 30
0.0
  0
VERTEX
  5
AE
330
A8
100
AcDbEntity
  8
001
 62
    40
370
    50
100
AcDbVertex
100
AcDb2dVertex
 10
61.768694
 20
77.883643
 30
0.0
  0
SEQEND
  5
A9
330
A8
100
AcDbEntity
  8
001
370
    50
  0
POLYLINE
  5
AF
330
64
100
AcDbEntity
  8
001
 62
    40
370
    50
100
AcDb2dPolyline
 66
     1
 10
0.0
 20
0.0
 30
0.0
  0
VERTEX
  5
B1
330
AF
100
AcDbEntity
  8
001
 62
    40
370
    50
100
AcDbVertex
100
AcDb2dVertex
 10
67.983583
 20
70.798764
 30
0.0
  0
VERTEX
  5
B2
330
AF
100
AcDbEntity
  8
001
 62
    40
370
    50
100
AcDbVertex
100
AcDb2dVertex
 10
67.96539
 20
70.889981
 30
0.0
  0
VERTEX
  5
B3
330
AF
100
AcDbEntity
  8
001
 62
    40
370
    50
100
AcDbVertex
100
AcDb2dVertex
 10
67.934029
 20
71.022136
 30
0.0
  0
VERTEX
  5
B4
330
AF
100
AcDbEntity
  8
001
 62
    40
370
    50
100
AcDbVertex
100
AcDb2dVertex
 10
67.804266
 20
71.409971
 30
0.0
  0
VERTEX
  5
B5
330
AF
100
AcDbEntity
  8
001
 62
    40
370
    50
100
AcDbVertex
100
AcDb2dVertex
 10
67.69225
 20
71.667547
 30
0.0
  0
SEQEND
  5
B0
330
AF
100
AcDbEntity
  8
001
370
    50
  0
POLYLINE
  5
B6
330
64
100
AcDbEntity
  8
001
 62
    40
370
    50
100
AcDb2dPolyline
 66
     1
 10
0.0
 20
0.0
 30
0.0
  0
VERTEX
  5
B8
330
B6
100
AcDbEntity
  8
001
 62
    40
370
    50
100
AcDbVertex
100
AcDb2dVertex
 10
67.870624
 20
70.68565
 30
0.0
  0
VERTEX
  5
B9
330
B6
100
AcDbEntity
  8
001
 62
    40
370
    50
100
AcDbVertex
100
AcDb2dVertex
 10
67.900902
 20
70.712772
 30
0.0
  0
VERTEX
  5
BA
330
B6
100
AcDbEntity
  8
001
 62
    40
370
    50
100
AcDbVertex
100
AcDb2dVertex
 10
67.930288
 20
70.740785
 30
0.0
  0
VERTEX
  5
BB
330
B6
100
AcDbEntity
  8
001
 62
    40
370
    50
100
AcDbVertex
100
AcDb2dVertex
 10
67.957354
 20
70.769356
 30
0.0
  0
VERTEX
  5
BC
330
B6
100
AcDbEntity
  8
001
 62
    40
370
    50
100
AcDbVertex
100
AcDb2dVertex
 10
67.983583
 20
70.798764
 30
0.0
  0
SEQEND
  5
B7
330
B6
100
AcDbEntity
  8
001
370
    50
  0
POLYLINE
  5
BD
330
64
100
AcDbEntity
  8
001
 62
    40
370
    50
100
AcDb2dPolyline
 66
     1
 10
0.0
 20
0.0
 30
0.0
  0
VERTEX
  5
BF
330
BD
100
AcDbEntity
  8
001
 62
    40
370
    50
100
AcDbVertex
100
AcDb2dVertex
 10
66.113525
 20
69.511507
 30
0.0
  0
VERTEX
  5
C0
330
BD
100
AcDbEntity
  8
001
 62
    40
370
    50
100
AcDbVertex
100
AcDb2dVertex
 10
66.196408
 20
69.557361
 30
0.0
  0
VERTEX
  5
C1
330
BD
100
AcDbEntity
  8
001
 62
    40
370
    50
100
AcDbVertex
100
AcDb2dVertex
 10
66.311905
 20
69.622215
 30
0.0
  0
VERTEX
  5
C2
330
BD
100
AcDbEntity
  8
001
 62
    40
370
    50
100
AcDbVertex
100
AcDb2dVertex
 10
66.488125
 20
69.724135
 30
0.0
  0
VERTEX
  5
C3
330
BD
100
AcDbEntity
  8
001
 62
    40
370
    50
100
AcDbVertex
100
AcDb2dVertex
 10
66.645597
 20
69.819428
 30
0.0
  0
VERTEX
  5
C4
330
BD
100
AcDbEntity
  8
001
 62
    40
370
    50
100
AcDbVertex
100
AcDb2dVertex
 10
66.809079
 20
69.921669
 30
0.0
  0
VERTEX
  5
C5
330
BD
100
AcDbEntity
  8
001
 62
    40
370
    50
100
AcDbVertex
100
AcDb2dVertex
 10
66.973165
 20
70.026655
 30
0.0
  0
VERTEX
  5
C6
330
BD
100
AcDbEntity
  8
001
 62
    40
370
    50
100
AcDbVertex
100
AcDb2dVertex
 10
67.262951
 20
70.219955
 30
0.0
  0
VERTEX
  5
C7
330
BD
100
AcDbEntity
  8
001
 62
    40
370
    50
100
AcDbVertex
100
AcDb2dVertex
 10
67.570604
 20
70.445851
 30
0.0
  0
VERTEX
  5
C8
330
BD
100
AcDbEntity
  8
001
 62
    40
370
    50
100
AcDbVertex
100
AcDb2dVertex
 10
67.746673
 20
70.58442
 30
0.0
  0
VERTEX
  5
C9
330
BD
100
AcDbEntity
  8
001
 62
    40
370
    50
100
AcDbVertex
100
AcDb2dVertex
 10
67.870624
 20
70.68565
 30
0.0
  0
SEQEND
  5
BE
330
BD
100
AcDbEntity
  8
001
370
    50
  0
LINE
  5
CA
330
64
100
AcDbEntity
  8
001
 62
    40
370
    50
100
AcDbLine
 10
67.983583
 20
70.798764
 30
0.0
 11
68.044156
 21
70.877762
 31
0.0
  0
POLYLINE
  5
CB
330
64
100
AcDbEntity
  8
001
 62
    40
370
    50
100
AcDb2dPolyline
 66
     1
 10
0.0
 20
0.0
 30
0.0
  0
VERTEX
  5
CD
330
CB
100
AcDbEntity
  8
001
 62
    40
370
    50
100
AcDbVertex
100
AcDb2dVertex
 10
68.113029
 20
71.209019
 30
0.0
  0
VERTEX
  5
CE
330
CB
100
AcDbEntity
  8
001
 62
    40
370
    50
100
AcDbVertex
100
AcDb2dVertex
 10
68.098536
 20
71.255024
 30
0.0
  0
VERTEX
  5
CF
330
CB
100
AcDbEntity
  8
001
 62
    40
370
    50
100
AcDbVertex
100
AcDb2dVertex
 10
68.078306
 20
71.297679
 30
0.0
  0
VERTEX
  5
D0
330
CB
100
AcDbEntity
  8
001
 62
    40
370
    50
100
AcDbVertex
100
AcDb2dVertex
 10
68.059724
 20
71.322764
 30
0.0
  0
VERTEX
  5
D1
330
CB
100
AcDbEntity
  8
001
 62
    40
370
    50
100
AcDbVertex
100
AcDb2dVertex
 10
68.038645
 20
71.346391
 30
0.0
  0
SEQEND
  5
CC
330
CB
100
AcDbEntity
  8
001
370
    50
  0
POLYLINE
  5
D2
330
64
100
AcDbEntity
  8
001
 62
    40
370
    50
100
AcDb2dPolyline
 66
     1
 10
0.0
 20
0.0
 30
0.0
  0
VERTEX
  5
D4
330
D2
100
AcDbEntity
  8
001
 62
    40
370
    50
100
AcDbVertex
100
AcDb2dVertex
 10
68.044156
 20
70.877762
 30
0.0
  0
VERTEX
  5
D5
330
D2
100
AcDbEntity
  8
001
 62
    40
370
    50
100
AcDbVertex
100
AcDb2dVertex
 10
68.056034
 20
70.898176
 30
0.0
  0
VERTEX
  5
D6
330
D2
100
AcDbEntity
  8
001
 62
    40
370
    50
100
AcDbVertex
100
AcDb2dVertex
 10
68.067338
 20
70.918885
 30
0.0
  0
VERTEX
  5
D7
330
D2
100
AcDbEntity
  8
001
 62
    40
370
    50
100
AcDbVertex
100
AcDb2dVertex
 10
68.086063
 20
70.960054
 30
0.0
  0
VERTEX
  5
D8
330
D2
100
AcDbEntity
  8
001
 62
    40
370
    50
100
AcDbVertex
100
AcDb2dVertex
 10
68.101039
 20
71.002886
 30
0.0
  0
VERTEX
  5
D9
330
D2
100
AcDbEntity
  8
001
 62
    40
370
    50
100
AcDbVertex
100
AcDb2dVertex
 10
68.112364
 20
71.046772
 30
0.0
  0
VERTEX
  5
DA
330
D2
100
AcDbEntity
  8
001
 62
    40
370
    50
100
AcDbVertex
100
AcDb2dVertex
 10
68.118804
 20
71.091382
 30
0.0
  0
VERTEX
  5
DB
330
D2
100
AcDbEntity
  8
001
 62
    40
370
    50
100
AcDbVertex
100
AcDb2dVertex
 10
68.118689
 20
71.150079
 30
0.0
  0
VERTEX
  5
DC
330
D2
100
AcDbEntity
  8
001
 62
    40
370
    50
100
AcDbVertex
100
AcDb2dVertex
 10
68.113029
 20
71.209019
 30
0.0
  0
SEQEND
  5
D3
330
D2
100
AcDbEntity
  8
001
370
    50
  0
POLYLINE
  5
DD
330
64
100
AcDbEntity
  8
001
 62
    40
370
    50
100
AcDb2dPolyline
 66
     1
 10
0.0
 20
0.0
 30
0.0
  0
VERTEX
  5
DF
330
DD
100
AcDbEntity
  8
001
 62
    40
370
    50
100
AcDbVertex
100
AcDb2dVertex
 10
66.898018
 20
69.430635
 30
0.0
  0
VERTEX
  5
E0
330
DD
100
AcDbEntity
  8
001
 62
    40
370
    50
100
AcDbVertex
100
AcDb2dVertex
 10
67.060596
 20
69.55359
 30
0.0
  0
VERTEX
  5
E1
330
DD
100
AcDbEntity
  8
001
 62
    40
370
    50
100
AcDbVertex
100
AcDb2dVertex
 10
67.279421
 20
69.753897
 30
0.0
  0
VERTEX
  5
E2
330
DD
100
AcDbEntity
  8
001
 62
    40
370
    50
100
AcDbVertex
100
AcDb2dVertex
 10
67.472414
 20
69.983628
 30
0.0
  0
VERTEX
  5
E3
330
DD
100
AcDbEntity
  8
001
 62
    40
370
    50
100
AcDbVertex
100
AcDb2dVertex
 10
67.5898
 20
70.153127
 30
0.0
  0
SEQEND
  5
DE
330
DD
100
AcDbEntity
  8
001
370
    50
  0
POLYLINE
  5
E4
330
64
100
AcDbEntity
  8
001
 62
    40
370
    50
100
AcDb2dPolyline
 66
     1
 10
0.0
 20
0.0
 30
0.0
  0
VERTEX
  5
E6
330
E4
100
AcDbEntity
  8
001
 62
    40
370
    50
100
AcDbVertex
100
AcDb2dVertex
 10
68.113042
 20
71.208957
 30
0.0
  0
VERTEX
  5
E7
330
E4
100
AcDbEntity
  8
001
 62
    40
370
    50
100
AcDbVertex
100
AcDb2dVertex
 10
68.06697
 20
71.422086
 30
0.0
  0
VERTEX
  5
E8
330
E4
100
AcDbEntity
  8
001
 62
    40
370
    50
100
AcDbVertex
100
AcDb2dVertex
 10
68.020897
 20
71.635216
 30
0.0
  0
VERTEX
  5
E9
330
E4
100
AcDbEntity
  8
001
 62
    40
370
    50
100
AcDbVertex
100
AcDb2dVertex
 10
67.972021
 20
71.861316
 30
0.0
  0
VERTEX
  5
EA
330
E4
100
AcDbEntity
  8
001
 62
    40
370
    50
100
AcDbVertex
100
AcDb2dVertex
 10
67.923145
 20
72.087416
 30
0.0
  0
SEQEND
  5
E5
330
E4
100
AcDbEntity
  8
001
370
    50
  0
POLYLINE
  5
EB
330
64
100
AcDbEntity
  8
001
 62
    40
370
    50
100
AcDb2dPolyline
 66
     1
 10
0.0
 20
0.0
 30
0.0
  0
VERTEX
  5
ED
330
EB
100
AcDbEntity
  8
001
 62
    40
370
    50
100
AcDbVertex
100
AcDb2dVertex
 10
67.589437
 20
70.152547
 30
0.0
  0
VERTEX
  5
EE
330
EB
100
AcDbEntity
  8
001
 62
    40
370
    50
100
AcDbVertex
100
AcDb2dVertex
 10
67.710659
 20
70.34588
 30
0.0
  0
VERTEX
  5
EF
330
EB
100
AcDbEntity
  8
001
 62
    40
370
    50
100
AcDbVertex
100
AcDb2dVertex
 10
67.831882
 20
70.539213
 30
0.0
  0
VERTEX
  5
F0
330
EB
100
AcDbEntity
  8
001
 62
    40
370
    50
100
AcDbVertex
100
AcDb2dVertex
 10
67.937902
 20
70.7083
 30
0.0
  0
VERTEX
  5
F1
330
EB
100
AcDbEntity
  8
001
 62
    40
370
    50
100
AcDbVertex
100
AcDb2dVertex
 10
68.043922
 20
70.877387
 30
0.0
  0
SEQEND
  5
EC
330
EB
100
AcDbEntity
  8
001
370
    50
  0
POLYLINE
  5
F2
330
64
100
AcDbEntity
  8
001
 62
    40
370
    50
100
AcDb2dPolyline
 66
     1
 10
0.0
 20
0.0
 30
0.0
  0
VERTEX
  5
F4
330
F2
100
AcDbEntity
  8
001
 62
    40
370
    50
100
AcDbVertex
100
AcDb2dVertex
 10
67.923253
 20
72.086916
 30
0.0
  0
VERTEX
  5
F5
330
F2
100
AcDbEntity
  8
001
 62
    40
370
    50
100
AcDbVertex
100
AcDb2dVertex
 10
67.839983
 20
72.378534
 30
0.0
  0
VERTEX
  5
F6
330
F2
100
AcDbEntity
  8
001
 62
    40
370
    50
100
AcDbVertex
100
AcDb2dVertex
 10
67.665323
 20
72.782172
 30
0.0
  0
VERTEX
  5
F7
330
F2
100
AcDbEntity
  8
001
 62
    40
370
    50
100
AcDbVertex
100
AcDb2dVertex
 10
67.490564
 20
73.05539
 30
0.0
  0
VERTEX
  5
F8
330
F2
100
AcDbEntity
  8
001
 62
    40
370
    50
100
AcDbVertex
100
AcDb2dVertex
 10
67.35254
 20
73.230612
 30
0.0
  0
SEQEND
  5
F3
330
F2
100
AcDbEntity
  8
001
370
    50
  0
LINE
  5
F9
330
64
100
AcDbEntity
  8
001
 62
    40
370
    50
100
AcDbLine
 10
61.0506
 20
66.063629
 30
0.0
 11
60.805366
 21
65.896623
 31
0.0
  0
POLYLINE
  5
FA
330
64
100
AcDbEntity
  8
001
 62
    40
370
    50
100
AcDb2dPolyline
 66
     1
 10
0.0
 20
0.0
 30
0.0
  0
VERTEX
  5
FC
330
FA
100
AcDbEntity
  8
001
 62
    40
370
    50
100
AcDbVertex
100
AcDb2dVertex
 10
61.0506
 20
66.063629
 30
0.0
  0
VERTEX
  5
FD
330
FA
100
AcDbEntity
  8
001
 62
    40
370
    50
100
AcDbVertex
100
AcDb2dVertex
 10
61.134499
 20
66.110096
 30
0.0
  0
VERTEX
  5
FE
330
FA
100
AcDbEntity
  8
001
 62
    40
370
    50
100
AcDbVertex
100
AcDb2dVertex
 10
61.24898
 20
66.174336
 30
0.0
  0
VERTEX
  5
FF
330
FA
100
AcDbEntity
  8
001
 62
    40
370
    50
100
AcDbVertex
100
AcDb2dVertex
 10
61.414085
 20
66.269548
 30
0.0
  0
VERTEX
  5
100
330
FA
100
AcDbEntity
  8
001
 62
    40
370
    50
100
AcDbVertex
100
AcDb2dVertex
 10
61.582672
 20
66.37155
 30
0.0
  0
VERTEX
  5
101
330
FA
100
AcDbEntity
  8
001
 62
    40
370
    50
100
AcDbVertex
100
AcDb2dVertex
 10
61.629619
 20
66.400446
 30
0.0
  0
VERTEX
  5
102
330
FA
100
AcDbEntity
  8
001
 62
    40
370
    50
100
AcDbVertex
100
AcDb2dVertex
 10
61.662725
 20
66.420914
 30
0.0
  0
SEQEND
  5
FB
330
FA
100
AcDbEntity
  8
001
370
    50
  0
LINE
  5
103
330
64
100
AcDbEntity
  8
001
 62
    40
370
    50
100
AcDbLine
 10
66.113525
 20
69.511507
 30
0.0
 11
65.440547
 21
69.053206
 31
0.0
  0
LINE
  5
104
330
64
100
AcDbEntity
  8
001
 62
    40
370
    50
100
AcDbLine
 10
61.708613
 20
65.896623
 30
0.0
 11
61.847652
 21
65.991309
 31
0.0
  0
LINE
  5
105
330
64
100
AcDbEntity
  8
001
 62
    40
370
    50
100
AcDbLine
 10
66.343794
 20
69.053206
 30
0.0
 11
66.898018
 21
69.430635
 31
0.0
  0
LINE
  5
106
330
64
100
AcDbEntity
  8
001
 62
    40
370
    50
100
AcDbLine
 10
62.629325
 20
68.219668
 30
0.0
 11
61.479387
 21
69.53241
 31
0.0
  0
POLYLINE
  5
107
330
64
100
AcDbEntity
  8
001
 62
    40
370
    50
100
AcDb2dPolyline
 66
     1
 10
0.0
 20
0.0
 30
0.0
  0
VERTEX
  5
109
330
107
100
AcDbEntity
  8
001
 62
    40
370
    50
100
AcDbVertex
100
AcDb2dVertex
 10
61.479387
 20
69.53241
 30
0.0
  0
VERTEX
  5
10A
330
107
100
AcDbEntity
  8
001
 62
    40
370
    50
100
AcDbVertex
100
AcDb2dVertex
 10
61.565488
 20
69.542599
 30
0.0
  0
VERTEX
  5
10B
330
107
100
AcDbEntity
  8
001
 62
    40
370
    50
100
AcDbVertex
100
AcDb2dVertex
 10
61.685912
 20
69.560857
 30
0.0
  0
VERTEX
  5
10C
330
107
100
AcDbEntity
  8
001
 62
    40
370
    50
100
AcDbVertex
100
AcDb2dVertex
 10
61.894769
 20
69.608393
 30
0.0
  0
VERTEX
  5
10D
330
107
100
AcDbEntity
  8
001
 62
    40
370
    50
100
AcDbVertex
100
AcDb2dVertex
 10
62.076208
 20
69.671389
 30
0.0
  0
VERTEX
  5
10E
330
107
100
AcDbEntity
  8
001
 62
    40
370
    50
100
AcDbVertex
100
AcDb2dVertex
 10
62.259843
 20
69.752238
 30
0.0
  0
VERTEX
  5
10F
330
107
100
AcDbEntity
  8
001
 62
    40
370
    50
100
AcDbVertex
100
AcDb2dVertex
 10
62.442414
 20
69.851874
 30
0.0
  0
VERTEX
  5
110
330
107
100
AcDbEntity
  8
001
 62
    40
370
    50
100
AcDbVertex
100
AcDb2dVertex
 10
62.929091
 20
70.257675
 30
0.0
  0
VERTEX
  5
111
330
107
100
AcDbEntity
  8
001
 62
    40
370
    50
100
AcDbVertex
100
AcDb2dVertex
 10
63.29088
 20
70.748636
 30
0.0
  0
VERTEX
  5
112
330
107
100
AcDbEntity
  8
001
 62
    40
370
    50
100
AcDbVertex
100
AcDb2dVertex
 10
63.457046
 20
71.104647
 30
0.0
  0
VERTEX
  5
113
330
107
100
AcDbEntity
  8
001
 62
    40
370
    50
100
AcDbVertex
100
AcDb2dVertex
 10
63.566224
 20
71.548198
 30
0.0
  0
VERTEX
  5
114
330
107
100
AcDbEntity
  8
001
 62
    40
370
    50
100
AcDbVertex
100
AcDb2dVertex
 10
63.569221
 20
71.566671
 30
0.0
  0
VERTEX
  5
115
330
107
100
AcDbEntity
  8
001
 62
    40
370
    50
100
AcDbVertex
100
AcDb2dVertex
 10
63.571229
 20
71.579369
 30
0.0
  0
SEQEND
  5
108
330
107
100
AcDbEntity
  8
001
370
    50
  0
LINE
  5
116
330
64
100
AcDbEntity
  8
001
 62
    40
370
    50
100
AcDbLine
 10
65.062663
 20
69.876784
 30
0.0
 11
62.629325
 21
68.219668
 31
0.0
  0
POLYLINE
  5
117
330
64
100
AcDbEntity
  8
001
 62
    40
370
    50
100
AcDb2dPolyline
 66
     1
 10
0.0
 20
0.0
 30
0.0
  0
VERTEX
  5
119
330
117
100
AcDbEntity
  8
001
 62
    40
370
    50
100
AcDbVertex
100
AcDb2dVertex
 10
62.91614
 20
67.375961
 30
0.0
  0
VERTEX
  5
11A
330
117
100
AcDbEntity
  8
001
 62
    40
370
    50
100
AcDbVertex
100
AcDb2dVertex
 10
62.899356
 20
67.456894
 30
0.0
  0
VERTEX
  5
11B
330
117
100
AcDbEntity
  8
001
 62
    40
370
    50
100
AcDbVertex
100
AcDb2dVertex
 10
62.871104
 20
67.574258
 30
0.0
  0
VERTEX
  5
11C
330
117
100
AcDbEntity
  8
001
 62
    40
370
    50
100
AcDbVertex
100
AcDb2dVertex
 10
62.741283
 20
67.962088
 30
0.0
  0
VERTEX
  5
11D
330
117
100
AcDbEntity
  8
001
 62
    40
370
    50
100
AcDbVertex
100
AcDb2dVertex
 10
62.629325
 20
68.219668
 30
0.0
  0
SEQEND
  5
118
330
117
100
AcDbEntity
  8
001
370
    50
  0
POLYLINE
  5
11E
330
64
100
AcDbEntity
  8
001
 62
    40
370
    50
100
AcDb2dPolyline
 66
     1
 10
0.0
 20
0.0
 30
0.0
  0
VERTEX
  5
120
330
11E
100
AcDbEntity
  8
001
 62
    40
370
    50
100
AcDbVertex
100
AcDb2dVertex
 10
58.995545
 20
72.367903
 30
0.0
  0
VERTEX
  5
121
330
11E
100
AcDbEntity
  8
001
 62
    40
370
    50
100
AcDbVertex
100
AcDb2dVertex
 10
59.051089
 20
72.214638
 30
0.0
  0
VERTEX
  5
122
330
11E
100
AcDbEntity
  8
001
 62
    40
370
    50
100
AcDbVertex
100
AcDb2dVertex
 10
59.106818
 20
72.061434
 30
0.0
  0
VERTEX
  5
123
330
11E
100
AcDbEntity
  8
001
 62
    40
370
    50
100
AcDbVertex
100
AcDb2dVertex
 10
59.165406
 20
71.902312
 30
0.0
  0
VERTEX
  5
124
330
11E
100
AcDbEntity
  8
001
 62
    40
370
    50
100
AcDbVertex
100
AcDb2dVertex
 10
59.225997
 20
71.743948
 30
0.0
  0
VERTEX
  5
125
330
11E
100
AcDbEntity
  8
001
 62
    40
370
    50
100
AcDbVertex
100
AcDb2dVertex
 10
59.289336
 20
71.588549
 30
0.0
  0
VERTEX
  5
126
330
11E
100
AcDbEntity
  8
001
 62
    40
370
    50
100
AcDbVertex
100
AcDb2dVertex
 10
59.356758
 20
71.434875
 30
0.0
  0
VERTEX
  5
127
330
11E
100
AcDbEntity
  8
001
 62
    40
370
    50
100
AcDbVertex
100
AcDb2dVertex
 10
59.429882
 20
71.281168
 30
0.0
  0
VERTEX
  5
128
330
11E
100
AcDbEntity
  8
001
 62
    40
370
    50
100
AcDbVertex
100
AcDb2dVertex
 10
59.50837
 20
71.130121
 30
0.0
  0
VERTEX
  5
129
330
11E
100
AcDbEntity
  8
001
 62
    40
370
    50
100
AcDbVertex
100
AcDb2dVertex
 10
59.592377
 20
70.98308
 30
0.0
  0
VERTEX
  5
12A
330
11E
100
AcDbEntity
  8
001
 62
    40
370
    50
100
AcDbVertex
100
AcDb2dVertex
 10
59.683
 20
70.840048
 30
0.0
  0
VERTEX
  5
12B
330
11E
100
AcDbEntity
  8
001
 62
    40
370
    50
100
AcDbVertex
100
AcDb2dVertex
 10
59.768702
 20
70.718094
 30
0.0
  0
VERTEX
  5
12C
330
11E
100
AcDbEntity
  8
001
 62
    40
370
    50
100
AcDbVertex
100
AcDb2dVertex
 10
59.859869
 20
70.600161
 30
0.0
  0
VERTEX
  5
12D
330
11E
100
AcDbEntity
  8
001
 62
    40
370
    50
100
AcDbVertex
100
AcDb2dVertex
 10
59.955182
 20
70.487774
 30
0.0
  0
VERTEX
  5
12E
330
11E
100
AcDbEntity
  8
001
 62
    40
370
    50
100
AcDbVertex
100
AcDb2dVertex
 10
60.05556
 20
70.379887
 30
0.0
  0
VERTEX
  5
12F
330
11E
100
AcDbEntity
  8
001
 62
    40
370
    50
100
AcDbVertex
100
AcDb2dVertex
 10
60.158292
 20
70.279344
 30
0.0
  0
VERTEX
  5
130
330
11E
100
AcDbEntity
  8
001
 62
    40
370
    50
100
AcDbVertex
100
AcDb2dVertex
 10
60.265763
 20
70.183905
 30
0.0
  0
VERTEX
  5
131
330
11E
100
AcDbEntity
  8
001
 62
    40
370
    50
100
AcDbVertex
100
AcDb2dVertex
 10
60.367311
 20
70.10206
 30
0.0
  0
VERTEX
  5
132
330
11E
100
AcDbEntity
  8
001
 62
    40
370
    50
100
AcDbVertex
100
AcDb2dVertex
 10
60.472357
 20
70.024746
 30
0.0
  0
VERTEX
  5
133
330
11E
100
AcDbEntity
  8
001
 62
    40
370
    50
100
AcDbVertex
100
AcDb2dVertex
 10
60.5772
 20
69.954044
 30
0.0
  0
VERTEX
  5
134
330
11E
100
AcDbEntity
  8
001
 62
    40
370
    50
100
AcDbVertex
100
AcDb2dVertex
 10
60.684738
 20
69.887517
 30
0.0
  0
VERTEX
  5
135
330
11E
100
AcDbEntity
  8
001
 62
    40
370
    50
100
AcDbVertex
100
AcDb2dVertex
 10
60.789732
 20
69.827892
 30
0.0
  0
VERTEX
  5
136
330
11E
100
AcDbEntity
  8
001
 62
    40
370
    50
100
AcDbVertex
100
AcDb2dVertex
 10
60.896805
 20
69.772097
 30
0.0
  0
VERTEX
  5
137
330
11E
100
AcDbEntity
  8
001
 62
    40
370
    50
100
AcDbVertex
100
AcDb2dVertex
 10
60.998526
 20
69.7234
 30
0.0
  0
VERTEX
  5
138
330
11E
100
AcDbEntity
  8
001
 62
    40
370
    50
100
AcDbVertex
100
AcDb2dVertex
 10
61.101632
 20
69.6777
 30
0.0
  0
VERTEX
  5
139
330
11E
100
AcDbEntity
  8
001
 62
    40
370
    50
100
AcDbVertex
100
AcDb2dVertex
 10
61.199163
 20
69.637321
 30
0.0
  0
VERTEX
  5
13A
330
11E
100
AcDbEntity
  8
001
 62
    40
370
    50
100
AcDbVertex
100
AcDb2dVertex
 10
61.297513
 20
69.598993
 30
0.0
  0
VERTEX
  5
13B
330
11E
100
AcDbEntity
  8
001
 62
    40
370
    50
100
AcDbVertex
100
AcDb2dVertex
 10
61.388309
 20
69.565323
 30
0.0
  0
VERTEX
  5
13C
330
11E
100
AcDbEntity
  8
001
 62
    40
370
    50
100
AcDbVertex
100
AcDb2dVertex
 10
61.479387
 20
69.53241
 30
0.0
  0
SEQEND
  5
11F
330
11E
100
AcDbEntity
  8
001
370
    50
  0
POLYLINE
  5
13D
330
64
100
AcDbEntity
  8
001
 62
    40
370
    50
100
AcDb2dPolyline
 66
     1
 10
0.0
 20
0.0
 30
0.0
  0
VERTEX
  5
13F
330
13D
100
AcDbEntity
  8
001
 62
    40
370
    50
100
AcDbVertex
100
AcDb2dVertex
 10
61.087386
 20
74.414862
 30
0.0
  0
VERTEX
  5
140
330
13D
100
AcDbEntity
  8
001
 62
    40
370
    50
100
AcDbVertex
100
AcDb2dVertex
 10
61.001286
 20
74.404673
 30
0.0
  0
VERTEX
  5
141
330
13D
100
AcDbEntity
  8
001
 62
    40
370
    50
100
AcDbVertex
100
AcDb2dVertex
 10
60.880861
 20
74.386415
 30
0.0
  0
VERTEX
  5
142
330
13D
100
AcDbEntity
  8
001
 62
    40
370
    50
100
AcDbVertex
100
AcDb2dVertex
 10
60.672004
 20
74.338879
 30
0.0
  0
VERTEX
  5
143
330
13D
100
AcDbEntity
  8
001
 62
    40
370
    50
100
AcDbVertex
100
AcDb2dVertex
 10
60.490566
 20
74.275883
 30
0.0
  0
VERTEX
  5
144
330
13D
100
AcDbEntity
  8
001
 62
    40
370
    50
100
AcDbVertex
100
AcDb2dVertex
 10
60.306931
 20
74.195034
 30
0.0
  0
VERTEX
  5
145
330
13D
100
AcDbEntity
  8
001
 62
    40
370
    50
100
AcDbVertex
100
AcDb2dVertex
 10
60.12436
 20
74.095398
 30
0.0
  0
VERTEX
  5
146
330
13D
100
AcDbEntity
  8
001
 62
    40
370
    50
100
AcDbVertex
100
AcDb2dVertex
 10
59.637682
 20
73.689597
 30
0.0
  0
VERTEX
  5
147
330
13D
100
AcDbEntity
  8
001
 62
    40
370
    50
100
AcDbVertex
100
AcDb2dVertex
 10
59.275893
 20
73.198636
 30
0.0
  0
VERTEX
  5
148
330
13D
100
AcDbEntity
  8
001
 62
    40
370
    50
100
AcDbVertex
100
AcDb2dVertex
 10
59.109727
 20
72.842625
 30
0.0
  0
VERTEX
  5
149
330
13D
100
AcDbEntity
  8
001
 62
    40
370
    50
100
AcDbVertex
100
AcDb2dVertex
 10
59.000549
 20
72.399074
 30
0.0
  0
VERTEX
  5
14A
330
13D
100
AcDbEntity
  8
001
 62
    40
370
    50
100
AcDbVertex
100
AcDb2dVertex
 10
58.997552
 20
72.380601
 30
0.0
  0
VERTEX
  5
14B
330
13D
100
AcDbEntity
  8
001
 62
    40
370
    50
100
AcDbVertex
100
AcDb2dVertex
 10
58.995545
 20
72.367903
 30
0.0
  0
SEQEND
  5
13E
330
13D
100
AcDbEntity
  8
001
370
    50
  0
POLYLINE
  5
14C
330
64
100
AcDbEntity
  8
001
 62
    40
370
    50
100
AcDb2dPolyline
 66
     1
 10
0.0
 20
0.0
 30
0.0
  0
VERTEX
  5
14E
330
14C
100
AcDbEntity
  8
001
 62
    40
370
    50
100
AcDbVertex
100
AcDb2dVertex
 10
57.50411
 20
74.070488
 30
0.0
  0
VERTEX
  5
14F
330
14C
100
AcDbEntity
  8
001
 62
    40
370
    50
100
AcDbVertex
100
AcDb2dVertex
 10
57.342032
 20
74.16384
 30
0.0
  0
VERTEX
  5
150
330
14C
100
AcDbEntity
  8
001
 62
    40
370
    50
100
AcDbVertex
100
AcDb2dVertex
 10
57.09834
 20
74.286679
 30
0.0
  0
VERTEX
  5
151
330
14C
100
AcDbEntity
  8
001
 62
    40
370
    50
100
AcDbVertex
100
AcDb2dVertex
 10
56.86749
 20
74.380787
 30
0.0
  0
VERTEX
  5
152
330
14C
100
AcDbEntity
  8
001
 62
    40
370
    50
100
AcDbVertex
100
AcDb2dVertex
 10
56.705769
 20
74.435765
 30
0.0
  0
SEQEND
  5
14D
330
14C
100
AcDbEntity
  8
001
370
    50
  0
LINE
  5
153
330
64
100
AcDbEntity
  8
001
 62
    40
370
    50
100
AcDbLine
 10
58.995545
 20
72.367903
 30
0.0
 11
57.50411
 21
74.070488
 31
0.0
  0
POLYLINE
  5
154
330
64
100
AcDbEntity
  8
001
 62
    40
370
    50
100
AcDb2dPolyline
 66
     1
 10
0.0
 20
0.0
 30
0.0
  0
VERTEX
  5
156
330
154
100
AcDbEntity
  8
001
 62
    40
370
    50
100
AcDbVertex
100
AcDb2dVertex
 10
59.999738
 20
66.428905
 30
0.0
  0
VERTEX
  5
157
330
154
100
AcDbEntity
  8
001
 62
    40
370
    50
100
AcDbVertex
100
AcDb2dVertex
 10
60.218121
 20
66.33564
 30
0.0
  0
VERTEX
  5
158
330
154
100
AcDbEntity
  8
001
 62
    40
370
    50
100
AcDbVertex
100
AcDb2dVertex
 10
60.542339
 20
66.212715
 30
0.0
  0
VERTEX
  5
159
330
154
100
AcDbEntity
  8
001
 62
    40
370
    50
100
AcDbVertex
100
AcDb2dVertex
 10
60.842456
 20
66.118787
 30
0.0
  0
VERTEX
  5
15A
330
154
100
AcDbEntity
  8
001
 62
    40
370
    50
100
AcDbVertex
100
AcDb2dVertex
 10
61.0506
 20
66.063629
 30
0.0
  0
SEQEND
  5
155
330
154
100
AcDbEntity
  8
001
370
    50
  0
POLYLINE
  5
15B
330
64
100
AcDbEntity
  8
001
 62
    40
370
    50
100
AcDb2dPolyline
 66
     1
 10
0.0
 20
0.0
 30
0.0
  0
VERTEX
  5
15D
330
15B
100
AcDbEntity
  8
001
 62
    40
370
    50
100
AcDbVertex
100
AcDb2dVertex
 10
54.832502
 20
73.148508
 30
0.0
  0
VERTEX
  5
15E
330
15B
100
AcDbEntity
  8
001
 62
    40
370
    50
100
AcDbVertex
100
AcDb2dVertex
 10
54.823996
 20
72.979334
 30
0.0
  0
VERTEX
  5
15F
330
15B
100
AcDbEntity
  8
001
 62
    40
370
    50
100
AcDbVertex
100
AcDb2dVertex
 10
54.825852
 20
72.732106
 30
0.0
  0
VERTEX
  5
160
330
15B
100
AcDbEntity
  8
001
 62
    40
370
    50
100
AcDbVertex
100
AcDb2dVertex
 10
54.848819
 20
72.463014
 30
0.0
  0
VERTEX
  5
161
330
15B
100
AcDbEntity
  8
001
 62
    40
370
    50
100
AcDbVertex
100
AcDb2dVertex
 10
54.874523
 20
72.279725
 30
0.0
  0
SEQEND
  5
15C
330
15B
100
AcDbEntity
  8
001
370
    50
  0
POLYLINE
  5
162
330
64
100
AcDbEntity
  8
001
 62
    40
370
    50
100
AcDb2dPolyline
 66
     1
 10
0.0
 20
0.0
 30
0.0
  0
VERTEX
  5
164
330
162
100
AcDbEntity
  8
001
 62
    40
370
    50
100
AcDbVertex
100
AcDb2dVertex
 10
55.014604
 20
73.261622
 30
0.0
  0
VERTEX
  5
165
330
162
100
AcDbEntity
  8
001
 62
    40
370
    50
100
AcDbVertex
100
AcDb2dVertex
 10
54.968149
 20
73.234373
 30
0.0
  0
VERTEX
  5
166
330
162
100
AcDbEntity
  8
001
 62
    40
370
    50
100
AcDbVertex
100
AcDb2dVertex
 10
54.922089
 20
73.206487
 30
0.0
  0
VERTEX
  5
167
330
162
100
AcDbEntity
  8
001
 62
    40
370
    50
100
AcDbVertex
100
AcDb2dVertex
 10
54.877101
 20
73.17781
 30
0.0
  0
VERTEX
  5
168
330
162
100
AcDbEntity
  8
001
 62
    40
370
    50
100
AcDbVertex
100
AcDb2dVertex
 10
54.832502
 20
73.148508
 30
0.0
  0
SEQEND
  5
163
330
162
100
AcDbEntity
  8
001
370
    50
  0
POLYLINE
  5
169
330
64
100
AcDbEntity
  8
001
 62
    40
370
    50
100
AcDb2dPolyline
 66
     1
 10
0.0
 20
0.0
 30
0.0
  0
VERTEX
  5
16B
330
169
100
AcDbEntity
  8
001
 62
    40
370
    50
100
AcDbVertex
100
AcDb2dVertex
 10
55.014604
 20
73.261622
 30
0.0
  0
VERTEX
  5
16C
330
169
100
AcDbEntity
  8
001
 62
    40
370
    50
100
AcDbVertex
100
AcDb2dVertex
 10
55.021687
 20
73.265652
 30
0.0
  0
VERTEX
  5
16D
330
169
100
AcDbEntity
  8
001
 62
    40
370
    50
100
AcDbVertex
100
AcDb2dVertex
 10
55.031978
 20
73.271514
 30
0.0
  0
VERTEX
  5
16E
330
169
100
AcDbEntity
  8
001
 62
    40
370
    50
100
AcDbVertex
100
AcDb2dVertex
 10
55.212149
 20
73.375903
 30
0.0
  0
VERTEX
  5
16F
330
169
100
AcDbEntity
  8
001
 62
    40
370
    50
100
AcDbVertex
100
AcDb2dVertex
 10
55.36567
 20
73.468728
 30
0.0
  0
VERTEX
  5
170
330
169
100
AcDbEntity
  8
001
 62
    40
370
    50
100
AcDbVertex
100
AcDb2dVertex
 10
55.527825
 20
73.570157
 30
0.0
  0
VERTEX
  5
171
330
169
100
AcDbEntity
  8
001
 62
    40
370
    50
100
AcDbVertex
100
AcDb2dVertex
 10
55.693238
 20
73.675955
 30
0.0
  0
VERTEX
  5
172
330
169
100
AcDbEntity
  8
001
 62
    40
370
    50
100
AcDbVertex
100
AcDb2dVertex
 10
55.985605
 20
73.870684
 30
0.0
  0
VERTEX
  5
173
330
169
100
AcDbEntity
  8
001
 62
    40
370
    50
100
AcDbVertex
100
AcDb2dVertex
 10
56.290677
 20
74.095151
 30
0.0
  0
VERTEX
  5
174
330
169
100
AcDbEntity
  8
001
 62
    40
370
    50
100
AcDbVertex
100
AcDb2dVertex
 10
56.534082
 20
74.290066
 30
0.0
  0
VERTEX
  5
175
330
169
100
AcDbEntity
  8
001
 62
    40
370
    50
100
AcDbVertex
100
AcDb2dVertex
 10
56.705769
 20
74.435765
 30
0.0
  0
SEQEND
  5
16A
330
169
100
AcDbEntity
  8
001
370
    50
  0
LINE
  5
176
330
64
100
AcDbEntity
  8
001
 62
    40
370
    50
100
AcDbLine
 10
61.768694
 20
77.883643
 30
0.0
 11
62.013927
 21
78.050649
 31
0.0
  0
POLYLINE
  5
177
330
64
100
AcDbEntity
  8
001
 62
    40
370
    50
100
AcDb2dPolyline
 66
     1
 10
0.0
 20
0.0
 30
0.0
  0
VERTEX
  5
179
330
177
100
AcDbEntity
  8
001
 62
    40
370
    50
100
AcDbVertex
100
AcDb2dVertex
 10
62.111608
 20
78.082526
 30
0.0
  0
VERTEX
  5
17A
330
177
100
AcDbEntity
  8
001
 62
    40
370
    50
100
AcDbVertex
100
AcDb2dVertex
 10
62.111118
 20
78.082524
 30
0.0
  0
VERTEX
  5
17B
330
177
100
AcDbEntity
  8
001
 62
    40
370
    50
100
AcDbVertex
100
AcDb2dVertex
 10
62.110406
 20
78.082521
 30
0.0
  0
VERTEX
  5
17C
330
177
100
AcDbEntity
  8
001
 62
    40
370
    50
100
AcDbVertex
100
AcDb2dVertex
 10
62.094123
 20
78.081794
 30
0.0
  0
VERTEX
  5
17D
330
177
100
AcDbEntity
  8
001
 62
    40
370
    50
100
AcDbVertex
100
AcDb2dVertex
 10
62.079989
 20
78.079241
 30
0.0
  0
VERTEX
  5
17E
330
177
100
AcDbEntity
  8
001
 62
    40
370
    50
100
AcDbVertex
100
AcDb2dVertex
 10
62.042038
 20
78.065264
 30
0.0
  0
VERTEX
  5
17F
330
177
100
AcDbEntity
  8
001
 62
    40
370
    50
100
AcDbVertex
100
AcDb2dVertex
 10
62.013927
 20
78.050649
 30
0.0
  0
SEQEND
  5
178
330
177
100
AcDbEntity
  8
001
370
    50
  0
POLYLINE
  5
180
330
64
100
AcDbEntity
  8
001
 62
    40
370
    50
100
AcDb2dPolyline
 66
     1
 10
0.0
 20
0.0
 30
0.0
  0
VERTEX
  5
182
330
180
100
AcDbEntity
  8
001
 62
    40
370
    50
100
AcDbVertex
100
AcDb2dVertex
 10
62.230325
 20
78.018401
 30
0.0
  0
VERTEX
  5
183
330
180
100
AcDbEntity
  8
001
 62
    40
370
    50
100
AcDbVertex
100
AcDb2dVertex
 10
62.224543
 20
78.026217
 30
0.0
  0
VERTEX
  5
184
330
180
100
AcDbEntity
  8
001
 62
    40
370
    50
100
AcDbVertex
100
AcDb2dVertex
 10
62.215982
 20
78.036624
 30
0.0
  0
VERTEX
  5
185
330
180
100
AcDbEntity
  8
001
 62
    40
370
    50
100
AcDbVertex
100
AcDb2dVertex
 10
62.204997
 20
78.047681
 30
0.0
  0
VERTEX
  5
186
330
180
100
AcDbEntity
  8
001
 62
    40
370
    50
100
AcDbVertex
100
AcDb2dVertex
 10
62.19369
 20
78.056422
 30
0.0
  0
VERTEX
  5
187
330
180
100
AcDbEntity
  8
001
 62
    40
370
    50
100
AcDbVertex
100
AcDb2dVertex
 10
62.18123
 20
78.064202
 30
0.0
  0
VERTEX
  5
188
330
180
100
AcDbEntity
  8
001
 62
    40
370
    50
100
AcDbVertex
100
AcDb2dVertex
 10
62.168133
 20
78.070935
 30
0.0
  0
VERTEX
  5
189
330
180
100
AcDbEntity
  8
001
 62
    40
370
    50
100
AcDbVertex
100
AcDb2dVertex
 10
62.15495
 20
78.076113
 30
0.0
  0
VERTEX
  5
18A
330
180
100
AcDbEntity
  8
001
 62
    40
370
    50
100
AcDbVertex
100
AcDb2dVertex
 10
62.140088
 20
78.079724
 30
0.0
  0
VERTEX
  5
18B
330
180
100
AcDbEntity
  8
001
 62
    40
370
    50
100
AcDbVertex
100
AcDb2dVertex
 10
62.123642
 20
78.081822
 30
0.0
  0
VERTEX
  5
18C
330
180
100
AcDbEntity
  8
001
 62
    40
370
    50
100
AcDbVertex
100
AcDb2dVertex
 10
62.111608
 20
78.082526
 30
0.0
  0
SEQEND
  5
181
330
180
100
AcDbEntity
  8
001
370
    50
  0
LINE
  5
18D
330
64
100
AcDbEntity
  8
001
 62
    40
370
    50
100
AcDbLine
 10
62.348592
 20
78.082526
 30
0.0
 11
62.111608
 21
78.082526
 31
0.0
  0
LINE
  5
18E
330
64
100
AcDbEntity
  8
001
 62
    40
370
    50
100
AcDbLine
 10
57.50411
 20
74.070488
 30
0.0
 11
59.937448
 21
75.727604
 31
0.0
  0
POLYLINE
  5
18F
330
64
100
AcDbEntity
  8
001
 62
    40
370
    50
100
AcDb2dPolyline
 66
     1
 10
0.0
 20
0.0
 30
0.0
  0
VERTEX
  5
191
330
18F
100
AcDbEntity
  8
001
 62
    40
370
    50
100
AcDbVertex
100
AcDb2dVertex
 10
63.302979
 20
71.384303
 30
0.0
  0
VERTEX
  5
192
330
18F
100
AcDbEntity
  8
001
 62
    40
370
    50
100
AcDbVertex
100
AcDb2dVertex
 10
63.331553
 20
71.491691
 30
0.0
  0
VERTEX
  5
193
330
18F
100
AcDbEntity
  8
001
 62
    40
370
    50
100
AcDbVertex
100
AcDb2dVertex
 10
63.364014
 20
71.642836
 30
0.0
  0
VERTEX
  5
194
330
18F
100
AcDbEntity
  8
001
 62
    40
370
    50
100
AcDbVertex
100
AcDb2dVertex
 10
63.386235
 20
71.816961
 30
0.0
  0
VERTEX
  5
195
330
18F
100
AcDbEntity
  8
001
 62
    40
370
    50
100
AcDbVertex
100
AcDb2dVertex
 10
63.391396
 20
71.973636
 30
0.0
  0
VERTEX
  5
196
330
18F
100
AcDbEntity
  8
001
 62
    40
370
    50
100
AcDbVertex
100
AcDb2dVertex
 10
63.386235
 20
72.13031
 30
0.0
  0
VERTEX
  5
197
330
18F
100
AcDbEntity
  8
001
 62
    40
370
    50
100
AcDbVertex
100
AcDb2dVertex
 10
63.364014
 20
72.304436
 30
0.0
  0
VERTEX
  5
198
330
18F
100
AcDbEntity
  8
001
 62
    40
370
    50
100
AcDbVertex
100
AcDb2dVertex
 10
63.331553
 20
72.455581
 30
0.0
  0
VERTEX
  5
199
330
18F
100
AcDbEntity
  8
001
 62
    40
370
    50
100
AcDbVertex
100
AcDb2dVertex
 10
63.302979
 20
72.562969
 30
0.0
  0
SEQEND
  5
190
330
18F
100
AcDbEntity
  8
001
370
    50
  0
POLYLINE
  5
19A
330
64
100
AcDbEntity
  8
001
 62
    40
370
    50
100
AcDb2dPolyline
 66
     1
 10
0.0
 20
0.0
 30
0.0
  0
VERTEX
  5
19C
330
19A
100
AcDbEntity
  8
001
 62
    40
370
    50
100
AcDbVertex
100
AcDb2dVertex
 10
60.698061
 20
65.864746
 30
0.0
  0
VERTEX
  5
19D
330
19A
100
AcDbEntity
  8
001
 62
    40
370
    50
100
AcDbVertex
100
AcDb2dVertex
 10
60.727448
 20
65.867875
 30
0.0
  0
VERTEX
  5
19E
330
19A
100
AcDbEntity
  8
001
 62
    40
370
    50
100
AcDbVertex
100
AcDb2dVertex
 10
60.764945
 20
65.876115
 30
0.0
  0
VERTEX
  5
19F
330
19A
100
AcDbEntity
  8
001
 62
    40
370
    50
100
AcDbVertex
100
AcDb2dVertex
 10
60.780202
 20
65.881974
 30
0.0
  0
VERTEX
  5
1A0
330
19A
100
AcDbEntity
  8
001
 62
    40
370
    50
100
AcDbVertex
100
AcDb2dVertex
 10
60.795748
 20
65.890524
 30
0.0
  0
VERTEX
  5
1A1
330
19A
100
AcDbEntity
  8
001
 62
    40
370
    50
100
AcDbVertex
100
AcDb2dVertex
 10
60.80141
 20
65.894053
 30
0.0
  0
VERTEX
  5
1A2
330
19A
100
AcDbEntity
  8
001
 62
    40
370
    50
100
AcDbVertex
100
AcDb2dVertex
 10
60.805366
 20
65.896623
 30
0.0
  0
SEQEND
  5
19B
330
19A
100
AcDbEntity
  8
001
370
    50
  0
LINE
  5
1A3
330
64
100
AcDbEntity
  8
001
 62
    40
370
    50
100
AcDbLine
 10
60.539069
 20
65.928871
 30
0.0
 11
59.999738
 21
66.428905
 31
0.0
  0
LINE
  5
1A4
330
64
100
AcDbEntity
  8
001
 62
    40
370
    50
100
AcDbLine
 10
56.705769
 20
74.435765
 30
0.0
 11
59.896523
 21
76.608685
 31
0.0
  0
POLYLINE
  5
1A5
330
64
100
AcDbEntity
  8
001
 62
    40
370
    50
100
AcDb2dPolyline
 66
     1
 10
0.0
 20
0.0
 30
0.0
  0
VERTEX
  5
1A7
330
1A5
100
AcDbEntity
  8
001
 62
    40
370
    50
100
AcDbVertex
100
AcDb2dVertex
 10
61.60612
 20
65.864746
 30
0.0
  0
VERTEX
  5
1A8
330
1A5
100
AcDbEntity
  8
001
 62
    40
370
    50
100
AcDbVertex
100
AcDb2dVertex
 10
61.619953
 20
65.865478
 30
0.0
  0
VERTEX
  5
1A9
330
1A5
100
AcDbEntity
  8
001
 62
    40
370
    50
100
AcDbVertex
100
AcDb2dVertex
 10
61.63898
 20
65.867785
 30
0.0
  0
VERTEX
  5
1AA
330
1A5
100
AcDbEntity
  8
001
 62
    40
370
    50
100
AcDbVertex
100
AcDb2dVertex
 10
61.656043
 20
65.871722
 30
0.0
  0
VERTEX
  5
1AB
330
1A5
100
AcDbEntity
  8
001
 62
    40
370
    50
100
AcDbVertex
100
AcDb2dVertex
 10
61.670841
 20
65.876808
 30
0.0
  0
VERTEX
  5
1AC
330
1A5
100
AcDbEntity
  8
001
 62
    40
370
    50
100
AcDbVertex
100
AcDb2dVertex
 10
61.685088
 20
65.882905
 30
0.0
  0
VERTEX
  5
1AD
330
1A5
100
AcDbEntity
  8
001
 62
    40
370
    50
100
AcDbVertex
100
AcDb2dVertex
 10
61.700735
 20
65.891541
 30
0.0
  0
VERTEX
  5
1AE
330
1A5
100
AcDbEntity
  8
001
 62
    40
370
    50
100
AcDbVertex
100
AcDb2dVertex
 10
61.70539
 20
65.894495
 30
0.0
  0
VERTEX
  5
1AF
330
1A5
100
AcDbEntity
  8
001
 62
    40
370
    50
100
AcDbVertex
100
AcDb2dVertex
 10
61.708613
 20
65.896623
 30
0.0
  0
SEQEND
  5
1A6
330
1A5
100
AcDbEntity
  8
001
370
    50
  0
POLYLINE
  5
1B0
330
64
100
AcDbEntity
  8
001
 62
    40
370
    50
100
AcDb2dPolyline
 66
     1
 10
0.0
 20
0.0
 30
0.0
  0
VERTEX
  5
1B2
330
1B0
100
AcDbEntity
  8
001
 62
    40
370
    50
100
AcDbVertex
100
AcDb2dVertex
 10
60.539069
 20
65.928871
 30
0.0
  0
VERTEX
  5
1B3
330
1B0
100
AcDbEntity
  8
001
 62
    40
370
    50
100
AcDbVertex
100
AcDb2dVertex
 10
60.546899
 20
65.922028
 30
0.0
  0
VERTEX
  5
1B4
330
1B0
100
AcDbEntity
  8
001
 62
    40
370
    50
100
AcDbVertex
100
AcDb2dVertex
 10
60.5582
 20
65.912865
 30
0.0
  0
VERTEX
  5
1B5
330
1B0
100
AcDbEntity
  8
001
 62
    40
370
    50
100
AcDbVertex
100
AcDb2dVertex
 10
60.574578
 20
65.901421
 30
0.0
  0
VERTEX
  5
1B6
330
1B0
100
AcDbEntity
  8
001
 62
    40
370
    50
100
AcDbVertex
100
AcDb2dVertex
 10
60.589916
 20
65.892577
 30
0.0
  0
VERTEX
  5
1B7
330
1B0
100
AcDbEntity
  8
001
 62
    40
370
    50
100
AcDbVertex
100
AcDb2dVertex
 10
60.621631
 20
65.878015
 30
0.0
  0
VERTEX
  5
1B8
330
1B0
100
AcDbEntity
  8
001
 62
    40
370
    50
100
AcDbVertex
100
AcDb2dVertex
 10
60.659854
 20
65.868152
 30
0.0
  0
VERTEX
  5
1B9
330
1B0
100
AcDbEntity
  8
001
 62
    40
370
    50
100
AcDbVertex
100
AcDb2dVertex
 10
60.682142
 20
65.865576
 30
0.0
  0
VERTEX
  5
1BA
330
1B0
100
AcDbEntity
  8
001
 62
    40
370
    50
100
AcDbVertex
100
AcDb2dVertex
 10
60.698061
 20
65.864746
 30
0.0
  0
SEQEND
  5
1B1
330
1B0
100
AcDbEntity
  8
001
370
    50
  0
LINE
  5
1BB
330
64
100
AcDbEntity
  8
001
 62
    40
370
    50
100
AcDbLine
 10
60.698061
 20
65.864746
 30
0.0
 11
61.60612
 21
65.864746
 31
0.0
  0
POLYLINE
  5
1BC
330
64
100
AcDbEntity
  8
001
 62
    40
370
    50
100
AcDb2dPolyline
 66
     1
 10
0.0
 20
0.0
 30
0.0
  0
VERTEX
  5
1BE
330
1BC
100
AcDbEntity
  8
001
 62
    40
370
    50
100
AcDbVertex
100
AcDb2dVertex
 10
54.832502
 20
73.148508
 30
0.0
  0
VERTEX
  5
1BF
330
1BC
100
AcDbEntity
  8
001
 62
    40
370
    50
100
AcDbVertex
100
AcDb2dVertex
 10
54.781105
 20
73.09
 30
0.0
  0
VERTEX
  5
1C0
330
1BC
100
AcDbEntity
  8
001
 62
    40
370
    50
100
AcDbVertex
100
AcDb2dVertex
 10
54.734009
 20
73.028387
 30
0.0
  0
VERTEX
  5
1C1
330
1BC
100
AcDbEntity
  8
001
 62
    40
370
    50
100
AcDbVertex
100
AcDb2dVertex
 10
54.708525
 20
72.987302
 30
0.0
  0
VERTEX
  5
1C2
330
1BC
100
AcDbEntity
  8
001
 62
    40
370
    50
100
AcDbVertex
100
AcDb2dVertex
 10
54.686045
 20
72.944386
 30
0.0
  0
VERTEX
  5
1C3
330
1BC
100
AcDbEntity
  8
001
 62
    40
370
    50
100
AcDbVertex
100
AcDb2dVertex
 10
54.666646
 20
72.900741
 30
0.0
  0
VERTEX
  5
1C4
330
1BC
100
AcDbEntity
  8
001
 62
    40
370
    50
100
AcDbVertex
100
AcDb2dVertex
 10
54.650433
 20
72.85589
 30
0.0
  0
VERTEX
  5
1C5
330
1BC
100
AcDbEntity
  8
001
 62
    40
370
    50
100
AcDbVertex
100
AcDb2dVertex
 10
54.63513
 20
72.795934
 30
0.0
  0
VERTEX
  5
1C6
330
1BC
100
AcDbEntity
  8
001
 62
    40
370
    50
100
AcDbVertex
100
AcDb2dVertex
 10
54.627618
 20
72.734193
 30
0.0
  0
VERTEX
  5
1C7
330
1BC
100
AcDbEntity
  8
001
 62
    40
370
    50
100
AcDbVertex
100
AcDb2dVertex
 10
54.628174
 20
72.691206
 30
0.0
  0
VERTEX
  5
1C8
330
1BC
100
AcDbEntity
  8
001
 62
    40
370
    50
100
AcDbVertex
100
AcDb2dVertex
 10
54.636293
 20
72.649593
 30
0.0
  0
VERTEX
  5
1C9
330
1BC
100
AcDbEntity
  8
001
 62
    40
370
    50
100
AcDbVertex
100
AcDb2dVertex
 10
54.646216
 20
72.624893
 30
0.0
  0
VERTEX
  5
1CA
330
1BC
100
AcDbEntity
  8
001
 62
    40
370
    50
100
AcDbVertex
100
AcDb2dVertex
 10
54.658265
 20
72.600881
 30
0.0
  0
SEQEND
  5
1BD
330
1BC
100
AcDbEntity
  8
001
370
    50
  0
LINE
  5
1CB
330
64
100
AcDbEntity
  8
001
 62
    40
370
    50
100
AcDbLine
 10
54.874523
 20
72.279725
 30
0.0
 11
54.658265
 21
72.600881
 31
0.0
  0
LINE
  5
1CC
330
64
100
AcDbEntity
  8
001
 62
    40
370
    50
100
AcDbLine
 10
54.637133
 20
72.550724
 30
0.0
 11
60.493931
 21
65.864746
 31
0.0
  0
ENDBLK
  5
66
330
64
100
AcDbEntity
  8
0
100
AcDbBlockEnd
  0
BLOCK
  5
1CE
330
1CD
100
AcDbEntity
  8
0
100
AcDbBlockBegin
  2
M-1-2
 70
     0
 10
0.0
 20
0.0
 30
0.0
  3
M-1-2
  1

  0
POLYLINE
  5
1D0
330
1CD
100
AcDbEntity
  8
001
 62
     5
370
    50
100
AcDb2dPolyline
 66
     1
 10
0.0
 20
0.0
 30
0.0
  0
VERTEX
  5
1D2
330
1D0
100
AcDbEntity
  8
001
 62
     5
370
    50
100
AcDbVertex
100
AcDb2dVertex
 10
60.893263
 20
73.967119
 30
0.0
  0
VERTEX
  5
1D3
330
1D0
100
AcDbEntity
  8
001
 62
     5
370
    50
100
AcDbVertex
100
AcDb2dVertex
 10
60.836482
 20
73.951484
 30
0.0
  0
VERTEX
  5
1D4
330
1D0
100
AcDbEntity
  8
001
 62
     5
370
    50
100
AcDbVertex
100
AcDb2dVertex
 10
60.78003
 20
73.934766
 30
0.0
  0
VERTEX
  5
1D5
330
1D0
100
AcDbEntity
  8
001
 62
     5
370
    50
100
AcDbVertex
100
AcDb2dVertex
 10
60.702171
 20
73.908122
 30
0.0
  0
VERTEX
  5
1D6
330
1D0
100
AcDbEntity
  8
001
 62
     5
370
    50
100
AcDbVertex
100
AcDb2dVertex
 10
60.625622
 20
73.87782
 30
0.0
  0
VERTEX
  5
1D7
330
1D0
100
AcDbEntity
  8
001
 62
     5
370
    50
100
AcDbVertex
100
AcDb2dVertex
 10
60.550209
 20
73.844225
 30
0.0
  0
VERTEX
  5
1D8
330
1D0
100
AcDbEntity
  8
001
 62
     5
370
    50
100
AcDbVertex
100
AcDb2dVertex
 10
60.476301
 20
73.807471
 30
0.0
  0
VERTEX
  5
1D9
330
1D0
100
AcDbEntity
  8
001
 62
     5
370
    50
100
AcDbVertex
100
AcDb2dVertex
 10
60.403807
 20
73.767392
 30
0.0
  0
VERTEX
  5
1DA
330
1D0
100
AcDbEntity
  8
001
 62
     5
370
    50
100
AcDbVertex
100
AcDb2dVertex
 10
60.33311
 20
73.724208
 30
0.0
  0
VERTEX
  5
1DB
330
1D0
100
AcDbEntity
  8
001
 62
     5
370
    50
100
AcDbVertex
100
AcDb2dVertex
 10
60.26406
 20
73.67786
 30
0.0
  0
VERTEX
  5
1DC
330
1D0
100
AcDbEntity
  8
001
 62
     5
370
    50
100
AcDbVertex
100
AcDb2dVertex
 10
60.197052
 20
73.628611
 30
0.0
  0
VERTEX
  5
1DD
330
1D0
100
AcDbEntity
  8
001
 62
     5
370
    50
100
AcDbVertex
100
AcDb2dVertex
 10
60.13193
 20
73.576334
 30
0.0
  0
VERTEX
  5
1DE
330
1D0
100
AcDbEntity
  8
001
 62
     5
370
    50
100
AcDbVertex
100
AcDb2dVertex
 10
60.069083
 20
73.521343
 30
0.0
  0
VERTEX
  5
1DF
330
1D0
100
AcDbEntity
  8
001
 62
     5
370
    50
100
AcDbVertex
100
AcDb2dVertex
 10
60.008351
 20
73.463498
 30
0.0
  0
VERTEX
  5
1E0
330
1D0
100
AcDbEntity
  8
001
 62
     5
370
    50
100
AcDbVertex
100
AcDb2dVertex
 10
59.950105
 20
73.403151
 30
0.0
  0
VERTEX
  5
1E1
330
1D0
100
AcDbEntity
  8
001
 62
     5
370
    50
100
AcDbVertex
100
AcDb2dVertex
 10
59.894194
 20
73.340145
 30
0.0
  0
VERTEX
  5
1E2
330
1D0
100
AcDbEntity
  8
001
 62
     5
370
    50
100
AcDbVertex
100
AcDb2dVertex
 10
59.840959
 20
73.274861
 30
0.0
  0
VERTEX
  5
1E3
330
1D0
100
AcDbEntity
  8
001
 62
     5
370
    50
100
AcDbVertex
100
AcDb2dVertex
 10
59.790267
 20
73.207135
 30
0.0
  0
VERTEX
  5
1E4
330
1D0
100
AcDbEntity
  8
001
 62
     5
370
    50
100
AcDbVertex
100
AcDb2dVertex
 10
59.74242
 20
73.13737
 30
0.0
  0
VERTEX
  5
1E5
330
1D0
100
AcDbEntity
  8
001
 62
     5
370
    50
100
AcDbVertex
100
AcDb2dVertex
 10
59.697307
 20
73.065402
 30
0.0
  0
VERTEX
  5
1E6
330
1D0
100
AcDbEntity
  8
001
 62
     5
370
    50
100
AcDbVertex
100
AcDb2dVertex
 10
59.655187
 20
72.991642
 30
0.0
  0
VERTEX
  5
1E7
330
1D0
100
AcDbEntity
  8
001
 62
     5
370
    50
100
AcDbVertex
100
AcDb2dVertex
 10
59.615975
 20
72.91594
 30
0.0
  0
VERTEX
  5
1E8
330
1D0
100
AcDbEntity
  8
001
 62
     5
370
    50
100
AcDbVertex
100
AcDb2dVertex
 10
59.579882
 20
72.838701
 30
0.0
  0
VERTEX
  5
1E9
330
1D0
100
AcDbEntity
  8
001
 62
     5
370
    50
100
AcDbVertex
100
AcDb2dVertex
 10
59.546851
 20
72.759799
 30
0.0
  0
VERTEX
  5
1EA
330
1D0
100
AcDbEntity
  8
001
 62
     5
370
    50
100
AcDbVertex
100
AcDb2dVertex
 10
59.517045
 20
72.679623
 30
0.0
  0
VERTEX
  5
1EB
330
1D0
100
AcDbEntity
  8
001
 62
     5
370
    50
100
AcDbVertex
100
AcDb2dVertex
 10
59.49043
 20
72.598079
 30
0.0
  0
VERTEX
  5
1EC
330
1D0
100
AcDbEntity
  8
001
 62
     5
370
    50
100
AcDbVertex
100
AcDb2dVertex
 10
59.467124
 20
72.515529
 30
0.0
  0
VERTEX
  5
1ED
330
1D0
100
AcDbEntity
  8
001
 62
     5
370
    50
100
AcDbVertex
100
AcDb2dVertex
 10
59.447116
 20
72.431921
 30
0.0
  0
VERTEX
  5
1EE
330
1D0
100
AcDbEntity
  8
001
 62
     5
370
    50
100
AcDbVertex
100
AcDb2dVertex
 10
59.430482
 20
72.347576
 30
0.0
  0
VERTEX
  5
1EF
330
1D0
100
AcDbEntity
  8
001
 62
     5
370
    50
100
AcDbVertex
100
AcDb2dVertex
 10
59.417222
 20
72.262496
 30
0.0
  0
VERTEX
  5
1F0
330
1D0
100
AcDbEntity
  8
001
 62
     5
370
    50
100
AcDbVertex
100
AcDb2dVertex
 10
59.407381
 20
72.176953
 30
0.0
  0
VERTEX
  5
1F1
330
1D0
100
AcDbEntity
  8
001
 62
     5
370
    50
100
AcDbVertex
100
AcDb2dVertex
 10
59.400966
 20
72.091002
 30
0.0
  0
VERTEX
  5
1F2
330
1D0
100
AcDbEntity
  8
001
 62
     5
370
    50
100
AcDbVertex
100
AcDb2dVertex
 10
59.397994
 20
72.004864
 30
0.0
  0
VERTEX
  5
1F3
330
1D0
100
AcDbEntity
  8
001
 62
     5
370
    50
100
AcDbVertex
100
AcDb2dVertex
 10
59.39847
 20
71.918652
 30
0.0
  0
VERTEX
  5
1F4
330
1D0
100
AcDbEntity
  8
001
 62
     5
370
    50
100
AcDbVertex
100
AcDb2dVertex
 10
59.402393
 20
71.832527
 30
0.0
  0
VERTEX
  5
1F5
330
1D0
100
AcDbEntity
  8
001
 62
     5
370
    50
100
AcDbVertex
100
AcDb2dVertex
 10
59.409756
 20
71.746664
 30
0.0
  0
VERTEX
  5
1F6
330
1D0
100
AcDbEntity
  8
001
 62
     5
370
    50
100
AcDbVertex
100
AcDb2dVertex
 10
59.420552
 20
71.661165
 30
0.0
  0
VERTEX
  5
1F7
330
1D0
100
AcDbEntity
  8
001
 62
     5
370
    50
100
AcDbVertex
100
AcDb2dVertex
 10
59.434751
 20
71.57626
 30
0.0
  0
VERTEX
  5
1F8
330
1D0
100
AcDbEntity
  8
001
 62
     5
370
    50
100
AcDbVertex
100
AcDb2dVertex
 10
59.452348
 20
71.491994
 30
0.0
  0
VERTEX
  5
1F9
330
1D0
100
AcDbEntity
  8
001
 62
     5
370
    50
100
AcDbVertex
100
AcDb2dVertex
 10
59.473284
 20
71.408649
 30
0.0
  0
VERTEX
  5
1FA
330
1D0
100
AcDbEntity
  8
001
 62
     5
370
    50
100
AcDbVertex
100
AcDb2dVertex
 10
59.497561
 20
71.326216
 30
0.0
  0
VERTEX
  5
1FB
330
1D0
100
AcDbEntity
  8
001
 62
     5
370
    50
100
AcDbVertex
100
AcDb2dVertex
 10
59.525085
 20
71.24502
 30
0.0
  0
VERTEX
  5
1FC
330
1D0
100
AcDbEntity
  8
001
 62
     5
370
    50
100
AcDbVertex
100
AcDb2dVertex
 10
59.555874
 20
71.165006
 30
0.0
  0
VERTEX
  5
1FD
330
1D0
100
AcDbEntity
  8
001
 62
     5
370
    50
100
AcDbVertex
100
AcDb2dVertex
 10
59.58979
 20
71.086536
 30
0.0
  0
VERTEX
  5
1FE
330
1D0
100
AcDbEntity
  8
001
 62
     5
370
    50
100
AcDbVertex
100
AcDb2dVertex
 10
59.626876
 20
71.009512
 30
0.0
  0
VERTEX
  5
1FF
330
1D0
100
AcDbEntity
  8
001
 62
     5
370
    50
100
AcDbVertex
100
AcDb2dVertex
 10
59.666945
 20
70.934323
 30
0.0
  0
VERTEX
  5
200
330
1D0
100
AcDbEntity
  8
001
 62
     5
370
    50
100
AcDbVertex
100
AcDb2dVertex
 10
59.710064
 20
70.86084
 30
0.0
  0
VERTEX
  5
201
330
1D0
100
AcDbEntity
  8
001
 62
     5
370
    50
100
AcDbVertex
100
AcDb2dVertex
 10
59.756001
 20
70.789464
 30
0.0
  0
VERTEX
  5
202
330
1D0
100
AcDbEntity
  8
001
 62
     5
370
    50
100
AcDbVertex
100
AcDb2dVertex
 10
59.804849
 20
70.720047
 30
0.0
  0
VERTEX
  5
203
330
1D0
100
AcDbEntity
  8
001
 62
     5
370
    50
100
AcDbVertex
100
AcDb2dVertex
 10
59.856328
 20
70.652989
 30
0.0
  0
VERTEX
  5
204
330
1D0
100
AcDbEntity
  8
001
 62
     5
370
    50
100
AcDbVertex
100
AcDb2dVertex
 10
59.910556
 20
70.588135
 30
0.0
  0
VERTEX
  5
205
330
1D0
100
AcDbEntity
  8
001
 62
     5
370
    50
100
AcDbVertex
100
AcDb2dVertex
 10
59.967209
 20
70.52587
 30
0.0
  0
VERTEX
  5
206
330
1D0
100
AcDbEntity
  8
001
 62
     5
370
    50
100
AcDbVertex
100
AcDb2dVertex
 10
60.026429
 20
70.466041
 30
0.0
  0
VERTEX
  5
207
330
1D0
100
AcDbEntity
  8
001
 62
     5
370
    50
100
AcDbVertex
100
AcDb2dVertex
 10
60.087855
 20
70.40901
 30
0.0
  0
VERTEX
  5
208
330
1D0
100
AcDbEntity
  8
001
 62
     5
370
    50
100
AcDbVertex
100
AcDb2dVertex
 10
60.151641
 20
70.354632
 30
0.0
  0
VERTEX
  5
209
330
1D0
100
AcDbEntity
  8
001
 62
     5
370
    50
100
AcDbVertex
100
AcDb2dVertex
 10
60.217402
 20
70.303236
 30
0.0
  0
VERTEX
  5
20A
330
1D0
100
AcDbEntity
  8
001
 62
     5
370
    50
100
AcDbVertex
100
AcDb2dVertex
 10
60.285297
 20
70.254695
 30
0.0
  0
VERTEX
  5
20B
330
1D0
100
AcDbEntity
  8
001
 62
     5
370
    50
100
AcDbVertex
100
AcDb2dVertex
 10
60.354925
 20
70.209297
 30
0.0
  0
VERTEX
  5
20C
330
1D0
100
AcDbEntity
  8
001
 62
     5
370
    50
100
AcDbVertex
100
AcDb2dVertex
 10
60.426441
 20
70.166934
 30
0.0
  0
VERTEX
  5
20D
330
1D0
100
AcDbEntity
  8
001
 62
     5
370
    50
100
AcDbVertex
100
AcDb2dVertex
 10
60.499441
 20
70.127845
 30
0.0
  0
VERTEX
  5
20E
330
1D0
100
AcDbEntity
  8
001
 62
     5
370
    50
100
AcDbVertex
100
AcDb2dVertex
 10
60.574066
 20
70.091963
 30
0.0
  0
VERTEX
  5
20F
330
1D0
100
AcDbEntity
  8
001
 62
     5
370
    50
100
AcDbVertex
100
AcDb2dVertex
 10
60.649924
 20
70.059483
 30
0.0
  0
VERTEX
  5
210
330
1D0
100
AcDbEntity
  8
001
 62
     5
370
    50
100
AcDbVertex
100
AcDb2dVertex
 10
60.72712
 20
70.030304
 30
0.0
  0
VERTEX
  5
211
330
1D0
100
AcDbEntity
  8
001
 62
     5
370
    50
100
AcDbVertex
100
AcDb2dVertex
 10
60.805285
 20
70.004554
 30
0.0
  0
VERTEX
  5
212
330
1D0
100
AcDbEntity
  8
001
 62
     5
370
    50
100
AcDbVertex
100
AcDb2dVertex
 10
60.884516
 20
69.98238
 30
0.0
  0
VERTEX
  5
213
330
1D0
100
AcDbEntity
  8
001
 62
     5
370
    50
100
AcDbVertex
100
AcDb2dVertex
 10
60.901371
 20
69.978167
 30
0.0
  0
VERTEX
  5
214
330
1D0
100
AcDbEntity
  8
001
 62
     5
370
    50
100
AcDbVertex
100
AcDb2dVertex
 10
60.918247
 20
69.974039
 30
0.0
  0
SEQEND
  5
1D1
330
1D0
100
AcDbEntity
  8
001
370
    50
  0
POLYLINE
  5
215
330
1CD
100
AcDbEntity
  8
001
 62
     5
370
    50
100
AcDb2dPolyline
 66
     1
 10
0.0
 20
0.0
 30
0.0
  0
VERTEX
  5
217
330
215
100
AcDbEntity
  8
001
 62
     5
370
    50
100
AcDbVertex
100
AcDb2dVertex
 10
61.348135
 20
69.923636
 30
0.0
  0
VERTEX
  5
218
330
215
100
AcDbEntity
  8
001
 62
     5
370
    50
100
AcDbVertex
100
AcDb2dVertex
 10
61.485754
 20
69.929536
 30
0.0
  0
VERTEX
  5
219
330
215
100
AcDbEntity
  8
001
 62
     5
370
    50
100
AcDbVertex
100
AcDb2dVertex
 10
61.684943
 20
69.95478
 30
0.0
  0
VERTEX
  5
21A
330
215
100
AcDbEntity
  8
001
 62
     5
370
    50
100
AcDbVertex
100
AcDb2dVertex
 10
61.755001
 20
69.969335
 30
0.0
  0
VERTEX
  5
21B
330
215
100
AcDbEntity
  8
001
 62
     5
370
    50
100
AcDbVertex
100
AcDb2dVertex
 10
61.802653
 20
69.980717
 30
0.0
  0
SEQEND
  5
216
330
215
100
AcDbEntity
  8
001
370
    50
  0
POLYLINE
  5
21C
330
1CD
100
AcDbEntity
  8
001
 62
     5
370
    50
100
AcDb2dPolyline
 66
     1
 10
0.0
 20
0.0
 30
0.0
  0
VERTEX
  5
21E
330
21C
100
AcDbEntity
  8
001
 62
     5
370
    50
100
AcDbVertex
100
AcDb2dVertex
 10
61.348135
 20
74.023636
 30
0.0
  0
VERTEX
  5
21F
330
21C
100
AcDbEntity
  8
001
 62
     5
370
    50
100
AcDbVertex
100
AcDb2dVertex
 10
61.210518
 20
74.017736
 30
0.0
  0
VERTEX
  5
220
330
21C
100
AcDbEntity
  8
001
 62
     5
370
    50
100
AcDbVertex
100
AcDb2dVertex
 10
61.011328
 20
73.992492
 30
0.0
  0
VERTEX
  5
221
330
21C
100
AcDbEntity
  8
001
 62
     5
370
    50
100
AcDbVertex
100
AcDb2dVertex
 10
60.944029
 20
73.978567
 30
0.0
  0
VERTEX
  5
222
330
21C
100
AcDbEntity
  8
001
 62
     5
370
    50
100
AcDbVertex
100
AcDb2dVertex
 10
60.898243
 20
73.967727
 30
0.0
  0
SEQEND
  5
21D
330
21C
100
AcDbEntity
  8
001
370
    50
  0
POLYLINE
  5
223
330
1CD
100
AcDbEntity
  8
001
 62
     5
370
    50
100
AcDb2dPolyline
 66
     1
 10
0.0
 20
0.0
 30
0.0
  0
VERTEX
  5
225
330
223
100
AcDbEntity
  8
001
 62
     5
370
    50
100
AcDbVertex
100
AcDb2dVertex
 10
60.666961
 20
70.78263
 30
0.0
  0
VERTEX
  5
226
330
223
100
AcDbEntity
  8
001
 62
     5
370
    50
100
AcDbVertex
100
AcDb2dVertex
 10
60.686346
 20
70.783662
 30
0.0
  0
VERTEX
  5
227
330
223
100
AcDbEntity
  8
001
 62
     5
370
    50
100
AcDbVertex
100
AcDb2dVertex
 10
60.712964
 20
70.786884
 30
0.0
  0
VERTEX
  5
228
330
223
100
AcDbEntity
  8
001
 62
     5
370
    50
100
AcDbVertex
100
AcDb2dVertex
 10
60.736758
 20
70.792359
 30
0.0
  0
VERTEX
  5
229
330
223
100
AcDbEntity
  8
001
 62
     5
370
    50
100
AcDbVertex
100
AcDb2dVertex
 10
60.75757
 20
70.799516
 30
0.0
  0
VERTEX
  5
22A
330
223
100
AcDbEntity
  8
001
 62
     5
370
    50
100
AcDbVertex
100
AcDb2dVertex
 10
60.777879
 20
70.808197
 30
0.0
  0
VERTEX
  5
22B
330
223
100
AcDbEntity
  8
001
 62
     5
370
    50
100
AcDbVertex
100
AcDb2dVertex
 10
60.799422
 20
70.820143
 30
0.0
  0
VERTEX
  5
22C
330
223
100
AcDbEntity
  8
001
 62
     5
370
    50
100
AcDbVertex
100
AcDb2dVertex
 10
60.817951
 20
70.832788
 30
0.0
  0
VERTEX
  5
22D
330
223
100
AcDbEntity
  8
001
 62
     5
370
    50
100
AcDbVertex
100
AcDb2dVertex
 10
60.830788
 20
70.842588
 30
0.0
  0
SEQEND
  5
224
330
223
100
AcDbEntity
  8
001
370
    50
  0
POLYLINE
  5
22E
330
1CD
100
AcDbEntity
  8
001
 62
     5
370
    50
100
AcDb2dPolyline
 66
     1
 10
0.0
 20
0.0
 30
0.0
  0
VERTEX
  5
230
330
22E
100
AcDbEntity
  8
001
 62
     5
370
    50
100
AcDbVertex
100
AcDb2dVertex
 10
61.52067
 20
70.77147
 30
0.0
  0
VERTEX
  5
231
330
22E
100
AcDbEntity
  8
001
 62
     5
370
    50
100
AcDbVertex
100
AcDb2dVertex
 10
61.46906
 20
70.823789
 30
0.0
  0
VERTEX
  5
232
330
22E
100
AcDbEntity
  8
001
 62
     5
370
    50
100
AcDbVertex
100
AcDb2dVertex
 10
61.391111
 20
70.885035
 30
0.0
  0
VERTEX
  5
233
330
22E
100
AcDbEntity
  8
001
 62
     5
370
    50
100
AcDbVertex
100
AcDb2dVertex
 10
61.351041
 20
70.907356
 30
0.0
  0
VERTEX
  5
234
330
22E
100
AcDbEntity
  8
001
 62
     5
370
    50
100
AcDbVertex
100
AcDb2dVertex
 10
61.311963
 20
70.924044
 30
0.0
  0
VERTEX
  5
235
330
22E
100
AcDbEntity
  8
001
 62
     5
370
    50
100
AcDbVertex
100
AcDb2dVertex
 10
61.27243
 20
70.93765
 30
0.0
  0
VERTEX
  5
236
330
22E
100
AcDbEntity
  8
001
 62
     5
370
    50
100
AcDbVertex
100
AcDb2dVertex
 10
61.227607
 20
70.947933
 30
0.0
  0
VERTEX
  5
237
330
22E
100
AcDbEntity
  8
001
 62
     5
370
    50
100
AcDbVertex
100
AcDb2dVertex
 10
61.177302
 20
70.954013
 30
0.0
  0
VERTEX
  5
238
330
22E
100
AcDbEntity
  8
001
 62
     5
370
    50
100
AcDbVertex
100
AcDb2dVertex
 10
61.140609
 20
70.955978
 30
0.0
  0
SEQEND
  5
22F
330
22E
100
AcDbEntity
  8
001
370
    50
  0
POLYLINE
  5
239
330
1CD
100
AcDbEntity
  8
001
 62
     5
370
    50
100
AcDb2dPolyline
 66
     1
 10
0.0
 20
0.0
 30
0.0
  0
VERTEX
  5
23B
330
239
100
AcDbEntity
  8
001
 62
     5
370
    50
100
AcDbVertex
100
AcDb2dVertex
 10
61.721639
 20
70.673907
 30
0.0
  0
VERTEX
  5
23C
330
239
100
AcDbEntity
  8
001
 62
     5
370
    50
100
AcDbVertex
100
AcDb2dVertex
 10
61.741063
 20
70.674974
 30
0.0
  0
VERTEX
  5
23D
330
239
100
AcDbEntity
  8
001
 62
     5
370
    50
100
AcDbVertex
100
AcDb2dVertex
 10
61.767642
 20
70.678161
 30
0.0
  0
VERTEX
  5
23E
330
239
100
AcDbEntity
  8
001
 62
     5
370
    50
100
AcDbVertex
100
AcDb2dVertex
 10
61.791234
 20
70.683457
 30
0.0
  0
VERTEX
  5
23F
330
239
100
AcDbEntity
  8
001
 62
     5
370
    50
100
AcDbVertex
100
AcDb2dVertex
 10
61.812247
 20
70.690793
 30
0.0
  0
VERTEX
  5
240
330
239
100
AcDbEntity
  8
001
 62
     5
370
    50
100
AcDbVertex
100
AcDb2dVertex
 10
61.833326
 20
70.700157
 30
0.0
  0
VERTEX
  5
241
330
239
100
AcDbEntity
  8
001
 62
     5
370
    50
100
AcDbVertex
100
AcDb2dVertex
 10
61.854099
 20
70.71142
 30
0.0
  0
VERTEX
  5
242
330
239
100
AcDbEntity
  8
001
 62
     5
370
    50
100
AcDbVertex
100
AcDb2dVertex
 10
61.909455
 20
70.755988
 30
0.0
  0
VERTEX
  5
243
330
239
100
AcDbEntity
  8
001
 62
     5
370
    50
100
AcDbVertex
100
AcDb2dVertex
 10
61.951066
 20
70.813907
 30
0.0
  0
VERTEX
  5
244
330
239
100
AcDbEntity
  8
001
 62
     5
370
    50
100
AcDbVertex
100
AcDb2dVertex
 10
61.970531
 20
70.859164
 30
0.0
  0
VERTEX
  5
245
330
239
100
AcDbEntity
  8
001
 62
     5
370
    50
100
AcDbVertex
100
AcDb2dVertex
 10
61.982534
 20
70.905285
 30
0.0
  0
VERTEX
  5
246
330
239
100
AcDbEntity
  8
001
 62
     5
370
    50
100
AcDbVertex
100
AcDb2dVertex
 10
61.98572
 20
70.928301
 30
0.0
  0
VERTEX
  5
247
330
239
100
AcDbEntity
  8
001
 62
     5
370
    50
100
AcDbVertex
100
AcDb2dVertex
 10
61.986559
 20
70.953907
 30
0.0
  0
VERTEX
  5
248
330
239
100
AcDbEntity
  8
001
 62
     5
370
    50
100
AcDbVertex
100
AcDb2dVertex
 10
61.985442
 20
70.977142
 30
0.0
  0
VERTEX
  5
249
330
239
100
AcDbEntity
  8
001
 62
     5
370
    50
100
AcDbVertex
100
AcDb2dVertex
 10
61.983851
 20
70.993839
 30
0.0
  0
SEQEND
  5
23A
330
239
100
AcDbEntity
  8
001
370
    50
  0
POLYLINE
  5
24A
330
1CD
100
AcDbEntity
  8
001
 62
     5
370
    50
100
AcDb2dPolyline
 66
     1
 10
0.0
 20
0.0
 30
0.0
  0
VERTEX
  5
24C
330
24A
100
AcDbEntity
  8
001
 62
     5
370
    50
100
AcDbVertex
100
AcDb2dVertex
 10
62.387065
 20
71.589744
 30
0.0
  0
VERTEX
  5
24D
330
24A
100
AcDbEntity
  8
001
 62
     5
370
    50
100
AcDbVertex
100
AcDb2dVertex
 10
62.353707
 20
71.581312
 30
0.0
  0
VERTEX
  5
24E
330
24A
100
AcDbEntity
  8
001
 62
     5
370
    50
100
AcDbVertex
100
AcDb2dVertex
 10
62.308381
 20
71.566947
 30
0.0
  0
VERTEX
  5
24F
330
24A
100
AcDbEntity
  8
001
 62
     5
370
    50
100
AcDbVertex
100
AcDb2dVertex
 10
62.265798
 20
71.548811
 30
0.0
  0
VERTEX
  5
250
330
24A
100
AcDbEntity
  8
001
 62
     5
370
    50
100
AcDbVertex
100
AcDb2dVertex
 10
62.229232
 20
71.527938
 30
0.0
  0
VERTEX
  5
251
330
24A
100
AcDbEntity
  8
001
 62
     5
370
    50
100
AcDbVertex
100
AcDb2dVertex
 10
62.127329
 20
71.444089
 30
0.0
  0
VERTEX
  5
252
330
24A
100
AcDbEntity
  8
001
 62
     5
370
    50
100
AcDbVertex
100
AcDb2dVertex
 10
62.045852
 20
71.334119
 30
0.0
  0
VERTEX
  5
253
330
24A
100
AcDbEntity
  8
001
 62
     5
370
    50
100
AcDbVertex
100
AcDb2dVertex
 10
62.008644
 20
71.248469
 30
0.0
  0
VERTEX
  5
254
330
24A
100
AcDbEntity
  8
001
 62
     5
370
    50
100
AcDbVertex
100
AcDb2dVertex
 10
61.986341
 20
71.161309
 30
0.0
  0
VERTEX
  5
255
330
24A
100
AcDbEntity
  8
001
 62
     5
370
    50
100
AcDbVertex
100
AcDb2dVertex
 10
61.980355
 20
71.117788
 30
0.0
  0
VERTEX
  5
256
330
24A
100
AcDbEntity
  8
001
 62
     5
370
    50
100
AcDbVertex
100
AcDb2dVertex
 10
61.97873
 20
71.069358
 30
0.0
  0
VERTEX
  5
257
330
24A
100
AcDbEntity
  8
001
 62
     5
370
    50
100
AcDbVertex
100
AcDb2dVertex
 10
61.980837
 20
71.025417
 30
0.0
  0
VERTEX
  5
258
330
24A
100
AcDbEntity
  8
001
 62
     5
370
    50
100
AcDbVertex
100
AcDb2dVertex
 10
61.983851
 20
70.993839
 30
0.0
  0
SEQEND
  5
24B
330
24A
100
AcDbEntity
  8
001
370
    50
  0
POLYLINE
  5
259
330
1CD
100
AcDbEntity
  8
001
 62
     5
370
    50
100
AcDb2dPolyline
 66
     1
 10
0.0
 20
0.0
 30
0.0
  0
VERTEX
  5
25B
330
259
100
AcDbEntity
  8
001
 62
     5
370
    50
100
AcDbVertex
100
AcDb2dVertex
 10
62.387065
 20
71.589744
 30
0.0
  0
VERTEX
  5
25C
330
259
100
AcDbEntity
  8
001
 62
     5
370
    50
100
AcDbVertex
100
AcDb2dVertex
 10
62.404704
 20
71.594205
 30
0.0
  0
VERTEX
  5
25D
330
259
100
AcDbEntity
  8
001
 62
     5
370
    50
100
AcDbVertex
100
AcDb2dVertex
 10
62.428672
 20
71.601798
 30
0.0
  0
VERTEX
  5
25E
330
259
100
AcDbEntity
  8
001
 62
     5
370
    50
100
AcDbVertex
100
AcDb2dVertex
 10
62.451191
 20
71.611373
 30
0.0
  0
VERTEX
  5
25F
330
259
100
AcDbEntity
  8
001
 62
     5
370
    50
100
AcDbVertex
100
AcDb2dVertex
 10
62.470524
 20
71.622425
 30
0.0
  0
VERTEX
  5
260
330
259
100
AcDbEntity
  8
001
 62
     5
370
    50
100
AcDbVertex
100
AcDb2dVertex
 10
62.524361
 20
71.667081
 30
0.0
  0
VERTEX
  5
261
330
259
100
AcDbEntity
  8
001
 62
     5
370
    50
100
AcDbVertex
100
AcDb2dVertex
 10
62.567492
 20
71.724912
 30
0.0
  0
VERTEX
  5
262
330
259
100
AcDbEntity
  8
001
 62
     5
370
    50
100
AcDbVertex
100
AcDb2dVertex
 10
62.587289
 20
71.769381
 30
0.0
  0
VERTEX
  5
263
330
259
100
AcDbEntity
  8
001
 62
     5
370
    50
100
AcDbVertex
100
AcDb2dVertex
 10
62.598959
 20
71.816291
 30
0.0
  0
VERTEX
  5
264
330
259
100
AcDbEntity
  8
001
 62
     5
370
    50
100
AcDbVertex
100
AcDb2dVertex
 10
62.601942
 20
71.840529
 30
0.0
  0
VERTEX
  5
265
330
259
100
AcDbEntity
  8
001
 62
     5
370
    50
100
AcDbVertex
100
AcDb2dVertex
 10
62.602984
 20
71.864912
 30
0.0
  0
VERTEX
  5
266
330
259
100
AcDbEntity
  8
001
 62
     5
370
    50
100
AcDbVertex
100
AcDb2dVertex
 10
62.602037
 20
71.889276
 30
0.0
  0
VERTEX
  5
267
330
259
100
AcDbEntity
  8
001
 62
     5
370
    50
100
AcDbVertex
100
AcDb2dVertex
 10
62.598959
 20
71.913534
 30
0.0
  0
VERTEX
  5
268
330
259
100
AcDbEntity
  8
001
 62
     5
370
    50
100
AcDbVertex
100
AcDb2dVertex
 10
62.586538
 20
71.960711
 30
0.0
  0
VERTEX
  5
269
330
259
100
AcDbEntity
  8
001
 62
     5
370
    50
100
AcDbVertex
100
AcDb2dVertex
 10
62.567492
 20
72.004912
 30
0.0
  0
VERTEX
  5
26A
330
259
100
AcDbEntity
  8
001
 62
     5
370
    50
100
AcDbVertex
100
AcDb2dVertex
 10
62.529495
 20
72.060848
 30
0.0
  0
VERTEX
  5
26B
330
259
100
AcDbEntity
  8
001
 62
     5
370
    50
100
AcDbVertex
100
AcDb2dVertex
 10
62.470524
 20
72.107399
 30
0.0
  0
VERTEX
  5
26C
330
259
100
AcDbEntity
  8
001
 62
     5
370
    50
100
AcDbVertex
100
AcDb2dVertex
 10
62.450708
 20
72.118093
 30
0.0
  0
VERTEX
  5
26D
330
259
100
AcDbEntity
  8
001
 62
     5
370
    50
100
AcDbVertex
100
AcDb2dVertex
 10
62.43645
 20
72.124887
 30
0.0
  0
SEQEND
  5
25A
330
259
100
AcDbEntity
  8
001
370
    50
  0
POLYLINE
  5
26E
330
1CD
100
AcDbEntity
  8
001
 62
     5
370
    50
100
AcDb2dPolyline
 66
     1
 10
0.0
 20
0.0
 30
0.0
  0
VERTEX
  5
270
330
26E
100
AcDbEntity
  8
001
 62
     5
370
    50
100
AcDbVertex
100
AcDb2dVertex
 10
62.149782
 20
72.79191
 30
0.0
  0
VERTEX
  5
271
330
26E
100
AcDbEntity
  8
001
 62
     5
370
    50
100
AcDbVertex
100
AcDb2dVertex
 10
62.139992
 20
72.757128
 30
0.0
  0
VERTEX
  5
272
330
26E
100
AcDbEntity
  8
001
 62
     5
370
    50
100
AcDbVertex
100
AcDb2dVertex
 10
62.129119
 20
72.70849
 30
0.0
  0
VERTEX
  5
273
330
26E
100
AcDbEntity
  8
001
 62
     5
370
    50
100
AcDbVertex
100
AcDb2dVertex
 10
62.122798
 20
72.660722
 30
0.0
  0
VERTEX
  5
274
330
26E
100
AcDbEntity
  8
001
 62
     5
370
    50
100
AcDbVertex
100
AcDb2dVertex
 10
62.121508
 20
72.616539
 30
0.0
  0
VERTEX
  5
275
330
26E
100
AcDbEntity
  8
001
 62
     5
370
    50
100
AcDbVertex
100
AcDb2dVertex
 10
62.123497
 20
72.571023
 30
0.0
  0
VERTEX
  5
276
330
26E
100
AcDbEntity
  8
001
 62
     5
370
    50
100
AcDbVertex
100
AcDb2dVertex
 10
62.129119
 20
72.524588
 30
0.0
  0
VERTEX
  5
277
330
26E
100
AcDbEntity
  8
001
 62
     5
370
    50
100
AcDbVertex
100
AcDb2dVertex
 10
62.152477
 20
72.434994
 30
0.0
  0
VERTEX
  5
278
330
26E
100
AcDbEntity
  8
001
 62
     5
370
    50
100
AcDbVertex
100
AcDb2dVertex
 10
62.18863
 20
72.351778
 30
0.0
  0
VERTEX
  5
279
330
26E
100
AcDbEntity
  8
001
 62
     5
370
    50
100
AcDbVertex
100
AcDb2dVertex
 10
62.260537
 20
72.246136
 30
0.0
  0
VERTEX
  5
27A
330
26E
100
AcDbEntity
  8
001
 62
     5
370
    50
100
AcDbVertex
100
AcDb2dVertex
 10
62.37201
 20
72.157959
 30
0.0
  0
VERTEX
  5
27B
330
26E
100
AcDbEntity
  8
001
 62
     5
370
    50
100
AcDbVertex
100
AcDb2dVertex
 10
62.409484
 20
72.137731
 30
0.0
  0
VERTEX
  5
27C
330
26E
100
AcDbEntity
  8
001
 62
     5
370
    50
100
AcDbVertex
100
AcDb2dVertex
 10
62.43645
 20
72.124887
 30
0.0
  0
SEQEND
  5
26F
330
26E
100
AcDbEntity
  8
001
370
    50
  0
POLYLINE
  5
27D
330
1CD
100
AcDbEntity
  8
001
 62
     5
370
    50
100
AcDb2dPolyline
 66
     1
 10
0.0
 20
0.0
 30
0.0
  0
VERTEX
  5
27F
330
27D
100
AcDbEntity
  8
001
 62
     5
370
    50
100
AcDbVertex
100
AcDb2dVertex
 10
61.899812
 20
73.164642
 30
0.0
  0
VERTEX
  5
280
330
27D
100
AcDbEntity
  8
001
 62
     5
370
    50
100
AcDbVertex
100
AcDb2dVertex
 10
61.880428
 20
73.16361
 30
0.0
  0
VERTEX
  5
281
330
27D
100
AcDbEntity
  8
001
 62
     5
370
    50
100
AcDbVertex
100
AcDb2dVertex
 10
61.853809
 20
73.160388
 30
0.0
  0
VERTEX
  5
282
330
27D
100
AcDbEntity
  8
001
 62
     5
370
    50
100
AcDbVertex
100
AcDb2dVertex
 10
61.830015
 20
73.154913
 30
0.0
  0
VERTEX
  5
283
330
27D
100
AcDbEntity
  8
001
 62
     5
370
    50
100
AcDbVertex
100
AcDb2dVertex
 10
61.809204
 20
73.147756
 30
0.0
  0
VERTEX
  5
284
330
27D
100
AcDbEntity
  8
001
 62
     5
370
    50
100
AcDbVertex
100
AcDb2dVertex
 10
61.788894
 20
73.139075
 30
0.0
  0
VERTEX
  5
285
330
27D
100
AcDbEntity
  8
001
 62
     5
370
    50
100
AcDbVertex
100
AcDb2dVertex
 10
61.767352
 20
73.127129
 30
0.0
  0
VERTEX
  5
286
330
27D
100
AcDbEntity
  8
001
 62
     5
370
    50
100
AcDbVertex
100
AcDb2dVertex
 10
61.748822
 20
73.114484
 30
0.0
  0
VERTEX
  5
287
330
27D
100
AcDbEntity
  8
001
 62
     5
370
    50
100
AcDbVertex
100
AcDb2dVertex
 10
61.735985
 20
73.104684
 30
0.0
  0
SEQEND
  5
27E
330
27D
100
AcDbEntity
  8
001
370
    50
  0
POLYLINE
  5
288
330
1CD
100
AcDbEntity
  8
001
 62
     5
370
    50
100
AcDb2dPolyline
 66
     1
 10
0.0
 20
0.0
 30
0.0
  0
VERTEX
  5
28A
330
288
100
AcDbEntity
  8
001
 62
     5
370
    50
100
AcDbVertex
100
AcDb2dVertex
 10
61.046103
 20
73.175802
 30
0.0
  0
VERTEX
  5
28B
330
288
100
AcDbEntity
  8
001
 62
     5
370
    50
100
AcDbVertex
100
AcDb2dVertex
 10
61.097713
 20
73.123483
 30
0.0
  0
VERTEX
  5
28C
330
288
100
AcDbEntity
  8
001
 62
     5
370
    50
100
AcDbVertex
100
AcDb2dVertex
 10
61.175662
 20
73.062237
 30
0.0
  0
VERTEX
  5
28D
330
288
100
AcDbEntity
  8
001
 62
     5
370
    50
100
AcDbVertex
100
AcDb2dVertex
 10
61.215732
 20
73.039916
 30
0.0
  0
VERTEX
  5
28E
330
288
100
AcDbEntity
  8
001
 62
     5
370
    50
100
AcDbVertex
100
AcDb2dVertex
 10
61.254811
 20
73.023228
 30
0.0
  0
VERTEX
  5
28F
330
288
100
AcDbEntity
  8
001
 62
     5
370
    50
100
AcDbVertex
100
AcDb2dVertex
 10
61.294343
 20
73.009622
 30
0.0
  0
VERTEX
  5
290
330
288
100
AcDbEntity
  8
001
 62
     5
370
    50
100
AcDbVertex
100
AcDb2dVertex
 10
61.339166
 20
72.999339
 30
0.0
  0
VERTEX
  5
291
330
288
100
AcDbEntity
  8
001
 62
     5
370
    50
100
AcDbVertex
100
AcDb2dVertex
 10
61.389471
 20
72.993259
 30
0.0
  0
VERTEX
  5
292
330
288
100
AcDbEntity
  8
001
 62
     5
370
    50
100
AcDbVertex
100
AcDb2dVertex
 10
61.426164
 20
72.991294
 30
0.0
  0
SEQEND
  5
289
330
288
100
AcDbEntity
  8
001
370
    50
  0
POLYLINE
  5
293
330
1CD
100
AcDbEntity
  8
001
 62
     5
370
    50
100
AcDb2dPolyline
 66
     1
 10
0.0
 20
0.0
 30
0.0
  0
VERTEX
  5
295
330
293
100
AcDbEntity
  8
001
 62
     5
370
    50
100
AcDbVertex
100
AcDb2dVertex
 10
60.845135
 20
73.273365
 30
0.0
  0
VERTEX
  5
296
330
293
100
AcDbEntity
  8
001
 62
     5
370
    50
100
AcDbVertex
100
AcDb2dVertex
 10
60.82571
 20
73.272298
 30
0.0
  0
VERTEX
  5
297
330
293
100
AcDbEntity
  8
001
 62
     5
370
    50
100
AcDbVertex
100
AcDb2dVertex
 10
60.799132
 20
73.269112
 30
0.0
  0
VERTEX
  5
298
330
293
100
AcDbEntity
  8
001
 62
     5
370
    50
100
AcDbVertex
100
AcDb2dVertex
 10
60.775539
 20
73.263815
 30
0.0
  0
VERTEX
  5
299
330
293
100
AcDbEntity
  8
001
 62
     5
370
    50
100
AcDbVertex
100
AcDb2dVertex
 10
60.754526
 20
73.256479
 30
0.0
  0
VERTEX
  5
29A
330
293
100
AcDbEntity
  8
001
 62
     5
370
    50
100
AcDbVertex
100
AcDb2dVertex
 10
60.733447
 20
73.247115
 30
0.0
  0
VERTEX
  5
29B
330
293
100
AcDbEntity
  8
001
 62
     5
370
    50
100
AcDbVertex
100
AcDb2dVertex
 10
60.712674
 20
73.235852
 30
0.0
  0
VERTEX
  5
29C
330
293
100
AcDbEntity
  8
001
 62
     5
370
    50
100
AcDbVertex
100
AcDb2dVertex
 10
60.657319
 20
73.191284
 30
0.0
  0
VERTEX
  5
29D
330
293
100
AcDbEntity
  8
001
 62
     5
370
    50
100
AcDbVertex
100
AcDb2dVertex
 10
60.615707
 20
73.133365
 30
0.0
  0
VERTEX
  5
29E
330
293
100
AcDbEntity
  8
001
 62
     5
370
    50
100
AcDbVertex
100
AcDb2dVertex
 10
60.596242
 20
73.088108
 30
0.0
  0
VERTEX
  5
29F
330
293
100
AcDbEntity
  8
001
 62
     5
370
    50
100
AcDbVertex
100
AcDb2dVertex
 10
60.584239
 20
73.041987
 30
0.0
  0
VERTEX
  5
2A0
330
293
100
AcDbEntity
  8
001
 62
     5
370
    50
100
AcDbVertex
100
AcDb2dVertex
 10
60.581053
 20
73.018971
 30
0.0
  0
VERTEX
  5
2A1
330
293
100
AcDbEntity
  8
001
 62
     5
370
    50
100
AcDbVertex
100
AcDb2dVertex
 10
60.580214
 20
72.993365
 30
0.0
  0
VERTEX
  5
2A2
330
293
100
AcDbEntity
  8
001
 62
     5
370
    50
100
AcDbVertex
100
AcDb2dVertex
 10
60.581331
 20
72.970131
 30
0.0
  0
VERTEX
  5
2A3
330
293
100
AcDbEntity
  8
001
 62
     5
370
    50
100
AcDbVertex
100
AcDb2dVertex
 10
60.582922
 20
72.953433
 30
0.0
  0
SEQEND
  5
294
330
293
100
AcDbEntity
  8
001
370
    50
  0
POLYLINE
  5
2A4
330
1CD
100
AcDbEntity
  8
001
 62
     5
370
    50
100
AcDb2dPolyline
 66
     1
 10
0.0
 20
0.0
 30
0.0
  0
VERTEX
  5
2A6
330
2A4
100
AcDbEntity
  8
001
 62
     5
370
    50
100
AcDbVertex
100
AcDb2dVertex
 10
60.179708
 20
72.357528
 30
0.0
  0
VERTEX
  5
2A7
330
2A4
100
AcDbEntity
  8
001
 62
     5
370
    50
100
AcDbVertex
100
AcDb2dVertex
 10
60.213067
 20
72.36596
 30
0.0
  0
VERTEX
  5
2A8
330
2A4
100
AcDbEntity
  8
001
 62
     5
370
    50
100
AcDbVertex
100
AcDb2dVertex
 10
60.258392
 20
72.380325
 30
0.0
  0
VERTEX
  5
2A9
330
2A4
100
AcDbEntity
  8
001
 62
     5
370
    50
100
AcDbVertex
100
AcDb2dVertex
 10
60.300975
 20
72.398461
 30
0.0
  0
VERTEX
  5
2AA
330
2A4
100
AcDbEntity
  8
001
 62
     5
370
    50
100
AcDbVertex
100
AcDb2dVertex
 10
60.337541
 20
72.419334
 30
0.0
  0
VERTEX
  5
2AB
330
2A4
100
AcDbEntity
  8
001
 62
     5
370
    50
100
AcDbVertex
100
AcDb2dVertex
 10
60.439445
 20
72.503183
 30
0.0
  0
VERTEX
  5
2AC
330
2A4
100
AcDbEntity
  8
001
 62
     5
370
    50
100
AcDbVertex
100
AcDb2dVertex
 10
60.520921
 20
72.613153
 30
0.0
  0
VERTEX
  5
2AD
330
2A4
100
AcDbEntity
  8
001
 62
     5
370
    50
100
AcDbVertex
100
AcDb2dVertex
 10
60.55813
 20
72.698803
 30
0.0
  0
VERTEX
  5
2AE
330
2A4
100
AcDbEntity
  8
001
 62
     5
370
    50
100
AcDbVertex
100
AcDb2dVertex
 10
60.580432
 20
72.785963
 30
0.0
  0
VERTEX
  5
2AF
330
2A4
100
AcDbEntity
  8
001
 62
     5
370
    50
100
AcDbVertex
100
AcDb2dVertex
 10
60.586418
 20
72.829484
 30
0.0
  0
VERTEX
  5
2B0
330
2A4
100
AcDbEntity
  8
001
 62
     5
370
    50
100
AcDbVertex
100
AcDb2dVertex
 10
60.588043
 20
72.877914
 30
0.0
  0
VERTEX
  5
2B1
330
2A4
100
AcDbEntity
  8
001
 62
     5
370
    50
100
AcDbVertex
100
AcDb2dVertex
 10
60.585936
 20
72.921856
 30
0.0
  0
VERTEX
  5
2B2
330
2A4
100
AcDbEntity
  8
001
 62
     5
370
    50
100
AcDbVertex
100
AcDb2dVertex
 10
60.582922
 20
72.953433
 30
0.0
  0
SEQEND
  5
2A5
330
2A4
100
AcDbEntity
  8
001
370
    50
  0
POLYLINE
  5
2B3
330
1CD
100
AcDbEntity
  8
001
 62
     5
370
    50
100
AcDb2dPolyline
 66
     1
 10
0.0
 20
0.0
 30
0.0
  0
VERTEX
  5
2B5
330
2B3
100
AcDbEntity
  8
001
 62
     5
370
    50
100
AcDbVertex
100
AcDb2dVertex
 10
60.179708
 20
72.357528
 30
0.0
  0
VERTEX
  5
2B6
330
2B3
100
AcDbEntity
  8
001
 62
     5
370
    50
100
AcDbVertex
100
AcDb2dVertex
 10
60.162069
 20
72.353067
 30
0.0
  0
VERTEX
  5
2B7
330
2B3
100
AcDbEntity
  8
001
 62
     5
370
    50
100
AcDbVertex
100
AcDb2dVertex
 10
60.138101
 20
72.345474
 30
0.0
  0
VERTEX
  5
2B8
330
2B3
100
AcDbEntity
  8
001
 62
     5
370
    50
100
AcDbVertex
100
AcDb2dVertex
 10
60.115582
 20
72.3359
 30
0.0
  0
VERTEX
  5
2B9
330
2B3
100
AcDbEntity
  8
001
 62
     5
370
    50
100
AcDbVertex
100
AcDb2dVertex
 10
60.096249
 20
72.324847
 30
0.0
  0
VERTEX
  5
2BA
330
2B3
100
AcDbEntity
  8
001
 62
     5
370
    50
100
AcDbVertex
100
AcDb2dVertex
 10
60.042412
 20
72.280191
 30
0.0
  0
VERTEX
  5
2BB
330
2B3
100
AcDbEntity
  8
001
 62
     5
370
    50
100
AcDbVertex
100
AcDb2dVertex
 10
59.999282
 20
72.22236
 30
0.0
  0
VERTEX
  5
2BC
330
2B3
100
AcDbEntity
  8
001
 62
     5
370
    50
100
AcDbVertex
100
AcDb2dVertex
 10
59.979484
 20
72.177891
 30
0.0
  0
VERTEX
  5
2BD
330
2B3
100
AcDbEntity
  8
001
 62
     5
370
    50
100
AcDbVertex
100
AcDb2dVertex
 10
59.967814
 20
72.130981
 30
0.0
  0
VERTEX
  5
2BE
330
2B3
100
AcDbEntity
  8
001
 62
     5
370
    50
100
AcDbVertex
100
AcDb2dVertex
 10
59.964831
 20
72.106743
 30
0.0
  0
VERTEX
  5
2BF
330
2B3
100
AcDbEntity
  8
001
 62
     5
370
    50
100
AcDbVertex
100
AcDb2dVertex
 10
59.963789
 20
72.08236
 30
0.0
  0
VERTEX
  5
2C0
330
2B3
100
AcDbEntity
  8
001
 62
     5
370
    50
100
AcDbVertex
100
AcDb2dVertex
 10
59.964736
 20
72.057996
 30
0.0
  0
VERTEX
  5
2C1
330
2B3
100
AcDbEntity
  8
001
 62
     5
370
    50
100
AcDbVertex
100
AcDb2dVertex
 10
59.967814
 20
72.033738
 30
0.0
  0
VERTEX
  5
2C2
330
2B3
100
AcDbEntity
  8
001
 62
     5
370
    50
100
AcDbVertex
100
AcDb2dVertex
 10
59.980235
 20
71.986561
 30
0.0
  0
VERTEX
  5
2C3
330
2B3
100
AcDbEntity
  8
001
 62
     5
370
    50
100
AcDbVertex
100
AcDb2dVertex
 10
59.999282
 20
71.94236
 30
0.0
  0
VERTEX
  5
2C4
330
2B3
100
AcDbEntity
  8
001
 62
     5
370
    50
100
AcDbVertex
100
AcDb2dVertex
 10
60.037278
 20
71.886424
 30
0.0
  0
VERTEX
  5
2C5
330
2B3
100
AcDbEntity
  8
001
 62
     5
370
    50
100
AcDbVertex
100
AcDb2dVertex
 10
60.096249
 20
71.839873
 30
0.0
  0
VERTEX
  5
2C6
330
2B3
100
AcDbEntity
  8
001
 62
     5
370
    50
100
AcDbVertex
100
AcDb2dVertex
 10
60.116065
 20
71.829179
 30
0.0
  0
VERTEX
  5
2C7
330
2B3
100
AcDbEntity
  8
001
 62
     5
370
    50
100
AcDbVertex
100
AcDb2dVertex
 10
60.130323
 20
71.822385
 30
0.0
  0
SEQEND
  5
2B4
330
2B3
100
AcDbEntity
  8
001
370
    50
  0
POLYLINE
  5
2C8
330
1CD
100
AcDbEntity
  8
001
 62
     5
370
    50
100
AcDb2dPolyline
 66
     1
 10
0.0
 20
0.0
 30
0.0
  0
VERTEX
  5
2CA
330
2C8
100
AcDbEntity
  8
001
 62
     5
370
    50
100
AcDbVertex
100
AcDb2dVertex
 10
60.416992
 20
71.155362
 30
0.0
  0
VERTEX
  5
2CB
330
2C8
100
AcDbEntity
  8
001
 62
     5
370
    50
100
AcDbVertex
100
AcDb2dVertex
 10
60.426781
 20
71.190144
 30
0.0
  0
VERTEX
  5
2CC
330
2C8
100
AcDbEntity
  8
001
 62
     5
370
    50
100
AcDbVertex
100
AcDb2dVertex
 10
60.437654
 20
71.238782
 30
0.0
  0
VERTEX
  5
2CD
330
2C8
100
AcDbEntity
  8
001
 62
     5
370
    50
100
AcDbVertex
100
AcDb2dVertex
 10
60.443976
 20
71.28655
 30
0.0
  0
VERTEX
  5
2CE
330
2C8
100
AcDbEntity
  8
001
 62
     5
370
    50
100
AcDbVertex
100
AcDb2dVertex
 10
60.445266
 20
71.330733
 30
0.0
  0
VERTEX
  5
2CF
330
2C8
100
AcDbEntity
  8
001
 62
     5
370
    50
100
AcDbVertex
100
AcDb2dVertex
 10
60.443277
 20
71.376249
 30
0.0
  0
VERTEX
  5
2D0
330
2C8
100
AcDbEntity
  8
001
 62
     5
370
    50
100
AcDbVertex
100
AcDb2dVertex
 10
60.437654
 20
71.422684
 30
0.0
  0
VERTEX
  5
2D1
330
2C8
100
AcDbEntity
  8
001
 62
     5
370
    50
100
AcDbVertex
100
AcDb2dVertex
 10
60.414296
 20
71.512278
 30
0.0
  0
VERTEX
  5
2D2
330
2C8
100
AcDbEntity
  8
001
 62
     5
370
    50
100
AcDbVertex
100
AcDb2dVertex
 10
60.378144
 20
71.595494
 30
0.0
  0
VERTEX
  5
2D3
330
2C8
100
AcDbEntity
  8
001
 62
     5
370
    50
100
AcDbVertex
100
AcDb2dVertex
 10
60.306236
 20
71.701136
 30
0.0
  0
VERTEX
  5
2D4
330
2C8
100
AcDbEntity
  8
001
 62
     5
370
    50
100
AcDbVertex
100
AcDb2dVertex
 10
60.194763
 20
71.789313
 30
0.0
  0
VERTEX
  5
2D5
330
2C8
100
AcDbEntity
  8
001
 62
     5
370
    50
100
AcDbVertex
100
AcDb2dVertex
 10
60.15729
 20
71.809541
 30
0.0
  0
VERTEX
  5
2D6
330
2C8
100
AcDbEntity
  8
001
 62
     5
370
    50
100
AcDbVertex
100
AcDb2dVertex
 10
60.130323
 20
71.822385
 30
0.0
  0
SEQEND
  5
2C9
330
2C8
100
AcDbEntity
  8
001
370
    50
  0
POLYLINE
  5
2D7
330
1CD
100
AcDbEntity
  8
001
 62
     5
370
    50
100
AcDb2dPolyline
 66
     1
 10
0.0
 20
0.0
 30
0.0
  0
VERTEX
  5
2D9
330
2D7
100
AcDbEntity
  8
001
 62
     5
370
    50
100
AcDbVertex
100
AcDb2dVertex
 10
61.445259
 20
69.923636
 30
0.0
  0
VERTEX
  5
2DA
330
2D7
100
AcDbEntity
  8
001
 62
     5
370
    50
100
AcDbVertex
100
AcDb2dVertex
 10
61.587473
 20
69.931443
 30
0.0
  0
VERTEX
  5
2DB
330
2D7
100
AcDbEntity
  8
001
 62
     5
370
    50
100
AcDbVertex
100
AcDb2dVertex
 10
61.782066
 20
69.95478
 30
0.0
  0
VERTEX
  5
2DC
330
2D7
100
AcDbEntity
  8
001
 62
     5
370
    50
100
AcDbVertex
100
AcDb2dVertex
 10
61.954795
 20
69.993592
 30
0.0
  0
VERTEX
  5
2DD
330
2D7
100
AcDbEntity
  8
001
 62
     5
370
    50
100
AcDbVertex
100
AcDb2dVertex
 10
62.10864
 20
70.047266
 30
0.0
  0
VERTEX
  5
2DE
330
2D7
100
AcDbEntity
  8
001
 62
     5
370
    50
100
AcDbVertex
100
AcDb2dVertex
 10
62.262985
 20
70.115706
 30
0.0
  0
VERTEX
  5
2DF
330
2D7
100
AcDbEntity
  8
001
 62
     5
370
    50
100
AcDbVertex
100
AcDb2dVertex
 10
62.415057
 20
70.198284
 30
0.0
  0
VERTEX
  5
2E0
330
2D7
100
AcDbEntity
  8
001
 62
     5
370
    50
100
AcDbVertex
100
AcDb2dVertex
 10
62.820023
 20
70.526914
 30
0.0
  0
VERTEX
  5
2E1
330
2D7
100
AcDbEntity
  8
001
 62
     5
370
    50
100
AcDbVertex
100
AcDb2dVertex
 10
63.124999
 20
70.948636
 30
0.0
  0
VERTEX
  5
2E2
330
2D7
100
AcDbEntity
  8
001
 62
     5
370
    50
100
AcDbVertex
100
AcDb2dVertex
 10
63.268323
 20
71.273999
 30
0.0
  0
VERTEX
  5
2E3
330
2D7
100
AcDbEntity
  8
001
 62
     5
370
    50
100
AcDbVertex
100
AcDb2dVertex
 10
63.355388
 20
71.617657
 30
0.0
  0
VERTEX
  5
2E4
330
2D7
100
AcDbEntity
  8
001
 62
     5
370
    50
100
AcDbVertex
100
AcDb2dVertex
 10
63.377491
 20
71.795088
 30
0.0
  0
VERTEX
  5
2E5
330
2D7
100
AcDbEntity
  8
001
 62
     5
370
    50
100
AcDbVertex
100
AcDb2dVertex
 10
63.384855
 20
71.973636
 30
0.0
  0
VERTEX
  5
2E6
330
2D7
100
AcDbEntity
  8
001
 62
     5
370
    50
100
AcDbVertex
100
AcDb2dVertex
 10
63.377491
 20
72.152184
 30
0.0
  0
VERTEX
  5
2E7
330
2D7
100
AcDbEntity
  8
001
 62
     5
370
    50
100
AcDbVertex
100
AcDb2dVertex
 10
63.355388
 20
72.329615
 30
0.0
  0
VERTEX
  5
2E8
330
2D7
100
AcDbEntity
  8
001
 62
     5
370
    50
100
AcDbVertex
100
AcDb2dVertex
 10
63.268323
 20
72.673273
 30
0.0
  0
VERTEX
  5
2E9
330
2D7
100
AcDbEntity
  8
001
 62
     5
370
    50
100
AcDbVertex
100
AcDb2dVertex
 10
63.124999
 20
72.998636
 30
0.0
  0
VERTEX
  5
2EA
330
2D7
100
AcDbEntity
  8
001
 62
     5
370
    50
100
AcDbVertex
100
AcDb2dVertex
 10
62.820023
 20
73.420358
 30
0.0
  0
VERTEX
  5
2EB
330
2D7
100
AcDbEntity
  8
001
 62
     5
370
    50
100
AcDbVertex
100
AcDb2dVertex
 10
62.415057
 20
73.748988
 30
0.0
  0
VERTEX
  5
2EC
330
2D7
100
AcDbEntity
  8
001
 62
     5
370
    50
100
AcDbVertex
100
AcDb2dVertex
 10
62.262985
 20
73.831566
 30
0.0
  0
VERTEX
  5
2ED
330
2D7
100
AcDbEntity
  8
001
 62
     5
370
    50
100
AcDbVertex
100
AcDb2dVertex
 10
62.10864
 20
73.900006
 30
0.0
  0
VERTEX
  5
2EE
330
2D7
100
AcDbEntity
  8
001
 62
     5
370
    50
100
AcDbVertex
100
AcDb2dVertex
 10
61.954795
 20
73.95368
 30
0.0
  0
VERTEX
  5
2EF
330
2D7
100
AcDbEntity
  8
001
 62
     5
370
    50
100
AcDbVertex
100
AcDb2dVertex
 10
61.782066
 20
73.992492
 30
0.0
  0
VERTEX
  5
2F0
330
2D7
100
AcDbEntity
  8
001
 62
     5
370
    50
100
AcDbVertex
100
AcDb2dVertex
 10
61.587473
 20
74.015829
 30
0.0
  0
VERTEX
  5
2F1
330
2D7
100
AcDbEntity
  8
001
 62
     5
370
    50
100
AcDbVertex
100
AcDb2dVertex
 10
61.445259
 20
74.023636
 30
0.0
  0
SEQEND
  5
2D8
330
2D7
100
AcDbEntity
  8
001
370
    50
  0
POLYLINE
  5
2F2
330
1CD
100
AcDbEntity
  8
001
 62
     5
370
    50
100
AcDb2dPolyline
 66
     1
 10
0.0
 20
0.0
 30
0.0
  0
VERTEX
  5
2F4
330
2F2
100
AcDbEntity
  8
001
 62
     5
370
    50
100
AcDbVertex
100
AcDb2dVertex
 10
61.768021
 20
73.975024
 30
0.0
  0
VERTEX
  5
2F5
330
2F2
100
AcDbEntity
  8
001
 62
     5
370
    50
100
AcDbVertex
100
AcDb2dVertex
 10
61.734351
 20
73.98254
 30
0.0
  0
VERTEX
  5
2F6
330
2F2
100
AcDbEntity
  8
001
 62
     5
370
    50
100
AcDbVertex
100
AcDb2dVertex
 10
61.684943
 20
73.992492
 30
0.0
  0
VERTEX
  5
2F7
330
2F2
100
AcDbEntity
  8
001
 62
     5
370
    50
100
AcDbVertex
100
AcDb2dVertex
 10
61.485745
 20
74.017739
 30
0.0
  0
VERTEX
  5
2F8
330
2F2
100
AcDbEntity
  8
001
 62
     5
370
    50
100
AcDbVertex
100
AcDb2dVertex
 10
61.348135
 20
74.023636
 30
0.0
  0
SEQEND
  5
2F3
330
2F2
100
AcDbEntity
  8
001
370
    50
  0
POLYLINE
  5
2F9
330
1CD
100
AcDbEntity
  8
001
 62
     5
370
    50
100
AcDb2dPolyline
 66
     1
 10
0.0
 20
0.0
 30
0.0
  0
VERTEX
  5
2FB
330
2F9
100
AcDbEntity
  8
001
 62
     5
370
    50
100
AcDbVertex
100
AcDb2dVertex
 10
60.922946
 20
69.973499
 30
0.0
  0
VERTEX
  5
2FC
330
2F9
100
AcDbEntity
  8
001
 62
     5
370
    50
100
AcDbVertex
100
AcDb2dVertex
 10
60.95876
 20
69.965419
 30
0.0
  0
VERTEX
  5
2FD
330
2F9
100
AcDbEntity
  8
001
 62
     5
370
    50
100
AcDbVertex
100
AcDb2dVertex
 10
61.011328
 20
69.95478
 30
0.0
  0
VERTEX
  5
2FE
330
2F9
100
AcDbEntity
  8
001
 62
     5
370
    50
100
AcDbVertex
100
AcDb2dVertex
 10
61.210525
 20
69.929534
 30
0.0
  0
VERTEX
  5
2FF
330
2F9
100
AcDbEntity
  8
001
 62
     5
370
    50
100
AcDbVertex
100
AcDb2dVertex
 10
61.348135
 20
69.923636
 30
0.0
  0
SEQEND
  5
2FA
330
2F9
100
AcDbEntity
  8
001
370
    50
  0
LINE
  5
300
330
1CD
100
AcDbEntity
  8
001
 62
     5
370
    50
100
AcDbLine
 10
61.348135
 20
69.923636
 30
0.0
 11
61.445259
 21
69.923636
 31
0.0
  0
LINE
  5
301
330
1CD
100
AcDbEntity
  8
001
 62
     5
370
    50
100
AcDbLine
 10
61.445259
 20
74.023636
 30
0.0
 11
61.348135
 21
74.023636
 31
0.0
  0
POLYLINE
  5
302
330
1CD
100
AcDbEntity
  8
001
 62
     5
370
    50
100
AcDb2dPolyline
 66
     1
 10
0.0
 20
0.0
 30
0.0
  0
VERTEX
  5
304
330
302
100
AcDbEntity
  8
001
 62
     5
370
    50
100
AcDbVertex
100
AcDb2dVertex
 10
62.149782
 20
72.79191
 30
0.0
  0
VERTEX
  5
305
330
302
100
AcDbEntity
  8
001
 62
     5
370
    50
100
AcDbVertex
100
AcDb2dVertex
 10
62.154956
 20
72.810302
 30
0.0
  0
VERTEX
  5
306
330
302
100
AcDbEntity
  8
001
 62
     5
370
    50
100
AcDbVertex
100
AcDb2dVertex
 10
62.160708
 20
72.83602
 30
0.0
  0
VERTEX
  5
307
330
302
100
AcDbEntity
  8
001
 62
     5
370
    50
100
AcDbVertex
100
AcDb2dVertex
 10
62.164064
 20
72.861272
 30
0.0
  0
VERTEX
  5
308
330
302
100
AcDbEntity
  8
001
 62
     5
370
    50
100
AcDbVertex
100
AcDb2dVertex
 10
62.164732
 20
72.884642
 30
0.0
  0
VERTEX
  5
309
330
302
100
AcDbEntity
  8
001
 62
     5
370
    50
100
AcDbVertex
100
AcDb2dVertex
 10
62.163628
 20
72.908733
 30
0.0
  0
VERTEX
  5
30A
330
302
100
AcDbEntity
  8
001
 62
     5
370
    50
100
AcDbVertex
100
AcDb2dVertex
 10
62.160708
 20
72.933263
 30
0.0
  0
VERTEX
  5
30B
330
302
100
AcDbEntity
  8
001
 62
     5
370
    50
100
AcDbVertex
100
AcDb2dVertex
 10
62.148881
 20
72.9804
 30
0.0
  0
VERTEX
  5
30C
330
302
100
AcDbEntity
  8
001
 62
     5
370
    50
100
AcDbVertex
100
AcDb2dVertex
 10
62.12924
 20
73.024642
 30
0.0
  0
VERTEX
  5
30D
330
302
100
AcDbEntity
  8
001
 62
     5
370
    50
100
AcDbVertex
100
AcDb2dVertex
 10
62.087559
 20
73.082166
 30
0.0
  0
VERTEX
  5
30E
330
302
100
AcDbEntity
  8
001
 62
     5
370
    50
100
AcDbVertex
100
AcDb2dVertex
 10
62.032272
 20
73.127129
 30
0.0
  0
VERTEX
  5
30F
330
302
100
AcDbEntity
  8
001
 62
     5
370
    50
100
AcDbVertex
100
AcDb2dVertex
 10
62.011503
 20
73.138412
 30
0.0
  0
VERTEX
  5
310
330
302
100
AcDbEntity
  8
001
 62
     5
370
    50
100
AcDbVertex
100
AcDb2dVertex
 10
61.99042
 20
73.147756
 30
0.0
  0
VERTEX
  5
311
330
302
100
AcDbEntity
  8
001
 62
     5
370
    50
100
AcDbVertex
100
AcDb2dVertex
 10
61.969407
 20
73.155086
 30
0.0
  0
VERTEX
  5
312
330
302
100
AcDbEntity
  8
001
 62
     5
370
    50
100
AcDbVertex
100
AcDb2dVertex
 10
61.945815
 20
73.160388
 30
0.0
  0
VERTEX
  5
313
330
302
100
AcDbEntity
  8
001
 62
     5
370
    50
100
AcDbVertex
100
AcDb2dVertex
 10
61.919236
 20
73.163575
 30
0.0
  0
VERTEX
  5
314
330
302
100
AcDbEntity
  8
001
 62
     5
370
    50
100
AcDbVertex
100
AcDb2dVertex
 10
61.899812
 20
73.164642
 30
0.0
  0
SEQEND
  5
303
330
302
100
AcDbEntity
  8
001
370
    50
  0
POLYLINE
  5
315
330
1CD
100
AcDbEntity
  8
001
 62
     5
370
    50
100
AcDb2dPolyline
 66
     1
 10
0.0
 20
0.0
 30
0.0
  0
VERTEX
  5
317
330
315
100
AcDbEntity
  8
001
 62
     5
370
    50
100
AcDbVertex
100
AcDb2dVertex
 10
61.52067
 20
70.77147
 30
0.0
  0
VERTEX
  5
318
330
315
100
AcDbEntity
  8
001
 62
     5
370
    50
100
AcDbVertex
100
AcDb2dVertex
 10
61.547961
 20
70.743805
 30
0.0
  0
VERTEX
  5
319
330
315
100
AcDbEntity
  8
001
 62
     5
370
    50
100
AcDbVertex
100
AcDb2dVertex
 10
61.589178
 20
70.71142
 30
0.0
  0
VERTEX
  5
31A
330
315
100
AcDbEntity
  8
001
 62
     5
370
    50
100
AcDbVertex
100
AcDb2dVertex
 10
61.610367
 20
70.699617
 30
0.0
  0
VERTEX
  5
31B
330
315
100
AcDbEntity
  8
001
 62
     5
370
    50
100
AcDbVertex
100
AcDb2dVertex
 10
61.63103
 20
70.690793
 30
0.0
  0
VERTEX
  5
31C
330
315
100
AcDbEntity
  8
001
 62
     5
370
    50
100
AcDbVertex
100
AcDb2dVertex
 10
61.651935
 20
70.683598
 30
0.0
  0
VERTEX
  5
31D
330
315
100
AcDbEntity
  8
001
 62
     5
370
    50
100
AcDbVertex
100
AcDb2dVertex
 10
61.675636
 20
70.678161
 30
0.0
  0
VERTEX
  5
31E
330
315
100
AcDbEntity
  8
001
 62
     5
370
    50
100
AcDbVertex
100
AcDb2dVertex
 10
61.702236
 20
70.674946
 30
0.0
  0
VERTEX
  5
31F
330
315
100
AcDbEntity
  8
001
 62
     5
370
    50
100
AcDbVertex
100
AcDb2dVertex
 10
61.721639
 20
70.673907
 30
0.0
  0
SEQEND
  5
316
330
315
100
AcDbEntity
  8
001
370
    50
  0
POLYLINE
  5
320
330
1CD
100
AcDbEntity
  8
001
 62
     5
370
    50
100
AcDb2dPolyline
 66
     1
 10
0.0
 20
0.0
 30
0.0
  0
VERTEX
  5
322
330
320
100
AcDbEntity
  8
001
 62
     5
370
    50
100
AcDbVertex
100
AcDb2dVertex
 10
61.906839
 20
70.77147
 30
0.0
  0
VERTEX
  5
323
330
320
100
AcDbEntity
  8
001
 62
     5
370
    50
100
AcDbVertex
100
AcDb2dVertex
 10
61.908409
 20
70.769558
 30
0.0
  0
VERTEX
  5
324
330
320
100
AcDbEntity
  8
001
 62
     5
370
    50
100
AcDbVertex
100
AcDb2dVertex
 10
61.910732
 20
70.766786
 30
0.0
  0
VERTEX
  5
325
330
320
100
AcDbEntity
  8
001
 62
     5
370
    50
100
AcDbVertex
100
AcDb2dVertex
 10
61.913091
 20
70.764051
 30
0.0
  0
VERTEX
  5
326
330
320
100
AcDbEntity
  8
001
 62
     5
370
    50
100
AcDbVertex
100
AcDb2dVertex
 10
61.914723
 20
70.762195
 30
0.0
  0
SEQEND
  5
321
330
320
100
AcDbEntity
  8
001
370
    50
  0
POLYLINE
  5
327
330
1CD
100
AcDbEntity
  8
001
 62
     5
370
    50
100
AcDb2dPolyline
 66
     1
 10
0.0
 20
0.0
 30
0.0
  0
VERTEX
  5
329
330
327
100
AcDbEntity
  8
001
 62
     5
370
    50
100
AcDbVertex
100
AcDb2dVertex
 10
61.426164
 20
72.991294
 30
0.0
  0
VERTEX
  5
32A
330
327
100
AcDbEntity
  8
001
 62
     5
370
    50
100
AcDbVertex
100
AcDb2dVertex
 10
61.462823
 20
72.993245
 30
0.0
  0
VERTEX
  5
32B
330
327
100
AcDbEntity
  8
001
 62
     5
370
    50
100
AcDbVertex
100
AcDb2dVertex
 10
61.513163
 20
72.999339
 30
0.0
  0
VERTEX
  5
32C
330
327
100
AcDbEntity
  8
001
 62
     5
370
    50
100
AcDbVertex
100
AcDb2dVertex
 10
61.55816
 20
73.009693
 30
0.0
  0
VERTEX
  5
32D
330
327
100
AcDbEntity
  8
001
 62
     5
370
    50
100
AcDbVertex
100
AcDb2dVertex
 10
61.597518
 20
73.023228
 30
0.0
  0
VERTEX
  5
32E
330
327
100
AcDbEntity
  8
001
 62
     5
370
    50
100
AcDbVertex
100
AcDb2dVertex
 10
61.635927
 20
73.039645
 30
0.0
  0
VERTEX
  5
32F
330
327
100
AcDbEntity
  8
001
 62
     5
370
    50
100
AcDbVertex
100
AcDb2dVertex
 10
61.676667
 20
73.062237
 30
0.0
  0
VERTEX
  5
330
330
327
100
AcDbEntity
  8
001
 62
     5
370
    50
100
AcDbVertex
100
AcDb2dVertex
 10
61.711709
 20
73.08615
 30
0.0
  0
VERTEX
  5
331
330
327
100
AcDbEntity
  8
001
 62
     5
370
    50
100
AcDbVertex
100
AcDb2dVertex
 10
61.735985
 20
73.104684
 30
0.0
  0
SEQEND
  5
328
330
327
100
AcDbEntity
  8
001
370
    50
  0
LINE
  5
332
330
1CD
100
AcDbEntity
  8
001
 62
     5
370
    50
100
AcDbLine
 10
61.426164
 20
72.991294
 30
0.0
 11
61.812333
 21
72.991294
 31
0.0
  0
POLYLINE
  5
333
330
1CD
100
AcDbEntity
  8
001
 62
     5
370
    50
100
AcDb2dPolyline
 66
     1
 10
0.0
 20
0.0
 30
0.0
  0
VERTEX
  5
335
330
333
100
AcDbEntity
  8
001
 62
     5
370
    50
100
AcDbVertex
100
AcDb2dVertex
 10
61.812333
 20
72.991294
 30
0.0
  0
VERTEX
  5
336
330
333
100
AcDbEntity
  8
001
 62
     5
370
    50
100
AcDbVertex
100
AcDb2dVertex
 10
61.848963
 20
72.993234
 30
0.0
  0
VERTEX
  5
337
330
333
100
AcDbEntity
  8
001
 62
     5
370
    50
100
AcDbVertex
100
AcDb2dVertex
 10
61.899332
 20
72.999339
 30
0.0
  0
VERTEX
  5
338
330
333
100
AcDbEntity
  8
001
 62
     5
370
    50
100
AcDbVertex
100
AcDb2dVertex
 10
61.944472
 20
73.00975
 30
0.0
  0
VERTEX
  5
339
330
333
100
AcDbEntity
  8
001
 62
     5
370
    50
100
AcDbVertex
100
AcDb2dVertex
 10
61.983687
 20
73.023228
 30
0.0
  0
VERTEX
  5
33A
330
333
100
AcDbEntity
  8
001
 62
     5
370
    50
100
AcDbVertex
100
AcDb2dVertex
 10
62.021546
 20
73.039426
 30
0.0
  0
VERTEX
  5
33B
330
333
100
AcDbEntity
  8
001
 62
     5
370
    50
100
AcDbVertex
100
AcDb2dVertex
 10
62.062836
 20
73.062237
 30
0.0
  0
VERTEX
  5
33C
330
333
100
AcDbEntity
  8
001
 62
     5
370
    50
100
AcDbVertex
100
AcDb2dVertex
 10
62.078711
 20
73.072428
 30
0.0
  0
VERTEX
  5
33D
330
333
100
AcDbEntity
  8
001
 62
     5
370
    50
100
AcDbVertex
100
AcDb2dVertex
 10
62.089723
 20
73.079863
 30
0.0
  0
SEQEND
  5
334
330
333
100
AcDbEntity
  8
001
370
    50
  0
POLYLINE
  5
33E
330
1CD
100
AcDbEntity
  8
001
 62
     5
370
    50
100
AcDb2dPolyline
 66
     1
 10
0.0
 20
0.0
 30
0.0
  0
VERTEX
  5
340
330
33E
100
AcDbEntity
  8
001
 62
     5
370
    50
100
AcDbVertex
100
AcDb2dVertex
 10
61.140609
 20
70.955978
 30
0.0
  0
VERTEX
  5
341
330
33E
100
AcDbEntity
  8
001
 62
     5
370
    50
100
AcDbVertex
100
AcDb2dVertex
 10
61.10395
 20
70.954027
 30
0.0
  0
VERTEX
  5
342
330
33E
100
AcDbEntity
  8
001
 62
     5
370
    50
100
AcDbVertex
100
AcDb2dVertex
 10
61.05361
 20
70.947933
 30
0.0
  0
VERTEX
  5
343
330
33E
100
AcDbEntity
  8
001
 62
     5
370
    50
100
AcDbVertex
100
AcDb2dVertex
 10
61.008613
 20
70.937579
 30
0.0
  0
VERTEX
  5
344
330
33E
100
AcDbEntity
  8
001
 62
     5
370
    50
100
AcDbVertex
100
AcDb2dVertex
 10
60.969255
 20
70.924044
 30
0.0
  0
VERTEX
  5
345
330
33E
100
AcDbEntity
  8
001
 62
     5
370
    50
100
AcDbVertex
100
AcDb2dVertex
 10
60.930847
 20
70.907627
 30
0.0
  0
VERTEX
  5
346
330
33E
100
AcDbEntity
  8
001
 62
     5
370
    50
100
AcDbVertex
100
AcDb2dVertex
 10
60.890106
 20
70.885035
 30
0.0
  0
VERTEX
  5
347
330
33E
100
AcDbEntity
  8
001
 62
     5
370
    50
100
AcDbVertex
100
AcDb2dVertex
 10
60.855064
 20
70.861122
 30
0.0
  0
VERTEX
  5
348
330
33E
100
AcDbEntity
  8
001
 62
     5
370
    50
100
AcDbVertex
100
AcDb2dVertex
 10
60.830788
 20
70.842588
 30
0.0
  0
SEQEND
  5
33F
330
33E
100
AcDbEntity
  8
001
370
    50
  0
POLYLINE
  5
349
330
1CD
100
AcDbEntity
  8
001
 62
     5
370
    50
100
AcDb2dPolyline
 66
     1
 10
0.0
 20
0.0
 30
0.0
  0
VERTEX
  5
34B
330
349
100
AcDbEntity
  8
001
 62
     5
370
    50
100
AcDbVertex
100
AcDb2dVertex
 10
61.906839
 20
70.77147
 30
0.0
  0
VERTEX
  5
34C
330
349
100
AcDbEntity
  8
001
 62
     5
370
    50
100
AcDbVertex
100
AcDb2dVertex
 10
61.855229
 20
70.823789
 30
0.0
  0
VERTEX
  5
34D
330
349
100
AcDbEntity
  8
001
 62
     5
370
    50
100
AcDbVertex
100
AcDb2dVertex
 10
61.77728
 20
70.885035
 30
0.0
  0
VERTEX
  5
34E
330
349
100
AcDbEntity
  8
001
 62
     5
370
    50
100
AcDbVertex
100
AcDb2dVertex
 10
61.73721
 20
70.907356
 30
0.0
  0
VERTEX
  5
34F
330
349
100
AcDbEntity
  8
001
 62
     5
370
    50
100
AcDbVertex
100
AcDb2dVertex
 10
61.698131
 20
70.924044
 30
0.0
  0
VERTEX
  5
350
330
349
100
AcDbEntity
  8
001
 62
     5
370
    50
100
AcDbVertex
100
AcDb2dVertex
 10
61.658599
 20
70.93765
 30
0.0
  0
VERTEX
  5
351
330
349
100
AcDbEntity
  8
001
 62
     5
370
    50
100
AcDbVertex
100
AcDb2dVertex
 10
61.613776
 20
70.947933
 30
0.0
  0
VERTEX
  5
352
330
349
100
AcDbEntity
  8
001
 62
     5
370
    50
100
AcDbVertex
100
AcDb2dVertex
 10
61.563471
 20
70.954013
 30
0.0
  0
VERTEX
  5
353
330
349
100
AcDbEntity
  8
001
 62
     5
370
    50
100
AcDbVertex
100
AcDb2dVertex
 10
61.526778
 20
70.955978
 30
0.0
  0
SEQEND
  5
34A
330
349
100
AcDbEntity
  8
001
370
    50
  0
LINE
  5
354
330
1CD
100
AcDbEntity
  8
001
 62
     5
370
    50
100
AcDbLine
 10
61.526778
 20
70.955978
 30
0.0
 11
61.140609
 21
70.955978
 31
0.0
  0
POLYLINE
  5
355
330
1CD
100
AcDbEntity
  8
001
 62
     5
370
    50
100
AcDb2dPolyline
 66
     1
 10
0.0
 20
0.0
 30
0.0
  0
VERTEX
  5
357
330
355
100
AcDbEntity
  8
001
 62
     5
370
    50
100
AcDbVertex
100
AcDb2dVertex
 10
61.046103
 20
73.175802
 30
0.0
  0
VERTEX
  5
358
330
355
100
AcDbEntity
  8
001
 62
     5
370
    50
100
AcDbVertex
100
AcDb2dVertex
 10
61.018812
 20
73.203467
 30
0.0
  0
VERTEX
  5
359
330
355
100
AcDbEntity
  8
001
 62
     5
370
    50
100
AcDbVertex
100
AcDb2dVertex
 10
60.977595
 20
73.235852
 30
0.0
  0
VERTEX
  5
35A
330
355
100
AcDbEntity
  8
001
 62
     5
370
    50
100
AcDbVertex
100
AcDb2dVertex
 10
60.956407
 20
73.247655
 30
0.0
  0
VERTEX
  5
35B
330
355
100
AcDbEntity
  8
001
 62
     5
370
    50
100
AcDbVertex
100
AcDb2dVertex
 10
60.935743
 20
73.256479
 30
0.0
  0
VERTEX
  5
35C
330
355
100
AcDbEntity
  8
001
 62
     5
370
    50
100
AcDbVertex
100
AcDb2dVertex
 10
60.914839
 20
73.263674
 30
0.0
  0
VERTEX
  5
35D
330
355
100
AcDbEntity
  8
001
 62
     5
370
    50
100
AcDbVertex
100
AcDb2dVertex
 10
60.891138
 20
73.269112
 30
0.0
  0
VERTEX
  5
35E
330
355
100
AcDbEntity
  8
001
 62
     5
370
    50
100
AcDbVertex
100
AcDb2dVertex
 10
60.864537
 20
73.272326
 30
0.0
  0
VERTEX
  5
35F
330
355
100
AcDbEntity
  8
001
 62
     5
370
    50
100
AcDbVertex
100
AcDb2dVertex
 10
60.845135
 20
73.273365
 30
0.0
  0
SEQEND
  5
356
330
355
100
AcDbEntity
  8
001
370
    50
  0
POLYLINE
  5
360
330
1CD
100
AcDbEntity
  8
001
 62
     5
370
    50
100
AcDb2dPolyline
 66
     1
 10
0.0
 20
0.0
 30
0.0
  0
VERTEX
  5
362
330
360
100
AcDbEntity
  8
001
 62
     5
370
    50
100
AcDbVertex
100
AcDb2dVertex
 10
61.038219
 20
73.185077
 30
0.0
  0
VERTEX
  5
363
330
360
100
AcDbEntity
  8
001
 62
     5
370
    50
100
AcDbVertex
100
AcDb2dVertex
 10
61.022036
 20
73.164237
 30
0.0
  0
VERTEX
  5
364
330
360
100
AcDbEntity
  8
001
 62
     5
370
    50
100
AcDbVertex
100
AcDb2dVertex
 10
61.001876
 20
73.133365
 30
0.0
  0
VERTEX
  5
365
330
360
100
AcDbEntity
  8
001
 62
     5
370
    50
100
AcDbVertex
100
AcDb2dVertex
 10
60.980943
 20
73.086569
 30
0.0
  0
VERTEX
  5
366
330
360
100
AcDbEntity
  8
001
 62
     5
370
    50
100
AcDbVertex
100
AcDb2dVertex
 10
60.970408
 20
73.041987
 30
0.0
  0
VERTEX
  5
367
330
360
100
AcDbEntity
  8
001
 62
     5
370
    50
100
AcDbVertex
100
AcDb2dVertex
 10
60.967362
 20
73.019117
 30
0.0
  0
VERTEX
  5
368
330
360
100
AcDbEntity
  8
001
 62
     5
370
    50
100
AcDbVertex
100
AcDb2dVertex
 10
60.966383
 20
72.993365
 30
0.0
  0
VERTEX
  5
369
330
360
100
AcDbEntity
  8
001
 62
     5
370
    50
100
AcDbVertex
100
AcDb2dVertex
 10
60.967479
 20
72.970108
 30
0.0
  0
VERTEX
  5
36A
330
360
100
AcDbEntity
  8
001
 62
     5
370
    50
100
AcDbVertex
100
AcDb2dVertex
 10
60.969091
 20
72.953433
 30
0.0
  0
SEQEND
  5
361
330
360
100
AcDbEntity
  8
001
370
    50
  0
POLYLINE
  5
36B
330
1CD
100
AcDbEntity
  8
001
 62
     5
370
    50
100
AcDb2dPolyline
 66
     1
 10
0.0
 20
0.0
 30
0.0
  0
VERTEX
  5
36D
330
36B
100
AcDbEntity
  8
001
 62
     5
370
    50
100
AcDbVertex
100
AcDb2dVertex
 10
60.416992
 20
71.155362
 30
0.0
  0
VERTEX
  5
36E
330
36B
100
AcDbEntity
  8
001
 62
     5
370
    50
100
AcDbVertex
100
AcDb2dVertex
 10
60.411818
 20
71.13697
 30
0.0
  0
VERTEX
  5
36F
330
36B
100
AcDbEntity
  8
001
 62
     5
370
    50
100
AcDbVertex
100
AcDb2dVertex
 10
60.406066
 20
71.111252
 30
0.0
  0
VERTEX
  5
370
330
36B
100
AcDbEntity
  8
001
 62
     5
370
    50
100
AcDbVertex
100
AcDb2dVertex
 10
60.402709
 20
71.086
 30
0.0
  0
VERTEX
  5
371
330
36B
100
AcDbEntity
  8
001
 62
     5
370
    50
100
AcDbVertex
100
AcDb2dVertex
 10
60.402041
 20
71.06263
 30
0.0
  0
VERTEX
  5
372
330
36B
100
AcDbEntity
  8
001
 62
     5
370
    50
100
AcDbVertex
100
AcDb2dVertex
 10
60.403145
 20
71.038539
 30
0.0
  0
VERTEX
  5
373
330
36B
100
AcDbEntity
  8
001
 62
     5
370
    50
100
AcDbVertex
100
AcDb2dVertex
 10
60.406066
 20
71.014009
 30
0.0
  0
VERTEX
  5
374
330
36B
100
AcDbEntity
  8
001
 62
     5
370
    50
100
AcDbVertex
100
AcDb2dVertex
 10
60.417892
 20
70.966872
 30
0.0
  0
VERTEX
  5
375
330
36B
100
AcDbEntity
  8
001
 62
     5
370
    50
100
AcDbVertex
100
AcDb2dVertex
 10
60.437534
 20
70.92263
 30
0.0
  0
VERTEX
  5
376
330
36B
100
AcDbEntity
  8
001
 62
     5
370
    50
100
AcDbVertex
100
AcDb2dVertex
 10
60.479214
 20
70.865106
 30
0.0
  0
VERTEX
  5
377
330
36B
100
AcDbEntity
  8
001
 62
     5
370
    50
100
AcDbVertex
100
AcDb2dVertex
 10
60.534501
 20
70.820143
 30
0.0
  0
VERTEX
  5
378
330
36B
100
AcDbEntity
  8
001
 62
     5
370
    50
100
AcDbVertex
100
AcDb2dVertex
 10
60.555271
 20
70.80886
 30
0.0
  0
VERTEX
  5
379
330
36B
100
AcDbEntity
  8
001
 62
     5
370
    50
100
AcDbVertex
100
AcDb2dVertex
 10
60.576353
 20
70.799516
 30
0.0
  0
VERTEX
  5
37A
330
36B
100
AcDbEntity
  8
001
 62
     5
370
    50
100
AcDbVertex
100
AcDb2dVertex
 10
60.597367
 20
70.792186
 30
0.0
  0
VERTEX
  5
37B
330
36B
100
AcDbEntity
  8
001
 62
     5
370
    50
100
AcDbVertex
100
AcDb2dVertex
 10
60.620958
 20
70.786884
 30
0.0
  0
VERTEX
  5
37C
330
36B
100
AcDbEntity
  8
001
 62
     5
370
    50
100
AcDbVertex
100
AcDb2dVertex
 10
60.647537
 20
70.783697
 30
0.0
  0
VERTEX
  5
37D
330
36B
100
AcDbEntity
  8
001
 62
     5
370
    50
100
AcDbVertex
100
AcDb2dVertex
 10
60.666961
 20
70.78263
 30
0.0
  0
SEQEND
  5
36C
330
36B
100
AcDbEntity
  8
001
370
    50
  0
POLYLINE
  5
37E
330
1CD
100
AcDbEntity
  8
001
 62
     5
370
    50
100
AcDb2dPolyline
 66
     1
 10
0.0
 20
0.0
 30
0.0
  0
VERTEX
  5
380
330
37E
100
AcDbEntity
  8
001
 62
     5
370
    50
100
AcDbVertex
100
AcDb2dVertex
 10
60.80316
 20
71.155362
 30
0.0
  0
VERTEX
  5
381
330
37E
100
AcDbEntity
  8
001
 62
     5
370
    50
100
AcDbVertex
100
AcDb2dVertex
 10
60.797993
 20
71.136962
 30
0.0
  0
VERTEX
  5
382
330
37E
100
AcDbEntity
  8
001
 62
     5
370
    50
100
AcDbVertex
100
AcDb2dVertex
 10
60.792235
 20
71.111252
 30
0.0
  0
VERTEX
  5
383
330
37E
100
AcDbEntity
  8
001
 62
     5
370
    50
100
AcDbVertex
100
AcDb2dVertex
 10
60.788841
 20
71.086041
 30
0.0
  0
VERTEX
  5
384
330
37E
100
AcDbEntity
  8
001
 62
     5
370
    50
100
AcDbVertex
100
AcDb2dVertex
 10
60.78821
 20
71.06263
 30
0.0
  0
VERTEX
  5
385
330
37E
100
AcDbEntity
  8
001
 62
     5
370
    50
100
AcDbVertex
100
AcDb2dVertex
 10
60.789457
 20
71.038382
 30
0.0
  0
VERTEX
  5
386
330
37E
100
AcDbEntity
  8
001
 62
     5
370
    50
100
AcDbVertex
100
AcDb2dVertex
 10
60.792235
 20
71.014009
 30
0.0
  0
VERTEX
  5
387
330
37E
100
AcDbEntity
  8
001
 62
     5
370
    50
100
AcDbVertex
100
AcDb2dVertex
 10
60.802614
 20
70.968451
 30
0.0
  0
VERTEX
  5
388
330
37E
100
AcDbEntity
  8
001
 62
     5
370
    50
100
AcDbVertex
100
AcDb2dVertex
 10
60.823702
 20
70.92263
 30
0.0
  0
VERTEX
  5
389
330
37E
100
AcDbEntity
  8
001
 62
     5
370
    50
100
AcDbVertex
100
AcDb2dVertex
 10
60.845557
 20
70.889728
 30
0.0
  0
VERTEX
  5
38A
330
37E
100
AcDbEntity
  8
001
 62
     5
370
    50
100
AcDbVertex
100
AcDb2dVertex
 10
60.863219
 20
70.867409
 30
0.0
  0
SEQEND
  5
37F
330
37E
100
AcDbEntity
  8
001
370
    50
  0
POLYLINE
  5
38B
330
1CD
100
AcDbEntity
  8
001
 62
     5
370
    50
100
AcDb2dPolyline
 66
     1
 10
0.0
 20
0.0
 30
0.0
  0
VERTEX
  5
38D
330
38B
100
AcDbEntity
  8
001
 62
     5
370
    50
100
AcDbVertex
100
AcDb2dVertex
 10
60.565877
 20
72.357528
 30
0.0
  0
VERTEX
  5
38E
330
38B
100
AcDbEntity
  8
001
 62
     5
370
    50
100
AcDbVertex
100
AcDb2dVertex
 10
60.599236
 20
72.36596
 30
0.0
  0
VERTEX
  5
38F
330
38B
100
AcDbEntity
  8
001
 62
     5
370
    50
100
AcDbVertex
100
AcDb2dVertex
 10
60.644561
 20
72.380325
 30
0.0
  0
VERTEX
  5
390
330
38B
100
AcDbEntity
  8
001
 62
     5
370
    50
100
AcDbVertex
100
AcDb2dVertex
 10
60.687144
 20
72.398461
 30
0.0
  0
VERTEX
  5
391
330
38B
100
AcDbEntity
  8
001
 62
     5
370
    50
100
AcDbVertex
100
AcDb2dVertex
 10
60.72371
 20
72.419334
 30
0.0
  0
VERTEX
  5
392
330
38B
100
AcDbEntity
  8
001
 62
     5
370
    50
100
AcDbVertex
100
AcDb2dVertex
 10
60.825614
 20
72.503183
 30
0.0
  0
VERTEX
  5
393
330
38B
100
AcDbEntity
  8
001
 62
     5
370
    50
100
AcDbVertex
100
AcDb2dVertex
 10
60.90709
 20
72.613153
 30
0.0
  0
VERTEX
  5
394
330
38B
100
AcDbEntity
  8
001
 62
     5
370
    50
100
AcDbVertex
100
AcDb2dVertex
 10
60.944298
 20
72.698803
 30
0.0
  0
VERTEX
  5
395
330
38B
100
AcDbEntity
  8
001
 62
     5
370
    50
100
AcDbVertex
100
AcDb2dVertex
 10
60.966601
 20
72.785963
 30
0.0
  0
VERTEX
  5
396
330
38B
100
AcDbEntity
  8
001
 62
     5
370
    50
100
AcDbVertex
100
AcDb2dVertex
 10
60.972587
 20
72.829484
 30
0.0
  0
VERTEX
  5
397
330
38B
100
AcDbEntity
  8
001
 62
     5
370
    50
100
AcDbVertex
100
AcDb2dVertex
 10
60.974212
 20
72.877914
 30
0.0
  0
VERTEX
  5
398
330
38B
100
AcDbEntity
  8
001
 62
     5
370
    50
100
AcDbVertex
100
AcDb2dVertex
 10
60.972105
 20
72.921856
 30
0.0
  0
VERTEX
  5
399
330
38B
100
AcDbEntity
  8
001
 62
     5
370
    50
100
AcDbVertex
100
AcDb2dVertex
 10
60.969091
 20
72.953433
 30
0.0
  0
SEQEND
  5
38C
330
38B
100
AcDbEntity
  8
001
370
    50
  0
POLYLINE
  5
39A
330
1CD
100
AcDbEntity
  8
001
 62
     5
370
    50
100
AcDb2dPolyline
 66
     1
 10
0.0
 20
0.0
 30
0.0
  0
VERTEX
  5
39C
330
39A
100
AcDbEntity
  8
001
 62
     5
370
    50
100
AcDbVertex
100
AcDb2dVertex
 10
60.80316
 20
71.155362
 30
0.0
  0
VERTEX
  5
39D
330
39A
100
AcDbEntity
  8
001
 62
     5
370
    50
100
AcDbVertex
100
AcDb2dVertex
 10
60.81295
 20
71.190144
 30
0.0
  0
VERTEX
  5
39E
330
39A
100
AcDbEntity
  8
001
 62
     5
370
    50
100
AcDbVertex
100
AcDb2dVertex
 10
60.823823
 20
71.238782
 30
0.0
  0
VERTEX
  5
39F
330
39A
100
AcDbEntity
  8
001
 62
     5
370
    50
100
AcDbVertex
100
AcDb2dVertex
 10
60.830145
 20
71.28655
 30
0.0
  0
VERTEX
  5
3A0
330
39A
100
AcDbEntity
  8
001
 62
     5
370
    50
100
AcDbVertex
100
AcDb2dVertex
 10
60.831434
 20
71.330733
 30
0.0
  0
VERTEX
  5
3A1
330
39A
100
AcDbEntity
  8
001
 62
     5
370
    50
100
AcDbVertex
100
AcDb2dVertex
 10
60.829446
 20
71.376249
 30
0.0
  0
VERTEX
  5
3A2
330
39A
100
AcDbEntity
  8
001
 62
     5
370
    50
100
AcDbVertex
100
AcDb2dVertex
 10
60.823823
 20
71.422684
 30
0.0
  0
VERTEX
  5
3A3
330
39A
100
AcDbEntity
  8
001
 62
     5
370
    50
100
AcDbVertex
100
AcDb2dVertex
 10
60.800465
 20
71.512278
 30
0.0
  0
VERTEX
  5
3A4
330
39A
100
AcDbEntity
  8
001
 62
     5
370
    50
100
AcDbVertex
100
AcDb2dVertex
 10
60.764312
 20
71.595494
 30
0.0
  0
VERTEX
  5
3A5
330
39A
100
AcDbEntity
  8
001
 62
     5
370
    50
100
AcDbVertex
100
AcDb2dVertex
 10
60.692405
 20
71.701136
 30
0.0
  0
VERTEX
  5
3A6
330
39A
100
AcDbEntity
  8
001
 62
     5
370
    50
100
AcDbVertex
100
AcDb2dVertex
 10
60.580932
 20
71.789313
 30
0.0
  0
VERTEX
  5
3A7
330
39A
100
AcDbEntity
  8
001
 62
     5
370
    50
100
AcDbVertex
100
AcDb2dVertex
 10
60.543458
 20
71.809541
 30
0.0
  0
VERTEX
  5
3A8
330
39A
100
AcDbEntity
  8
001
 62
     5
370
    50
100
AcDbVertex
100
AcDb2dVertex
 10
60.516492
 20
71.822385
 30
0.0
  0
SEQEND
  5
39B
330
39A
100
AcDbEntity
  8
001
370
    50
  0
POLYLINE
  5
3A9
330
1CD
100
AcDbEntity
  8
001
 62
     5
370
    50
100
AcDb2dPolyline
 66
     1
 10
0.0
 20
0.0
 30
0.0
  0
VERTEX
  5
3AB
330
3A9
100
AcDbEntity
  8
001
 62
     5
370
    50
100
AcDbVertex
100
AcDb2dVertex
 10
60.565877
 20
72.357528
 30
0.0
  0
VERTEX
  5
3AC
330
3A9
100
AcDbEntity
  8
001
 62
     5
370
    50
100
AcDbVertex
100
AcDb2dVertex
 10
60.548238
 20
72.353067
 30
0.0
  0
VERTEX
  5
3AD
330
3A9
100
AcDbEntity
  8
001
 62
     5
370
    50
100
AcDbVertex
100
AcDb2dVertex
 10
60.52427
 20
72.345474
 30
0.0
  0
VERTEX
  5
3AE
330
3A9
100
AcDbEntity
  8
001
 62
     5
370
    50
100
AcDbVertex
100
AcDb2dVertex
 10
60.501751
 20
72.3359
 30
0.0
  0
VERTEX
  5
3AF
330
3A9
100
AcDbEntity
  8
001
 62
     5
370
    50
100
AcDbVertex
100
AcDb2dVertex
 10
60.482418
 20
72.324847
 30
0.0
  0
VERTEX
  5
3B0
330
3A9
100
AcDbEntity
  8
001
 62
     5
370
    50
100
AcDbVertex
100
AcDb2dVertex
 10
60.428581
 20
72.280191
 30
0.0
  0
VERTEX
  5
3B1
330
3A9
100
AcDbEntity
  8
001
 62
     5
370
    50
100
AcDbVertex
100
AcDb2dVertex
 10
60.38545
 20
72.22236
 30
0.0
  0
VERTEX
  5
3B2
330
3A9
100
AcDbEntity
  8
001
 62
     5
370
    50
100
AcDbVertex
100
AcDb2dVertex
 10
60.365653
 20
72.177891
 30
0.0
  0
VERTEX
  5
3B3
330
3A9
100
AcDbEntity
  8
001
 62
     5
370
    50
100
AcDbVertex
100
AcDb2dVertex
 10
60.353983
 20
72.130981
 30
0.0
  0
VERTEX
  5
3B4
330
3A9
100
AcDbEntity
  8
001
 62
     5
370
    50
100
AcDbVertex
100
AcDb2dVertex
 10
60.351
 20
72.106743
 30
0.0
  0
VERTEX
  5
3B5
330
3A9
100
AcDbEntity
  8
001
 62
     5
370
    50
100
AcDbVertex
100
AcDb2dVertex
 10
60.349958
 20
72.08236
 30
0.0
  0
VERTEX
  5
3B6
330
3A9
100
AcDbEntity
  8
001
 62
     5
370
    50
100
AcDbVertex
100
AcDb2dVertex
 10
60.350905
 20
72.057996
 30
0.0
  0
VERTEX
  5
3B7
330
3A9
100
AcDbEntity
  8
001
 62
     5
370
    50
100
AcDbVertex
100
AcDb2dVertex
 10
60.353983
 20
72.033738
 30
0.0
  0
VERTEX
  5
3B8
330
3A9
100
AcDbEntity
  8
001
 62
     5
370
    50
100
AcDbVertex
100
AcDb2dVertex
 10
60.366404
 20
71.986561
 30
0.0
  0
VERTEX
  5
3B9
330
3A9
100
AcDbEntity
  8
001
 62
     5
370
    50
100
AcDbVertex
100
AcDb2dVertex
 10
60.38545
 20
71.94236
 30
0.0
  0
VERTEX
  5
3BA
330
3A9
100
AcDbEntity
  8
001
 62
     5
370
    50
100
AcDbVertex
100
AcDb2dVertex
 10
60.423447
 20
71.886424
 30
0.0
  0
VERTEX
  5
3BB
330
3A9
100
AcDbEntity
  8
001
 62
     5
370
    50
100
AcDbVertex
100
AcDb2dVertex
 10
60.482418
 20
71.839873
 30
0.0
  0
VERTEX
  5
3BC
330
3A9
100
AcDbEntity
  8
001
 62
     5
370
    50
100
AcDbVertex
100
AcDb2dVertex
 10
60.502234
 20
71.829179
 30
0.0
  0
VERTEX
  5
3BD
330
3A9
100
AcDbEntity
  8
001
 62
     5
370
    50
100
AcDbVertex
100
AcDb2dVertex
 10
60.516492
 20
71.822385
 30
0.0
  0
SEQEND
  5
3AA
330
3A9
100
AcDbEntity
  8
001
370
    50
  0
ENDBLK
  5
1CF
330
1CD
100
AcDbEntity
  8
0
100
AcDbBlockEnd
  0
BLOCK
  5
3BF
330
3BE
100
AcDbEntity
  8
0
100
AcDbBlockBegin
  2
*D3
 70
     1
 10
0.0
 20
0.0
 30
0.0
  3
*D3
  1

  0
LINE
  5
3C1
330
3BE
100
AcDbEntity
  8
001
370
     9
100
AcDbLine
 10
54.637133
 20
60.445457
 30
0.0
 11
54.637133
 21
47.063188
 31
0.0
  0
LINE
  5
3C2
330
3BE
100
AcDbEntity
  8
001
370
     9
100
AcDbLine
 10
60.493931
 20
65.864746
 30
0.0
 11
60.493931
 21
47.063188
 31
0.0
  0
LINE
  5
3C3
330
3BE
100
AcDbEntity
  8
001
370
     9
100
AcDbLine
 10
54.637133
 20
49.813188
 30
0.0
 11
60.493931
 21
49.813188
 31
0.0
  0
POLYLINE
  5
3C4
330
3BE
100
AcDbEntity
  8
001
370
     9
100
AcDb2dPolyline
 66
     1
 10
0.0
 20
0.0
 30
0.0
  0
VERTEX
  5
3C6
330
3C4
100
AcDbEntity
  8
001
370
     9
100
AcDbVertex
100
AcDb2dVertex
 10
53.137133
 20
50.215112
 30
0.0
  0
VERTEX
  5
3C7
330
3C4
100
AcDbEntity
  8
001
370
     9
100
AcDbVertex
100
AcDb2dVertex
 10
54.637133
 20
49.813188
 30
0.0
  0
VERTEX
  5
3C8
330
3C4
100
AcDbEntity
  8
001
370
     9
100
AcDbVertex
100
AcDb2dVertex
 10
53.137133
 20
49.411264
 30
0.0
  0
SEQEND
  5
3C5
330
3C4
100
AcDbEntity
  8
001
370
     9
  0
POLYLINE
  5
3C9
330
3BE
100
AcDbEntity
  8
001
370
     9
100
AcDb2dPolyline
 66
     1
 10
0.0
 20
0.0
 30
0.0
  0
VERTEX
  5
3CB
330
3C9
100
AcDbEntity
  8
001
370
     9
100
AcDbVertex
100
AcDb2dVertex
 10
61.993931
 20
49.411264
 30
0.0
  0
VERTEX
  5
3CC
330
3C9
100
AcDbEntity
  8
001
370
     9
100
AcDbVertex
100
AcDb2dVertex
 10
60.493931
 20
49.813188
 30
0.0
  0
VERTEX
  5
3CD
330
3C9
100
AcDbEntity
  8
001
370
     9
100
AcDbVertex
100
AcDb2dVertex
 10
61.993931
 20
50.215112
 30
0.0
  0
SEQEND
  5
3CA
330
3C9
100
AcDbEntity
  8
001
370
     9
  0
TEXT
  5
3CE
330
3BE
100
AcDbEntity
  8
001
370
    30
100
AcDbText
 10
31.137133
 20
50.813188
 30
0.0
 40
4.0
  1
（５．９）
 41
0.833333
100
AcDbText
  0
POINT
  5
3CF
330
3BE
100
AcDbEntity
  8
001
370
     9
100
AcDbPoint
 10
54.637133
 20
60.445457
 30
0.0
  0
POINT
  5
3D0
330
3BE
100
AcDbEntity
  8
001
370
     9
100
AcDbPoint
 10
60.493931
 20
65.864746
 30
0.0
  0
POINT
  5
3D1
330
3BE
100
AcDbEntity
  8
001
370
     9
100
AcDbPoint
 10
60.493931
 20
49.813188
 30
0.0
  0
LINE
  5
3D2
330
3BE
100
AcDbEntity
  8
001
370
     9
100
AcDbLine
 10
54.637133
 20
49.813188
 30
0.0
 11
28.137133
 21
49.813188
 31
0.0
  0
LINE
  5
3D3
330
3BE
100
AcDbEntity
  8
001
370
     9
100
AcDbLine
 10
60.493931
 20
49.813188
 30
0.0
 11
62.993931
 21
49.813188
 31
0.0
  0
ENDBLK
  5
3C0
330
3BE
100
AcDbEntity
  8
0
100
AcDbBlockEnd
  0
BLOCK
  5
3D5
330
3D4
100
AcDbEntity
  8
0
100
AcDbBlockBegin
  2
*D4
 70
     1
 10
0.0
 20
0.0
 30
0.0
  3
*D4
  1

  0
LINE
  5
3D7
330
3D4
100
AcDbEntity
  8
001
370
     9
100
AcDbLine
 10
84.637133
 20
65.939219
 30
0.0
 11
84.637133
 21
37.106867
 31
0.0
  0
LINE
  5
3D8
330
3D4
100
AcDbEntity
  8
001
370
     9
100
AcDbLine
 10
54.637133
 20
60.445457
 30
0.0
 11
54.637133
 21
37.106867
 31
0.0
  0
LINE
  5
3D9
330
3D4
100
AcDbEntity
  8
001
370
     9
100
AcDbLine
 10
84.637133
 20
39.856867
 30
0.0
 11
54.637133
 21
39.856867
 31
0.0
  0
POLYLINE
  5
3DA
330
3D4
100
AcDbEntity
  8
001
370
     9
100
AcDb2dPolyline
 66
     1
 10
0.0
 20
0.0
 30
0.0
  0
VERTEX
  5
3DC
330
3DA
100
AcDbEntity
  8
001
370
     9
100
AcDbVertex
100
AcDb2dVertex
 10
83.137133
 20
40.258791
 30
0.0
  0
VERTEX
  5
3DD
330
3DA
100
AcDbEntity
  8
001
370
     9
100
AcDbVertex
100
AcDb2dVertex
 10
84.637133
 20
39.856867
 30
0.0
  0
VERTEX
  5
3DE
330
3DA
100
AcDbEntity
  8
001
370
     9
100
AcDbVertex
100
AcDb2dVertex
 10
83.137133
 20
39.454943
 30
0.0
  0
SEQEND
  5
3DB
330
3DA
100
AcDbEntity
  8
001
370
     9
  0
POLYLINE
  5
3DF
330
3D4
100
AcDbEntity
  8
001
370
     9
100
AcDb2dPolyline
 66
     1
 10
0.0
 20
0.0
 30
0.0
  0
VERTEX
  5
3E1
330
3DF
100
AcDbEntity
  8
001
370
     9
100
AcDbVertex
100
AcDb2dVertex
 10
56.137133
 20
39.454943
 30
0.0
  0
VERTEX
  5
3E2
330
3DF
100
AcDbEntity
  8
001
370
     9
100
AcDbVertex
100
AcDb2dVertex
 10
54.637133
 20
39.856867
 30
0.0
  0
VERTEX
  5
3E3
330
3DF
100
AcDbEntity
  8
001
370
     9
100
AcDbVertex
100
AcDb2dVertex
 10
56.137133
 20
40.258791
 30
0.0
  0
SEQEND
  5
3E0
330
3DF
100
AcDbEntity
  8
001
370
     9
  0
TEXT
  5
3E4
330
3D4
100
AcDbEntity
  8
001
370
    30
100
AcDbText
 10
69.386235
 20
40.856867
 30
0.0
 40
4.0
  1
３０
 41
0.833333
100
AcDbText
  0
POINT
  5
3E5
330
3D4
100
AcDbEntity
  8
001
370
     9
100
AcDbPoint
 10
84.637133
 20
65.939219
 30
0.0
  0
POINT
  5
3E6
330
3D4
100
AcDbEntity
  8
001
370
     9
100
AcDbPoint
 10
54.637133
 20
60.445457
 30
0.0
  0
POINT
  5
3E7
330
3D4
100
AcDbEntity
  8
001
370
     9
100
AcDbPoint
 10
54.637133
 20
39.856867
 30
0.0
  0
ENDBLK
  5
3D6
330
3D4
100
AcDbEntity
  8
0
100
AcDbBlockEnd
  0
BLOCK
  5
3E9
330
3E8
100
AcDbEntity
  8
0
100
AcDbBlockBegin
  2
*D5
 70
     1
 10
0.0
 20
0.0
 30
0.0
  3
*D5
  1

  0
LINE
  5
3EB
330
3E8
100
AcDbEntity
  8
001
370
     9
100
AcDbLine
 10
60.493931
 20
65.864746
 30
0.0
 11
75.57014
 21
48.654115
 31
0.0
  0
LINE
  5
3EC
330
3E8
100
AcDbEntity
  8
001
370
     9
100
AcDbLine
 10
54.637133
 20
60.445457
 30
0.0
 11
54.637133
 21
40.782207
 31
0.0
  0
ARC
  5
3ED
330
3E8
100
AcDbEntity
  8
001
370
     9
100
AcDbCircle
 10
54.637133
 20
72.550724
 30
0.0
 40
29.0185174998893
100
AcDbArc
 50
270.0
 51
311.217786
  0
POLYLINE
  5
3EE
330
3E8
100
AcDbEntity
  8
001
370
     9
100
AcDb2dPolyline
 66
     1
 10
0.0
 20
0.0
 30
0.0
  0
VERTEX
  5
3F0
330
3EE
100
AcDbEntity
  8
001
370
     9
100
AcDbVertex
100
AcDb2dVertex
 10
75.133059
 20
51.444521
 30
0.0
  0
VERTEX
  5
3F1
330
3EE
100
AcDbEntity
  8
001
370
     9
100
AcDbVertex
100
AcDb2dVertex
 10
73.758101
 20
50.722694
 30
0.0
  0
VERTEX
  5
3F2
330
3EE
100
AcDbEntity
  8
001
370
     9
100
AcDbVertex
100
AcDb2dVertex
 10
74.587936
 20
52.035293
 30
0.0
  0
SEQEND
  5
3EF
330
3EE
100
AcDbEntity
  8
001
370
     9
  0
POLYLINE
  5
3F3
330
3E8
100
AcDbEntity
  8
001
370
     9
100
AcDb2dPolyline
 66
     1
 10
0.0
 20
0.0
 30
0.0
  0
VERTEX
  5
3F5
330
3F3
100
AcDbEntity
  8
001
370
     9
100
AcDbVertex
100
AcDb2dVertex
 10
53.14802
 20
43.97276
 30
0.0
  0
VERTEX
  5
3F6
330
3F3
100
AcDbEntity
  8
001
370
     9
100
AcDbVertex
100
AcDb2dVertex
 10
54.637133
 20
43.532207
 30
0.0
  0
VERTEX
  5
3F7
330
3F3
100
AcDbEntity
  8
001
370
     9
100
AcDbVertex
100
AcDb2dVertex
 10
53.127247
 20
43.169181
 30
0.0
  0
SEQEND
  5
3F4
330
3F3
100
AcDbEntity
  8
001
370
     9
  0
TEXT
  5
3F8
330
3E8
100
AcDbEntity
  8
001
370
    30
100
AcDbText
 10
75.005783
 20
52.397426
 30
0.0
 40
4.0
  1
４０%%d
 50
57.391491
 41
0.978261
100
AcDbText
  0
POINT
  5
3F9
330
3E8
100
AcDbEntity
  8
001
370
     9
100
AcDbPoint
 10
60.493931
 20
65.864746
 30
0.0
  0
POINT
  5
3FA
330
3E8
100
AcDbEntity
  8
001
370
     9
100
AcDbPoint
 10
54.637133
 20
72.550724
 30
0.0
  0
POINT
  5
3FB
330
3E8
100
AcDbEntity
  8
001
370
     9
100
AcDbPoint
 10
54.637133
 20
72.550724
 30
0.0
  0
POINT
  5
3FC
330
3E8
100
AcDbEntity
  8
001
370
     9
100
AcDbPoint
 10
54.637133
 20
60.445457
 30
0.0
  0
ARC
  5
3FD
330
3E8
100
AcDbEntity
  8
001
370
     9
100
AcDbCircle
 10
54.637133
 20
72.550724
 30
0.0
 40
29.0185174998893
100
AcDbArc
 50
265.063861
 51
270.0
  0
ARC
  5
3FE
330
3E8
100
AcDbEntity
  8
001
370
     9
100
AcDbCircle
 10
54.637133
 20
72.550724
 30
0.0
 40
29.0185174998893
100
AcDbArc
 50
311.217786
 51
339.238226
  0
ENDBLK
  5
3EA
330
3E8
100
AcDbEntity
  8
0
100
AcDbBlockEnd
  0
BLOCK
  5
400
330
3FF
100
AcDbEntity
  8
0
100
AcDbBlockBegin
  2
*D6
 70
     1
 10
0.0
 20
0.0
 30
0.0
  3
*D6
  1

  0
LINE
  5
402
330
3FF
100
AcDbEntity
  8
001
370
     9
100
AcDbLine
 10
54.637133
 20
60.445457
 30
0.0
 11
54.637133
 21
26.435849
 31
0.0
  0
LINE
  5
403
330
3FF
100
AcDbEntity
  8
001
370
     9
100
AcDbLine
 10
179.637133
 20
68.939219
 30
0.0
 11
179.637133
 21
26.435849
 31
0.0
  0
LINE
  5
404
330
3FF
100
AcDbEntity
  8
001
370
     9
100
AcDbLine
 10
54.637133
 20
29.185849
 30
0.0
 11
179.637133
 21
29.185849
 31
0.0
  0
POLYLINE
  5
405
330
3FF
100
AcDbEntity
  8
001
370
     9
100
AcDb2dPolyline
 66
     1
 10
0.0
 20
0.0
 30
0.0
  0
VERTEX
  5
407
330
405
100
AcDbEntity
  8
001
370
     9
100
AcDbVertex
100
AcDb2dVertex
 10
56.137133
 20
28.783925
 30
0.0
  0
VERTEX
  5
408
330
405
100
AcDbEntity
  8
001
370
     9
100
AcDbVertex
100
AcDb2dVertex
 10
54.637133
 20
29.185849
 30
0.0
  0
VERTEX
  5
409
330
405
100
AcDbEntity
  8
001
370
     9
100
AcDbVertex
100
AcDb2dVertex
 10
56.137133
 20
29.587773
 30
0.0
  0
SEQEND
  5
406
330
405
100
AcDbEntity
  8
001
370
     9
  0
POLYLINE
  5
40A
330
3FF
100
AcDbEntity
  8
001
370
     9
100
AcDb2dPolyline
 66
     1
 10
0.0
 20
0.0
 30
0.0
  0
VERTEX
  5
40C
330
40A
100
AcDbEntity
  8
001
370
     9
100
AcDbVertex
100
AcDb2dVertex
 10
178.137133
 20
29.587773
 30
0.0
  0
VERTEX
  5
40D
330
40A
100
AcDbEntity
  8
001
370
     9
100
AcDbVertex
100
AcDb2dVertex
 10
179.637133
 20
29.185849
 30
0.0
  0
VERTEX
  5
40E
330
40A
100
AcDbEntity
  8
001
370
     9
100
AcDbVertex
100
AcDb2dVertex
 10
178.137133
 20
28.783925
 30
0.0
  0
SEQEND
  5
40B
330
40A
100
AcDbEntity
  8
001
370
     9
  0
TEXT
  5
40F
330
3FF
100
AcDbEntity
  8
001
370
    30
100
AcDbText
 10
111.137133
 20
30.185849
 30
0.0
 40
4.0
  1
１２５
 41
0.833333
100
AcDbText
  0
POINT
  5
410
330
3FF
100
AcDbEntity
  8
001
370
     9
100
AcDbPoint
 10
54.637133
 20
60.445457
 30
0.0
  0
POINT
  5
411
330
3FF
100
AcDbEntity
  8
001
370
     9
100
AcDbPoint
 10
179.637133
 20
68.939219
 30
0.0
  0
POINT
  5
412
330
3FF
100
AcDbEntity
  8
001
370
     9
100
AcDbPoint
 10
179.637133
 20
29.185849
 30
0.0
  0
ENDBLK
  5
401
330
3FF
100
AcDbEntity
  8
0
100
AcDbBlockEnd
  0
BLOCK
  5
414
330
413
100
AcDbEntity
  8
0
100
AcDbBlockBegin
  2
*D7
 70
     1
 10
0.0
 20
0.0
 30
0.0
  3
*D7
  1

  0
LINE
  5
416
330
413
100
AcDbEntity
  8
001
370
     9
100
AcDbLine
 10
179.637133
 20
68.939219
 30
0.0
 11
179.637133
 21
37.106867
 31
0.0
  0
LINE
  5
417
330
413
100
AcDbEntity
  8
001
370
     9
100
AcDbLine
 10
84.637133
 20
65.239219
 30
0.0
 11
84.637133
 21
37.106867
 31
0.0
  0
LINE
  5
418
330
413
100
AcDbEntity
  8
001
370
     9
100
AcDbLine
 10
179.637133
 20
39.856867
 30
0.0
 11
84.637133
 21
39.856867
 31
0.0
  0
POLYLINE
  5
419
330
413
100
AcDbEntity
  8
001
370
     9
100
AcDb2dPolyline
 66
     1
 10
0.0
 20
0.0
 30
0.0
  0
VERTEX
  5
41B
330
419
100
AcDbEntity
  8
001
370
     9
100
AcDbVertex
100
AcDb2dVertex
 10
178.137133
 20
40.258791
 30
0.0
  0
VERTEX
  5
41C
330
419
100
AcDbEntity
  8
001
370
     9
100
AcDbVertex
100
AcDb2dVertex
 10
179.637133
 20
39.856867
 30
0.0
  0
VERTEX
  5
41D
330
419
100
AcDbEntity
  8
001
370
     9
100
AcDbVertex
100
AcDb2dVertex
 10
178.137133
 20
39.454943
 30
0.0
  0
SEQEND
  5
41A
330
419
100
AcDbEntity
  8
001
370
     9
  0
POLYLINE
  5
41E
330
413
100
AcDbEntity
  8
001
370
     9
100
AcDb2dPolyline
 66
     1
 10
0.0
 20
0.0
 30
0.0
  0
VERTEX
  5
420
330
41E
100
AcDbEntity
  8
001
370
     9
100
AcDbVertex
100
AcDb2dVertex
 10
86.137133
 20
39.454943
 30
0.0
  0
VERTEX
  5
421
330
41E
100
AcDbEntity
  8
001
370
     9
100
AcDbVertex
100
AcDb2dVertex
 10
84.637133
 20
39.856867
 30
0.0
  0
VERTEX
  5
422
330
41E
100
AcDbEntity
  8
001
370
     9
100
AcDbVertex
100
AcDb2dVertex
 10
86.137133
 20
40.258791
 30
0.0
  0
SEQEND
  5
41F
330
41E
100
AcDbEntity
  8
001
370
     9
  0
TEXT
  5
423
330
413
100
AcDbEntity
  8
001
370
    30
100
AcDbText
 10
128.137133
 20
40.856867
 30
0.0
 40
4.0
  1
９５
 41
0.833333
100
AcDbText
  0
POINT
  5
424
330
413
100
AcDbEntity
  8
001
370
     9
100
AcDbPoint
 10
179.637133
 20
68.939219
 30
0.0
  0
POINT
  5
425
330
413
100
AcDbEntity
  8
001
370
     9
100
AcDbPoint
 10
84.637133
 20
65.239219
 30
0.0
  0
POINT
  5
426
330
413
100
AcDbEntity
  8
001
370
     9
100
AcDbPoint
 10
84.637133
 20
39.856867
 30
0.0
  0
ENDBLK
  5
415
330
413
100
AcDbEntity
  8
0
100
AcDbBlockEnd
  0
BLOCK
  5
428
330
427
100
AcDbEntity
  8
0
100
AcDbBlockBegin
  2
*D8
 70
     1
 10
0.0
 20
0.0
 30
0.0
  3
*D8
  1

  0
LINE
  5
42A
330
427
100
AcDbEntity
  8
001
370
     9
100
AcDbLine
 10
173.637133
 20
82.939219
 30
0.0
 11
205.043023
 21
82.939219
 31
0.0
  0
LINE
  5
42B
330
427
100
AcDbEntity
  8
001
370
     9
100
AcDbLine
 10
173.637133
 20
62.939219
 30
0.0
 11
205.043023
 21
62.939219
 31
0.0
  0
LINE
  5
42C
330
427
100
AcDbEntity
  8
001
370
     9
100
AcDbLine
 10
202.293023
 20
82.939219
 30
0.0
 11
202.293023
 21
62.939219
 31
0.0
  0
POLYLINE
  5
42D
330
427
100
AcDbEntity
  8
001
370
     9
100
AcDb2dPolyline
 66
     1
 10
0.0
 20
0.0
 30
0.0
  0
VERTEX
  5
42F
330
42D
100
AcDbEntity
  8
001
370
     9
100
AcDbVertex
100
AcDb2dVertex
 10
201.891099
 20
81.439219
 30
0.0
  0
VERTEX
  5
430
330
42D
100
AcDbEntity
  8
001
370
     9
100
AcDbVertex
100
AcDb2dVertex
 10
202.293023
 20
82.939219
 30
0.0
  0
VERTEX
  5
431
330
42D
100
AcDbEntity
  8
001
370
     9
100
AcDbVertex
100
AcDb2dVertex
 10
202.694947
 20
81.439219
 30
0.0
  0
SEQEND
  5
42E
330
42D
100
AcDbEntity
  8
001
370
     9
  0
POLYLINE
  5
432
330
427
100
AcDbEntity
  8
001
370
     9
100
AcDb2dPolyline
 66
     1
 10
0.0
 20
0.0
 30
0.0
  0
VERTEX
  5
434
330
432
100
AcDbEntity
  8
001
370
     9
100
AcDbVertex
100
AcDb2dVertex
 10
202.694947
 20
64.439219
 30
0.0
  0
VERTEX
  5
435
330
432
100
AcDbEntity
  8
001
370
     9
100
AcDbVertex
100
AcDb2dVertex
 10
202.293023
 20
62.939219
 30
0.0
  0
VERTEX
  5
436
330
432
100
AcDbEntity
  8
001
370
     9
100
AcDbVertex
100
AcDb2dVertex
 10
201.891099
 20
64.439219
 30
0.0
  0
SEQEND
  5
433
330
432
100
AcDbEntity
  8
001
370
     9
  0
TEXT
  5
437
330
427
100
AcDbEntity
  8
001
370
    30
100
AcDbText
 10
201.293023
 20
47.439219
 30
0.0
 40
4.0
  1
%%c２０
 50
90.000003
 41
0.882353
100
AcDbText
  0
POINT
  5
438
330
427
100
AcDbEntity
  8
001
370
     9
100
AcDbPoint
 10
173.637133
 20
82.939219
 30
0.0
  0
POINT
  5
439
330
427
100
AcDbEntity
  8
001
370
     9
100
AcDbPoint
 10
173.637133
 20
62.939219
 30
0.0
  0
POINT
  5
43A
330
427
100
AcDbEntity
  8
001
370
     9
100
AcDbPoint
 10
202.293023
 20
62.939219
 30
0.0
  0
LINE
  5
43B
330
427
100
AcDbEntity
  8
001
370
     9
100
AcDbLine
 10
202.293023
 20
62.939219
 30
0.0
 11
202.293023
 21
44.439219
 31
0.0
  0
ENDBLK
  5
429
330
427
100
AcDbEntity
  8
0
100
AcDbBlockEnd
  0
ENDSEC
  0
SECTION
  2
ENTITIES
  0
INSERT
  5
43C
330
1F
100
AcDbEntity
  8
001
  6
ByBlock
 62
     0
370
    -2
100
AcDbBlockReference
  2
C32GUX-1
 10
0.0
 20
0.0
 30
0.0
  0
INSERT
  5
43D
330
1F
100
AcDbEntity
  8
001
  6
ByBlock
 62
     0
370
    -2
100
AcDbBlockReference
  2
M-1-2
 10
0.0
 20
0.0
 30
0.0
  0
DIMENSION
  5
43E
330
1F
100
AcDbEntity
  8
001
370
     9
100
AcDbDimension
  2
*D3
 10
60.493931
 20
49.813188
 30
0.0
 11
41.137133
 21
52.813188
 31
0.0
 70
   160
 71
     5
 42
-1.0
  3
Standard
100
AcDbAlignedDimension
 13
54.637133
 23
60.445457
 33
0.0
 14
60.493931
 24
65.864746
 34
0.0
100
AcDbRotatedDimension
  0
DIMENSION
  5
43F
330
1F
100
AcDbEntity
  8
001
370
     9
100
AcDbDimension
  2
*D4
 10
54.637133
 20
39.856867
 30
0.0
 11
73.386235
 21
42.856867
 31
0.0
 70
   160
 71
     5
 42
-1.0
  3
Standard
100
AcDbAlignedDimension
 13
84.637133
 23
65.939219
 33
0.0
 14
54.637133
 24
60.445457
 34
0.0
 50
180.0
100
AcDbRotatedDimension
  0
DIMENSION
  5
440
330
1F
100
AcDbEntity
  8
001
370
     9
100
AcDbDimension
  2
*D5
 10
54.637133
 20
72.550724
 30
0.0
 11
76.554413
 21
58.529452
 31
0.0
 70
    34
 71
     5
 42
-1.0
  3
Standard
100
AcDb2LineAngularDimension
 13
60.493931
 23
65.864746
 33
0.0
 14
54.637133
 24
72.550724
 34
0.0
 15
54.637133
 25
60.445457
 35
0.0
 16
64.851272
 26
45.389249
 36
0.0
  0
TEXT
  5
441
330
1F
100
AcDbEntity
  8
001
370
    30
100
AcDbText
 10
39.454251
 20
76.861866
 30
0.0
 40
4.0
  1
%%c０．８１
 50
90.000003
 41
0.862069
100
AcDbText
  0
POLYLINE
  5
442
330
1F
100
AcDbEntity
  8
001
370
     9
100
AcDb2dPolyline
 66
     1
 10
0.0
 20
0.0
 30
0.0
  0
VERTEX
  5
444
330
442
100
AcDbEntity
  8
001
370
     9
100
AcDbVertex
100
AcDb2dVertex
 10
40.856175
 20
74.050724
 30
0.0
  0
VERTEX
  5
445
330
442
100
AcDbEntity
  8
001
370
     9
100
AcDbVertex
100
AcDb2dVertex
 10
40.454251
 20
72.550724
 30
0.0
  0
VERTEX
  5
446
330
442
100
AcDbEntity
  8
001
370
     9
100
AcDbVertex
100
AcDb2dVertex
 10
40.052328
 20
74.050724
 30
0.0
  0
SEQEND
  5
443
330
442
100
AcDbEntity
  8
001
370
     9
  0
LINE
  5
447
330
1F
100
AcDbEntity
  8
001
370
     9
100
AcDbLine
 10
40.454251
 20
99.861866
 30
0.0
 11
40.454251
 21
72.550724
 31
0.0
  0
POLYLINE
  5
448
330
1F
100
AcDbEntity
  8
001
370
     9
100
AcDb2dPolyline
 66
     1
 10
0.0
 20
0.0
 30
0.0
  0
VERTEX
  5
44A
330
448
100
AcDbEntity
  8
001
370
     9
100
AcDbVertex
100
AcDb2dVertex
 10
54.637133
 20
72.550724
 30
0.0
  0
VERTEX
  5
44B
330
448
100
AcDbEntity
  8
001
370
     9
100
AcDbVertex
100
AcDb2dVertex
 10
40.454251
 20
72.550724
 30
0.0
  0
VERTEX
  5
44C
330
448
100
AcDbEntity
  8
001
370
     9
100
AcDbVertex
100
AcDb2dVertex
 10
37.704251
 20
72.550724
 30
0.0
  0
SEQEND
  5
449
330
448
100
AcDbEntity
  8
001
370
     9
  0
DIMENSION
  5
44D
330
1F
100
AcDbEntity
  8
001
370
     9
100
AcDbDimension
  2
*D6
 10
179.637133
 20
29.185849
 30
0.0
 11
117.137133
 21
32.185849
 31
0.0
 70
   160
 71
     5
 42
-1.0
  3
Standard
100
AcDbAlignedDimension
 13
54.637133
 23
60.445457
 33
0.0
 14
179.637133
 24
68.939219
 34
0.0
100
AcDbRotatedDimension
  0
DIMENSION
  5
44E
330
1F
100
AcDbEntity
  8
001
370
     9
100
AcDbDimension
  2
*D7
 10
84.637133
 20
39.856867
 30
0.0
 11
132.137133
 21
42.856867
 31
0.0
 70
   160
 71
     5
 42
-1.0
  3
Standard
100
AcDbAlignedDimension
 13
179.637133
 23
68.939219
 33
0.0
 14
84.637133
 24
65.239219
 34
0.0
 50
180.0
100
AcDbRotatedDimension
  0
TEXT
  5
44F
330
1F
100
AcDbEntity
  8
001
370
    30
100
AcDbText
 10
28.35579
 20
70.361509
 30
0.0
 40
4.0
  1
%%c１４．６
 50
90.000003
 41
0.862069
100
AcDbText
  0
POLYLINE
  5
450
330
1F
100
AcDbEntity
  8
001
370
     9
100
AcDb2dPolyline
 66
     1
 10
0.0
 20
0.0
 30
0.0
  0
VERTEX
  5
452
330
450
100
AcDbEntity
  8
001
370
     9
100
AcDbVertex
100
AcDb2dVertex
 10
29.757713
 20
67.364746
 30
0.0
  0
VERTEX
  5
453
330
450
100
AcDbEntity
  8
001
370
     9
100
AcDbVertex
100
AcDb2dVertex
 10
29.35579
 20
65.864746
 30
0.0
  0
VERTEX
  5
454
330
450
100
AcDbEntity
  8
001
370
     9
100
AcDbVertex
100
AcDb2dVertex
 10
28.953866
 20
67.364746
 30
0.0
  0
SEQEND
  5
451
330
450
100
AcDbEntity
  8
001
370
     9
  0
LINE
  5
455
330
1F
100
AcDbEntity
  8
001
370
     9
100
AcDbLine
 10
29.35579
 20
65.864746
 30
0.0
 11
29.35579
 21
80.461461
 31
0.0
  0
POLYLINE
  5
456
330
1F
100
AcDbEntity
  8
001
370
     9
100
AcDb2dPolyline
 66
     1
 10
0.0
 20
0.0
 30
0.0
  0
VERTEX
  5
458
330
456
100
AcDbEntity
  8
001
370
     9
100
AcDbVertex
100
AcDb2dVertex
 10
60.698061
 20
65.864746
 30
0.0
  0
VERTEX
  5
459
330
456
100
AcDbEntity
  8
001
370
     9
100
AcDbVertex
100
AcDb2dVertex
 10
29.35579
 20
65.864746
 30
0.0
  0
VERTEX
  5
45A
330
456
100
AcDbEntity
  8
001
370
     9
100
AcDbVertex
100
AcDb2dVertex
 10
26.60579
 20
65.864746
 30
0.0
  0
SEQEND
  5
457
330
456
100
AcDbEntity
  8
001
370
     9
  0
DIMENSION
  5
45B
330
1F
100
AcDbEntity
  8
001
370
     9
100
AcDbDimension
  2
*D8
 10
202.293023
 20
62.939219
 30
0.0
 11
199.293023
 21
53.439219
 31
0.0
 70
   160
 71
     5
 42
-1.0
  3
Standard
100
AcDbAlignedDimension
 13
173.637133
 23
82.939219
 33
0.0
 14
173.637133
 24
62.939219
 34
0.0
 50
270.0
100
AcDbRotatedDimension
  0
TEXT
  5
45C
330
1F
100
AcDbEntity
  8
001
370
    30
100
AcDbText
 10
41.571099
 20
113.953916
 30
0.0
 40
8.0
  1
面取りカッター面面　ＳＮＫ４０１３Ｃ
 41
0.833333
100
AcDbText
  0
LINE
  5
45D
330
1F
100
AcDbEntity
  8
001
  6
CENTER
 62
   253
370
     9
100
AcDbLine
 10
46.140799
 20
72.939219
 30
0.0
 11
189.719116
 21
72.939219
 31
0.0
  0
LINE
  5
45E
330
1F
100
AcDbEntity
  8
001
 62
   253
370
    50
100
AcDbLine
 10
173.637133
 20
82.939219
 30
0.0
 11
87.637133
 21
82.939219
 31
0.0
  0
LINE
  5
45F
330
1F
100
AcDbEntity
  8
001
 62
   253
370
    50
100
AcDbLine
 10
173.637133
 20
62.939219
 30
0.0
 11
87.637133
 21
62.939219
 31
0.0
  0
LINE
  5
460
330
1F
100
AcDbEntity
  8
001
 62
   253
370
    50
100
AcDbLine
 10
87.637133
 20
82.939219
 30
0.0
 11
87.637133
 21
62.939219
 31
0.0
  0
ARC
  5
461
330
1F
100
AcDbEntity
  8
001
 62
   253
370
    50
100
AcDbCircle
 10
173.637133
 20
76.939219
 30
0.0
 40
6.0
100
AcDbArc
 50
0.0
 51
90.0
  0
ARC
  5
462
330
1F
100
AcDbEntity
  8
001
 62
   253
370
    50
100
AcDbCircle
 10
173.637133
 20
68.939219
 30
0.0
 40
6.0
100
AcDbArc
 50
270.0
 51
0.0
  0
LINE
  5
463
330
1F
100
AcDbEntity
  8
001
 62
   253
370
    50
100
AcDbLine
 10
179.637133
 20
76.939219
 30
0.0
 11
179.637133
 21
68.939219
 31
0.0
  0
LINE
  5
464
330
1F
100
AcDbEntity
  8
001
 62
   253
370
    50
100
AcDbLine
 10
87.637133
 20
82.939219
 30
0.0
 11
84.637133
 21
79.939219
 31
0.0
  0
LINE
  5
465
330
1F
100
AcDbEntity
  8
001
 62
   253
370
    50
100
AcDbLine
 10
84.637133
 20
65.939219
 30
0.0
 11
87.637133
 21
62.939219
 31
0.0
  0
LINE
  5
466
330
1F
100
AcDbEntity
  8
001
 62
   253
370
    50
100
AcDbLine
 10
84.637133
 20
79.939219
 30
0.0
 11
84.637133
 21
65.939219
 31
0.0
  0
POLYLINE
  5
467
330
1F
100
AcDbEntity
  8
001
 62
   253
370
    50
100
AcDb2dPolyline
 66
     1
 10
0.0
 20
0.0
 30
0.0
  0
VERTEX
  5
469
330
467
100
AcDbEntity
  8
001
 62
   253
370
    50
100
AcDbVertex
100
AcDb2dVertex
 10
66.264592
 20
79.939219
 30
0.0
  0
VERTEX
  5
46A
330
467
100
AcDbEntity
  8
001
 62
   253
370
    50
100
AcDbVertex
100
AcDb2dVertex
 10
66.241557
 20
79.938741
 30
0.0
  0
VERTEX
  5
46B
330
467
100
AcDbEntity
  8
001
 62
   253
370
    50
100
AcDbVertex
100
AcDb2dVertex
 10
66.20819
 20
79.93747
 30
0.0
  0
VERTEX
  5
46C
330
467
100
AcDbEntity
  8
001
 62
   253
370
    50
100
AcDbVertex
100
AcDb2dVertex
 10
65.860912
 20
79.889135
 30
0.0
  0
VERTEX
  5
46D
330
467
100
AcDbEntity
  8
001
 62
   253
370
    50
100
AcDbVertex
100
AcDb2dVertex
 10
65.574221
 20
79.803984
 30
0.0
  0
VERTEX
  5
46E
330
467
100
AcDbEntity
  8
001
 62
   253
370
    50
100
AcDbVertex
100
AcDb2dVertex
 10
65.122683
 20
79.651705
 30
0.0
  0
VERTEX
  5
46F
330
467
100
AcDbEntity
  8
001
 62
   253
370
    50
100
AcDbVertex
100
AcDb2dVertex
 10
64.612341
 20
79.461915
 30
0.0
  0
VERTEX
  5
470
330
467
100
AcDbEntity
  8
001
 62
   253
370
    50
100
AcDbVertex
100
AcDb2dVertex
 10
64.256708
 20
79.316901
 30
0.0
  0
VERTEX
  5
471
330
467
100
AcDbEntity
  8
001
 62
   253
370
    50
100
AcDbVertex
100
AcDb2dVertex
 10
64.00456
 20
79.210249
 30
0.0
  0
SEQEND
  5
468
330
467
100
AcDbEntity
  8
001
370
    50
  0
LINE
  5
472
330
1F
100
AcDbEntity
  8
001
 62
   253
370
    50
100
AcDbLine
 10
84.637133
 20
79.939219
 30
0.0
 11
66.264592
 21
79.939219
 31
0.0
  0
LINE
  5
473
330
1F
100
AcDbEntity
  8
001
 62
   253
370
    50
100
AcDbLine
 10
61.903512
 20
65.939219
 30
0.0
 11
84.637133
 21
65.939219
 31
0.0
  0
POLYLINE
  5
474
330
1F
100
AcDbEntity
  8
001
 62
   253
370
    50
100
AcDb2dPolyline
 66
     1
 10
0.0
 20
0.0
 30
0.0
  0
VERTEX
  5
476
330
474
100
AcDbEntity
  8
001
 62
   253
370
    50
100
AcDbVertex
100
AcDb2dVertex
 10
61.903512
 20
66.360379
 30
0.0
  0
VERTEX
  5
477
330
474
100
AcDbEntity
  8
001
 62
   253
370
    50
100
AcDbVertex
100
AcDb2dVertex
 10
63.224536
 20
66.543069
 30
0.0
  0
VERTEX
  5
478
330
474
100
AcDbEntity
  8
001
 62
   253
370
    50
100
AcDbVertex
100
AcDb2dVertex
 10
65.143359
 20
66.877041
 30
0.0
  0
VERTEX
  5
479
330
474
100
AcDbEntity
  8
001
 62
   253
370
    50
100
AcDbVertex
100
AcDb2dVertex
 10
67.828547
 20
67.523953
 30
0.0
  0
VERTEX
  5
47A
330
474
100
AcDbEntity
  8
001
 62
   253
370
    50
100
AcDbVertex
100
AcDb2dVertex
 10
69.637133
 20
68.078958
 30
0.0
  0
SEQEND
  5
475
330
474
100
AcDbEntity
  8
001
370
    50
  0
POLYLINE
  5
47B
330
1F
100
AcDbEntity
  8
001
 62
   253
370
    50
100
AcDb2dPolyline
 66
     1
 10
0.0
 20
0.0
 30
0.0
  0
VERTEX
  5
47D
330
47B
100
AcDbEntity
  8
001
 62
   253
370
    50
100
AcDbVertex
100
AcDb2dVertex
 10
69.637133
 20
68.078958
 30
0.0
  0
VERTEX
  5
47E
330
47B
100
AcDbEntity
  8
001
 62
   253
370
    50
100
AcDbVertex
100
AcDb2dVertex
 10
69.865144
 20
68.640049
 30
0.0
  0
VERTEX
  5
47F
330
47B
100
AcDbEntity
  8
001
 62
   253
370
    50
100
AcDbVertex
100
AcDb2dVertex
 10
70.139279
 20
69.439219
 30
0.0
  0
VERTEX
  5
480
330
47B
100
AcDbEntity
  8
001
 62
   253
370
    50
100
AcDbVertex
100
AcDb2dVertex
 10
70.420447
 20
70.622437
 30
0.0
  0
VERTEX
  5
481
330
47B
100
AcDbEntity
  8
001
 62
   253
370
    50
100
AcDbVertex
100
AcDb2dVertex
 10
70.546804
 20
71.723682
 30
0.0
  0
VERTEX
  5
482
330
47B
100
AcDbEntity
  8
001
 62
   253
370
    50
100
AcDbVertex
100
AcDb2dVertex
 10
70.584138
 20
72.324243
 30
0.0
  0
VERTEX
  5
483
330
47B
100
AcDbEntity
  8
001
 62
   253
370
    50
100
AcDbVertex
100
AcDb2dVertex
 10
70.598926
 20
72.939219
 30
0.0
  0
VERTEX
  5
484
330
47B
100
AcDbEntity
  8
001
 62
   253
370
    50
100
AcDbVertex
100
AcDb2dVertex
 10
70.584138
 20
73.554195
 30
0.0
  0
VERTEX
  5
485
330
47B
100
AcDbEntity
  8
001
 62
   253
370
    50
100
AcDbVertex
100
AcDb2dVertex
 10
70.546804
 20
74.154756
 30
0.0
  0
VERTEX
  5
486
330
47B
100
AcDbEntity
  8
001
 62
   253
370
    50
100
AcDbVertex
100
AcDb2dVertex
 10
70.420447
 20
75.256001
 30
0.0
  0
VERTEX
  5
487
330
47B
100
AcDbEntity
  8
001
 62
   253
370
    50
100
AcDbVertex
100
AcDb2dVertex
 10
70.139279
 20
76.439219
 30
0.0
  0
VERTEX
  5
488
330
47B
100
AcDbEntity
  8
001
 62
   253
370
    50
100
AcDbVertex
100
AcDb2dVertex
 10
69.865144
 20
77.238389
 30
0.0
  0
VERTEX
  5
489
330
47B
100
AcDbEntity
  8
001
 62
   253
370
    50
100
AcDbVertex
100
AcDb2dVertex
 10
69.637133
 20
77.79948
 30
0.0
  0
SEQEND
  5
47C
330
47B
100
AcDbEntity
  8
001
370
    50
  0
POLYLINE
  5
48A
330
1F
100
AcDbEntity
  8
001
 62
   253
370
    50
100
AcDb2dPolyline
 66
     1
 10
0.0
 20
0.0
 30
0.0
  0
VERTEX
  5
48C
330
48A
100
AcDbEntity
  8
001
 62
   253
370
    50
100
AcDbVertex
100
AcDb2dVertex
 10
69.637133
 20
77.79948
 30
0.0
  0
VERTEX
  5
48D
330
48A
100
AcDbEntity
  8
001
 62
   253
370
    50
100
AcDbVertex
100
AcDb2dVertex
 10
67.829017
 20
78.355887
 30
0.0
  0
VERTEX
  5
48E
330
48A
100
AcDbEntity
  8
001
 62
   253
370
    50
100
AcDbVertex
100
AcDb2dVertex
 10
65.143359
 20
79.001397
 30
0.0
  0
VERTEX
  5
48F
330
48A
100
AcDbEntity
  8
001
 62
   253
370
    50
100
AcDbVertex
100
AcDb2dVertex
 10
64.467894
 20
79.128992
 30
0.0
  0
VERTEX
  5
490
330
48A
100
AcDbEntity
  8
001
 62
   253
370
    50
100
AcDbVertex
100
AcDb2dVertex
 10
64.00456
 20
79.210249
 30
0.0
  0
SEQEND
  5
48B
330
48A
100
AcDbEntity
  8
001
370
    50
  0
LINE
  5
491
330
1F
100
AcDbEntity
  8
001
 62
   253
370
    50
100
AcDbLine
 10
61.903512
 20
66.360379
 30
0.0
 11
61.903512
 21
65.939219
 31
0.0
  0
LINE
  5
492
330
1F
100
AcDbEntity
  8
001
 62
   253
370
    50
100
AcDbLine
 10
69.637133
 20
77.79948
 30
0.0
 11
69.637133
 21
68.078958
 31
0.0
  0
LINE
  5
493
330
1F
100
AcDbEntity
  8
001
 62
   253
370
    50
100
AcDbLine
 10
61.693048
 20
66.543029
 30
0.0
 11
61.903512
 21
66.360379
 31
0.0
  0
LINE
  5
494
330
1F
100
AcDbEntity
  8
001
 62
   253
370
    50
100
AcDbLine
 10
65.379036
 20
69.053206
 30
0.0
 11
61.693048
 21
66.543029
 31
0.0
  0
POLYLINE
  5
495
330
1F
100
AcDbEntity
  8
001
 62
   253
370
    50
100
AcDb2dPolyline
 66
     1
 10
0.0
 20
0.0
 30
0.0
  0
VERTEX
  5
497
330
495
100
AcDbEntity
  8
001
 62
   253
370
    50
100
AcDbVertex
100
AcDb2dVertex
 10
65.379036
 20
69.053206
 30
0.0
  0
VERTEX
  5
498
330
495
100
AcDbEntity
  8
001
 62
   253
370
    50
100
AcDbVertex
100
AcDb2dVertex
 10
65.477973
 20
69.006196
 30
0.0
  0
VERTEX
  5
499
330
495
100
AcDbEntity
  8
001
 62
   253
370
    50
100
AcDbVertex
100
AcDb2dVertex
 10
65.616545
 20
68.94598
 30
0.0
  0
VERTEX
  5
49A
330
495
100
AcDbEntity
  8
001
 62
   253
370
    50
100
AcDbVertex
100
AcDb2dVertex
 10
65.814172
 20
68.87567
 30
0.0
  0
VERTEX
  5
49B
330
495
100
AcDbEntity
  8
001
 62
   253
370
    50
100
AcDbVertex
100
AcDb2dVertex
 10
66.014806
 20
68.833192
 30
0.0
  0
VERTEX
  5
49C
330
495
100
AcDbEntity
  8
001
 62
   253
370
    50
100
AcDbVertex
100
AcDb2dVertex
 10
66.250122
 20
68.805699
 30
0.0
  0
VERTEX
  5
49D
330
495
100
AcDbEntity
  8
001
 62
   253
370
    50
100
AcDbVertex
100
AcDb2dVertex
 10
66.425546
 20
68.795212
 30
0.0
  0
SEQEND
  5
496
330
495
100
AcDbEntity
  8
001
370
    50
  0
LINE
  5
49E
330
1F
100
AcDbEntity
  8
001
 62
   253
370
    50
100
AcDbLine
 10
62.216431
 20
77.992523
 30
0.0
 11
65.939864
 21
73.741943
 31
0.0
  0
LINE
  5
49F
330
1F
100
AcDbEntity
  8
001
 62
   253
370
    50
100
AcDbLine
 10
62.216431
 20
77.992523
 30
0.0
 11
64.00456
 21
79.210249
 31
0.0
  0
POLYLINE
  5
4A0
330
1F
100
AcDbEntity
  8
001
 62
   253
370
    50
100
AcDb2dPolyline
 66
     1
 10
0.0
 20
0.0
 30
0.0
  0
VERTEX
  5
4A2
330
4A0
100
AcDbEntity
  8
001
 62
   253
370
    50
100
AcDbVertex
100
AcDb2dVertex
 10
66.425546
 20
73.795212
 30
0.0
  0
VERTEX
  5
4A3
330
4A0
100
AcDbEntity
  8
001
 62
   253
370
    50
100
AcDbVertex
100
AcDb2dVertex
 10
66.257737
 20
73.788022
 30
0.0
  0
VERTEX
  5
4A4
330
4A0
100
AcDbEntity
  8
001
 62
   253
370
    50
100
AcDbVertex
100
AcDb2dVertex
 10
66.014806
 20
73.757231
 30
0.0
  0
VERTEX
  5
4A5
330
4A0
100
AcDbEntity
  8
001
 62
   253
370
    50
100
AcDbVertex
100
AcDb2dVertex
 10
65.970257
 20
73.748434
 30
0.0
  0
VERTEX
  5
4A6
330
4A0
100
AcDbEntity
  8
001
 62
   253
370
    50
100
AcDbVertex
100
AcDb2dVertex
 10
65.939864
 20
73.741943
 30
0.0
  0
SEQEND
  5
4A1
330
4A0
100
AcDbEntity
  8
001
370
    50
  0
POLYLINE
  5
4A7
330
1F
100
AcDbEntity
  8
001
 62
   253
370
    50
100
AcDb2dPolyline
 66
     1
 10
0.0
 20
0.0
 30
0.0
  0
VERTEX
  5
4A9
330
4A7
100
AcDbEntity
  8
001
 62
   253
370
    50
100
AcDbVertex
100
AcDb2dVertex
 10
66.425546
 20
68.795212
 30
0.0
  0
VERTEX
  5
4AA
330
4A7
100
AcDbEntity
  8
001
 62
   253
370
    50
100
AcDbVertex
100
AcDb2dVertex
 10
66.598978
 20
68.804733
 30
0.0
  0
VERTEX
  5
4AB
330
4A7
100
AcDbEntity
  8
001
 62
   253
370
    50
100
AcDbVertex
100
AcDb2dVertex
 10
66.836287
 20
68.833192
 30
0.0
  0
VERTEX
  5
4AC
330
4A7
100
AcDbEntity
  8
001
 62
   253
370
    50
100
AcDbVertex
100
AcDb2dVertex
 10
67.046932
 20
68.880524
 30
0.0
  0
VERTEX
  5
4AD
330
4A7
100
AcDbEntity
  8
001
 62
   253
370
    50
100
AcDbVertex
100
AcDb2dVertex
 10
67.234547
 20
68.94598
 30
0.0
  0
VERTEX
  5
4AE
330
4A7
100
AcDbEntity
  8
001
 62
   253
370
    50
100
AcDbVertex
100
AcDb2dVertex
 10
67.422773
 20
69.029443
 30
0.0
  0
VERTEX
  5
4AF
330
4A7
100
AcDbEntity
  8
001
 62
   253
370
    50
100
AcDbVertex
100
AcDb2dVertex
 10
67.608227
 20
69.130148
 30
0.0
  0
VERTEX
  5
4B0
330
4A7
100
AcDbEntity
  8
001
 62
   253
370
    50
100
AcDbVertex
100
AcDb2dVertex
 10
68.102088
 20
69.530917
 30
0.0
  0
VERTEX
  5
4B1
330
4A7
100
AcDbEntity
  8
001
 62
   253
370
    50
100
AcDbVertex
100
AcDb2dVertex
 10
68.474009
 20
70.045212
 30
0.0
  0
VERTEX
  5
4B2
330
4A7
100
AcDbEntity
  8
001
 62
   253
370
    50
100
AcDbVertex
100
AcDb2dVertex
 10
68.648795
 20
70.441996
 30
0.0
  0
VERTEX
  5
4B3
330
4A7
100
AcDbEntity
  8
001
 62
   253
370
    50
100
AcDbVertex
100
AcDb2dVertex
 10
68.754973
 20
70.861091
 30
0.0
  0
VERTEX
  5
4B4
330
4A7
100
AcDbEntity
  8
001
 62
   253
370
    50
100
AcDbVertex
100
AcDb2dVertex
 10
68.781927
 20
71.07747
 30
0.0
  0
VERTEX
  5
4B5
330
4A7
100
AcDbEntity
  8
001
 62
   253
370
    50
100
AcDbVertex
100
AcDb2dVertex
 10
68.790908
 20
71.295212
 30
0.0
  0
VERTEX
  5
4B6
330
4A7
100
AcDbEntity
  8
001
 62
   253
370
    50
100
AcDbVertex
100
AcDb2dVertex
 10
68.781927
 20
71.512953
 30
0.0
  0
VERTEX
  5
4B7
330
4A7
100
AcDbEntity
  8
001
 62
   253
370
    50
100
AcDbVertex
100
AcDb2dVertex
 10
68.754973
 20
71.729332
 30
0.0
  0
VERTEX
  5
4B8
330
4A7
100
AcDbEntity
  8
001
 62
   253
370
    50
100
AcDbVertex
100
AcDb2dVertex
 10
68.648795
 20
72.148428
 30
0.0
  0
VERTEX
  5
4B9
330
4A7
100
AcDbEntity
  8
001
 62
   253
370
    50
100
AcDbVertex
100
AcDb2dVertex
 10
68.474009
 20
72.545212
 30
0.0
  0
VERTEX
  5
4BA
330
4A7
100
AcDbEntity
  8
001
 62
   253
370
    50
100
AcDbVertex
100
AcDb2dVertex
 10
68.102088
 20
73.059506
 30
0.0
  0
VERTEX
  5
4BB
330
4A7
100
AcDbEntity
  8
001
 62
   253
370
    50
100
AcDbVertex
100
AcDb2dVertex
 10
67.608227
 20
73.460275
 30
0.0
  0
VERTEX
  5
4BC
330
4A7
100
AcDbEntity
  8
001
 62
   253
370
    50
100
AcDbVertex
100
AcDb2dVertex
 10
67.422773
 20
73.560981
 30
0.0
  0
VERTEX
  5
4BD
330
4A7
100
AcDbEntity
  8
001
 62
   253
370
    50
100
AcDbVertex
100
AcDb2dVertex
 10
67.234547
 20
73.644443
 30
0.0
  0
VERTEX
  5
4BE
330
4A7
100
AcDbEntity
  8
001
 62
   253
370
    50
100
AcDbVertex
100
AcDb2dVertex
 10
67.046932
 20
73.709899
 30
0.0
  0
VERTEX
  5
4BF
330
4A7
100
AcDbEntity
  8
001
 62
   253
370
    50
100
AcDbVertex
100
AcDb2dVertex
 10
66.836287
 20
73.757231
 30
0.0
  0
VERTEX
  5
4C0
330
4A7
100
AcDbEntity
  8
001
 62
   253
370
    50
100
AcDbVertex
100
AcDb2dVertex
 10
66.598978
 20
73.78569
 30
0.0
  0
VERTEX
  5
4C1
330
4A7
100
AcDbEntity
  8
001
 62
   253
370
    50
100
AcDbVertex
100
AcDb2dVertex
 10
66.425546
 20
73.795212
 30
0.0
  0
SEQEND
  5
4A8
330
4A7
100
AcDbEntity
  8
001
370
    50
  0
POLYLINE
  5
4C2
330
1F
100
AcDbEntity
  8
001
 62
   253
370
    50
100
AcDb2dPolyline
 66
     1
 10
0.0
 20
0.0
 30
0.0
  0
VERTEX
  5
4C4
330
4C2
100
AcDbEntity
  8
001
 62
   253
370
    50
100
AcDbVertex
100
AcDb2dVertex
 10
66.343794
 20
69.053206
 30
0.0
  0
VERTEX
  5
4C5
330
4C2
100
AcDbEntity
  8
001
 62
   253
370
    50
100
AcDbVertex
100
AcDb2dVertex
 10
66.439017
 20
69.006662
 30
0.0
  0
VERTEX
  5
4C6
330
4C2
100
AcDbEntity
  8
001
 62
   253
370
    50
100
AcDbVertex
100
AcDb2dVertex
 10
66.581303
 20
68.94598
 30
0.0
  0
VERTEX
  5
4C7
330
4C2
100
AcDbEntity
  8
001
 62
   253
370
    50
100
AcDbVertex
100
AcDb2dVertex
 10
66.773496
 20
68.882341
 30
0.0
  0
VERTEX
  5
4C8
330
4C2
100
AcDbEntity
  8
001
 62
   253
370
    50
100
AcDbVertex
100
AcDb2dVertex
 10
66.907925
 20
68.84775
 30
0.0
  0
SEQEND
  5
4C3
330
4C2
100
AcDbEntity
  8
001
370
    50
  0
LINE
  5
4C9
330
1F
100
AcDbEntity
  8
001
 62
   253
370
    50
100
AcDbLine
 10
66.904622
 20
73.741943
 30
0.0
 11
65.939864
 21
73.741943
 31
0.0
  0
LINE
  5
4CA
330
1F
100
AcDbEntity
  8
001
 62
   253
370
    50
100
AcDbLine
 10
65.379036
 20
69.053206
 30
0.0
 11
66.343794
 21
69.053206
 31
0.0
  0
LINE
  5
4CB
330
1F
100
AcDbEntity
  8
001
 62
   253
370
    50
100
AcDbLine
 10
61.743124
 20
66.088783
 30
0.0
 11
61.903512
 21
65.939219
 31
0.0
  0
POLYLINE
  5
4CC
330
1F
100
AcDbEntity
  8
001
 62
   253
370
    50
100
AcDb2dPolyline
 66
     1
 10
0.0
 20
0.0
 30
0.0
  0
VERTEX
  5
4CE
330
4CC
100
AcDbEntity
  8
001
 62
   253
370
    50
100
AcDbVertex
100
AcDb2dVertex
 10
61.693048
 20
66.543029
 30
0.0
  0
VERTEX
  5
4CF
330
4CC
100
AcDbEntity
  8
001
 62
   253
370
    50
100
AcDbVertex
100
AcDb2dVertex
 10
61.685035
 20
66.519513
 30
0.0
  0
VERTEX
  5
4D0
330
4CC
100
AcDbEntity
  8
001
 62
   253
370
    50
100
AcDbVertex
100
AcDb2dVertex
 10
61.67739
 20
66.495864
 30
0.0
  0
VERTEX
  5
4D1
330
4CC
100
AcDbEntity
  8
001
 62
   253
370
    50
100
AcDbVertex
100
AcDb2dVertex
 10
61.661284
 20
66.434568
 30
0.0
  0
VERTEX
  5
4D2
330
4CC
100
AcDbEntity
  8
001
 62
   253
370
    50
100
AcDbVertex
100
AcDb2dVertex
 10
61.651186
 20
66.372025
 30
0.0
  0
VERTEX
  5
4D3
330
4CC
100
AcDbEntity
  8
001
 62
   253
370
    50
100
AcDbVertex
100
AcDb2dVertex
 10
61.648357
 20
66.317952
 30
0.0
  0
VERTEX
  5
4D4
330
4CC
100
AcDbEntity
  8
001
 62
   253
370
    50
100
AcDbVertex
100
AcDb2dVertex
 10
61.6522
 20
66.26381
 30
0.0
  0
VERTEX
  5
4D5
330
4CC
100
AcDbEntity
  8
001
 62
   253
370
    50
100
AcDbVertex
100
AcDb2dVertex
 10
61.66241
 20
66.216364
 30
0.0
  0
VERTEX
  5
4D6
330
4CC
100
AcDbEntity
  8
001
 62
   253
370
    50
100
AcDbVertex
100
AcDb2dVertex
 10
61.68041
 20
66.171788
 30
0.0
  0
VERTEX
  5
4D7
330
4CC
100
AcDbEntity
  8
001
 62
   253
370
    50
100
AcDbVertex
100
AcDb2dVertex
 10
61.708823
 20
66.129005
 30
0.0
  0
VERTEX
  5
4D8
330
4CC
100
AcDbEntity
  8
001
 62
   253
370
    50
100
AcDbVertex
100
AcDb2dVertex
 10
61.742538
 20
66.08933
 30
0.0
  0
SEQEND
  5
4CD
330
4CC
100
AcDbEntity
  8
001
370
    50
  0
LINE
  5
4D9
330
1F
100
AcDbEntity
  8
001
370
     9
100
AcDbLine
 10
54.637133
 20
72.550724
 30
0.0
 11
54.637133
 21
60.445457
 31
0.0
  0
LINE
  5
4DA
330
1F
100
AcDbEntity
  8
001
370
    50
100
AcDbLine
 10
179.637133
 20
72.939219
 30
0.0
 11
183.742457
 21
75.309429
 31
0.0
  0
LINE
  5
4DB
330
1F
100
AcDbEntity
  8
001
370
    50
100
AcDbLine
 10
179.637133
 20
72.939219
 30
0.0
 11
183.742457
 21
70.569009
 31
0.0
  0
ENDSEC
  0
SECTION
  2
OBJECTS
  0
DICTIONARY
  5
C
330
0
100
AcDbDictionary
281
     1
  3
ACAD_GROUP
350
D
  3
ACAD_LAYOUT
350
1A
  3
ACAD_MLEADERSTYLE
350
4DF
  3
ACAD_MLINESTYLE
350
17
  3
ACAD_PLOTSETTINGS
350
19
  3
ACAD_PLOTSTYLENAME
350
E
  3
ACAD_SCALELIST
350
3B
  3
ACAD_TABLESTYLE
350
4DE
  3
ACAD_VISUALSTYLE
350
2A
  3
AcDbVariableDictionary
350
4DC
  0
DICTIONARY
  5
D
102
{ACAD_REACTORS
330
C
102
}
330
C
100
AcDbDictionary
281
     1
  0
DICTIONARY
  5
1A
102
{ACAD_REACTORS
330
C
102
}
330
C
100
AcDbDictionary
281
     1
  3
Layout1
350
1E
  3
Layout2
350
26
  3
Model
350
22
  0
DICTIONARY
  5
4DF
102
{ACAD_REACTORS
330
C
102
}
330
C
100
AcDbDictionary
281
     1
  0
DICTIONARY
  5
17
102
{ACAD_REACTORS
330
C
102
}
330
C
100
AcDbDictionary
281
     1
  3
Standard
350
18
  0
DICTIONARY
  5
19
102
{ACAD_REACTORS
330
C
102
}
330
C
100
AcDbDictionary
281
     1
  0
ACDBDICTIONARYWDFLT
  5
E
102
{ACAD_REACTORS
330
C
102
}
330
C
100
AcDbDictionary
281
     1
  3
Normal
350
F
100
AcDbDictionaryWithDefault
340
F
  0
DICTIONARY
  5
3B
102
{ACAD_REACTORS
330
C
102
}
330
C
100
AcDbDictionary
281
     1
  3
A0
350
3C
  3
A1
350
3D
  3
A2
350
3E
  3
A3
350
3F
  3
A4
350
40
  3
A5
350
41
  3
A6
350
42
  3
A7
350
43
  3
A8
350
44
  3
A9
350
45
  3
B0
350
46
  3
B1
350
47
  3
B2
350
48
  3
B3
350
49
  3
B4
350
4A
  3
B5
350
4B
  3
B6
350
4C
  3
B7
350
4D
  3
B8
350
4E
  3
B9
350
4F
  3
C0
350
50
  3
C1
350
51
  3
C2
350
52
  3
C3
350
53
  3
C4
350
54
  3
C5
350
55
  3
C6
350
56
  3
C7
350
57
  3
C8
350
58
  3
C9
350
59
  3
D0
350
5A
  3
D1
350
5B
  3
D2
350
5C
  0
DICTIONARY
  5
4DE
102
{ACAD_REACTORS
330
C
102
}
330
C
100
AcDbDictionary
281
     1
  0
DICTIONARY
  5
2A
102
{ACAD_REACTORS
330
C
102
}
330
C
100
AcDbDictionary
281
     1
  3
2dWireframe
350
2F
  3
3D Hidden
350
31
  3
3dWireframe
350
30
  3
Basic
350
32
  3
Brighten
350
36
  3
ColorChange
350
3A
  3
Conceptual
350
34
  3
Dim
350
35
  3
Facepattern
350
39
  3
Flat
350
2B
  3
FlatWithEdges
350
2C
  3
Gouraud
350
2D
  3
GouraudWithEdges
350
2E
  3
Linepattern
350
38
  3
Realistic
350
33
  3
Thicken
350
37
  0
DICTIONARY
  5
4DC
102
{ACAD_REACTORS
330
C
102
}
330
C
100
AcDbDictionary
281
     1
  3
CANNOSCALE
350
4DD
  3
PSOLHEIGHT
350
4E1
  3
PSOLWIDTH
350
4E0
  0
LAYOUT
  5
1E
102
{ACAD_REACTORS
330
1A
102
}
330
1A
100
AcDbPlotSettings
  1

  2
none_device
  4

  6

 40
0.0
 41
0.0
 42
0.0
 43
0.0
 44
0.0
 45
0.0
 46
0.0
 47
0.0
 48
0.0
 49
0.0
140
0.0
141
0.0
142
1.0
143
1.0
 70
   688
 72
     0
 73
     0
 74
     5
  7

 75
    16
147
1.0
148
0.0
149
0.0
100
AcDbLayout
  1
Layout1
 70
     1
 71
     1
 10
0.0
 20
0.0
 11
12.0
 21
9.0
 12
0.0
 22
0.0
 32
0.0
 14
1.000000E+20
 24
1.000000E+20
 34
0.0
 15
-1.000000E+20
 25
-1.000000E+20
 35
0.0
146
0.0
 13
0.0
 23
0.0
 33
0.0
 16
1.0
 26
0.0
 36
0.0
 17
0.0
 27
1.0
 37
0.0
 76
     0
330
1B
  0
LAYOUT
  5
26
102
{ACAD_REACTORS
330
1A
102
}
330
1A
100
AcDbPlotSettings
  1

  2
none_device
  4

  6

 40
0.0
 41
0.0
 42
0.0
 43
0.0
 44
0.0
 45
0.0
 46
0.0
 47
0.0
 48
0.0
 49
0.0
140
0.0
141
0.0
142
1.0
143
1.0
 70
   688
 72
     0
 73
     0
 74
     5
  7

 75
    16
147
1.0
148
0.0
149
0.0
100
AcDbLayout
  1
Layout2
 70
     1
 71
     2
 10
0.0
 20
0.0
 11
0.0
 21
0.0
 12
0.0
 22
0.0
 32
0.0
 14
0.0
 24
0.0
 34
0.0
 15
0.0
 25
0.0
 35
0.0
146
0.0
 13
0.0
 23
0.0
 33
0.0
 16
1.0
 26
0.0
 36
0.0
 17
0.0
 27
1.0
 37
0.0
 76
     0
330
23
  0
LAYOUT
  5
22
102
{ACAD_REACTORS
330
1A
102
}
330
1A
100
AcDbPlotSettings
  1

  2
none_device
  4

  6

 40
0.0
 41
0.0
 42
0.0
 43
0.0
 44
0.0
 45
0.0
 46
0.0
 47
0.0
 48
0.0
 49
0.0
140
0.0
141
0.0
142
1.0
143
1.0
 70
  1712
 72
     0
 73
     0
 74
     0
  7

 75
     0
147
1.0
148
0.0
149
0.0
100
AcDbLayout
  1
Model
 70
     1
 71
     0
 10
0.0
 20
0.0
 11
12.0
 21
9.0
 12
0.0
 22
0.0
 32
0.0
 14
24.355789
 24
26.435852
 34
0.0
 15
205.04303
 25
121.953918
 35
0.0
146
0.0
 13
0.0
 23
0.0
 33
0.0
 16
1.0
 26
0.0
 36
0.0
 17
0.0
 27
1.0
 37
0.0
 76
     0
330
1F
331
29
  0
MLINESTYLE
  5
18
102
{ACAD_REACTORS
330
17
102
}
330
17
100
AcDbMlineStyle
  2
Standard
 70
     0
  3

 62
   256
 51
90.0
 52
90.0
 71
     2
 49
0.5
 62
   256
  6
BYLAYER
 49
-0.5
 62
   256
  6
BYLAYER
  0
ACDBPLACEHOLDER
  5
F
102
{ACAD_REACTORS
330
E
102
}
330
E
  0
SCALE
  5
3C
102
{ACAD_REACTORS
330
3B
102
}
330
3B
100
AcDbScale
 70
     0
300
1:1
140
1.0
141
1.0
290
     1
  0
SCALE
  5
3D
102
{ACAD_REACTORS
330
3B
102
}
330
3B
100
AcDbScale
 70
     0
300
1:2
140
1.0
141
2.0
290
     0
  0
SCALE
  5
3E
102
{ACAD_REACTORS
330
3B
102
}
330
3B
100
AcDbScale
 70
     0
300
1:4
140
1.0
141
4.0
290
     0
  0
SCALE
  5
3F
102
{ACAD_REACTORS
330
3B
102
}
330
3B
100
AcDbScale
 70
     0
300
1:5
140
1.0
141
5.0
290
     0
  0
SCALE
  5
40
102
{ACAD_REACTORS
330
3B
102
}
330
3B
100
AcDbScale
 70
     0
300
1:8
140
1.0
141
8.0
290
     0
  0
SCALE
  5
41
102
{ACAD_REACTORS
330
3B
102
}
330
3B
100
AcDbScale
 70
     0
300
1:10
140
1.0
141
10.0
290
     0
  0
SCALE
  5
42
102
{ACAD_REACTORS
330
3B
102
}
330
3B
100
AcDbScale
 70
     0
300
1:16
140
1.0
141
16.0
290
     0
  0
SCALE
  5
43
102
{ACAD_REACTORS
330
3B
102
}
330
3B
100
AcDbScale
 70
     0
300
1:20
140
1.0
141
20.0
290
     0
  0
SCALE
  5
44
102
{ACAD_REACTORS
330
3B
102
}
330
3B
100
AcDbScale
 70
     0
300
1:30
140
1.0
141
30.0
290
     0
  0
SCALE
  5
45
102
{ACAD_REACTORS
330
3B
102
}
330
3B
100
AcDbScale
 70
     0
300
1:40
140
1.0
141
40.0
290
     0
  0
SCALE
  5
46
102
{ACAD_REACTORS
330
3B
102
}
330
3B
100
AcDbScale
 70
     0
300
1:50
140
1.0
141
50.0
290
     0
  0
SCALE
  5
47
102
{ACAD_REACTORS
330
3B
102
}
330
3B
100
AcDbScale
 70
     0
300
1:100
140
1.0
141
100.0
290
     0
  0
SCALE
  5
48
102
{ACAD_REACTORS
330
3B
102
}
330
3B
100
AcDbScale
 70
     0
300
2:1
140
2.0
141
1.0
290
     0
  0
SCALE
  5
49
102
{ACAD_REACTORS
330
3B
102
}
330
3B
100
AcDbScale
 70
     0
300
4:1
140
4.0
141
1.0
290
     0
  0
SCALE
  5
4A
102
{ACAD_REACTORS
330
3B
102
}
330
3B
100
AcDbScale
 70
     0
300
8:1
140
8.0
141
1.0
290
     0
  0
SCALE
  5
4B
102
{ACAD_REACTORS
330
3B
102
}
330
3B
100
AcDbScale
 70
     0
300
10:1
140
10.0
141
1.0
290
     0
  0
SCALE
  5
4C
102
{ACAD_REACTORS
330
3B
102
}
330
3B
100
AcDbScale
 70
     0
300
100:1
140
100.0
141
1.0
290
     0
  0
SCALE
  5
4D
102
{ACAD_REACTORS
330
3B
102
}
330
3B
100
AcDbScale
 70
     0
300
1/128" = 1'-0"
140
0.007812
141
12.0
290
     0
  0
SCALE
  5
4E
102
{ACAD_REACTORS
330
3B
102
}
330
3B
100
AcDbScale
 70
     0
300
1/64" = 1'-0"
140
0.015625
141
12.0
290
     0
  0
SCALE
  5
4F
102
{ACAD_REACTORS
330
3B
102
}
330
3B
100
AcDbScale
 70
     0
300
1/32" = 1'-0"
140
0.03125
141
12.0
290
     0
  0
SCALE
  5
50
102
{ACAD_REACTORS
330
3B
102
}
330
3B
100
AcDbScale
 70
     0
300
1/16" = 1'-0"
140
0.0625
141
12.0
290
     0
  0
SCALE
  5
51
102
{ACAD_REACTORS
330
3B
102
}
330
3B
100
AcDbScale
 70
     0
300
3/32" = 1'-0"
140
0.09375
141
12.0
290
     0
  0
SCALE
  5
52
102
{ACAD_REACTORS
330
3B
102
}
330
3B
100
AcDbScale
 70
     0
300
1/8" = 1'-0"
140
0.125
141
12.0
290
     0
  0
SCALE
  5
53
102
{ACAD_REACTORS
330
3B
102
}
330
3B
100
AcDbScale
 70
     0
300
3/16" = 1'-0"
140
0.1875
141
12.0
290
     0
  0
SCALE
  5
54
102
{ACAD_REACTORS
330
3B
102
}
330
3B
100
AcDbScale
 70
     0
300
1/4" = 1'-0"
140
0.25
141
12.0
290
     0
  0
SCALE
  5
55
102
{ACAD_REACTORS
330
3B
102
}
330
3B
100
AcDbScale
 70
     0
300
3/8" = 1'-0"
140
0.375
141
12.0
290
     0
  0
SCALE
  5
56
102
{ACAD_REACTORS
330
3B
102
}
330
3B
100
AcDbScale
 70
     0
300
1/2" = 1'-0"
140
0.5
141
12.0
290
     0
  0
SCALE
  5
57
102
{ACAD_REACTORS
330
3B
102
}
330
3B
100
AcDbScale
 70
     0
300
3/4" = 1'-0"
140
0.75
141
12.0
290
     0
  0
SCALE
  5
58
102
{ACAD_REACTORS
330
3B
102
}
330
3B
100
AcDbScale
 70
     0
300
1" = 1'-0"
140
1.0
141
12.0
290
     0
  0
SCALE
  5
59
102
{ACAD_REACTORS
330
3B
102
}
330
3B
100
AcDbScale
 70
     0
300
1-1/2" = 1'-0"
140
1.5
141
12.0
290
     0
  0
SCALE
  5
5A
102
{ACAD_REACTORS
330
3B
102
}
330
3B
100
AcDbScale
 70
     0
300
3" = 1'-0"
140
3.0
141
12.0
290
     0
  0
SCALE
  5
5B
102
{ACAD_REACTORS
330
3B
102
}
330
3B
100
AcDbScale
 70
     0
300
6" = 1'-0"
140
6.0
141
12.0
290
     0
  0
SCALE
  5
5C
102
{ACAD_REACTORS
330
3B
102
}
330
3B
100
AcDbScale
 70
     0
300
1'-0" = 1'-0"
140
12.0
141
12.0
290
     0
  0
VISUALSTYLE
  5
2F
102
{ACAD_REACTORS
330
2A
102
}
330
2A
100
AcDbVisualStyle
  2
2dWireframe
 70
     4
 71
     0
 72
     2
 73
     0
 90
        0
 40
-0.6
 41
-30.0
 62
     5
 63
     7
 74
     1
 91
        4
 64
     7
 65
   257
 75
     1
175
     1
 42
1.0
 92
        0
 66
   257
 43
1.0
 76
     1
 77
     6
 78
     2
 67
     7
 79
     5
170
     0
171
     0
290
     0
174
     0
 93
        1
 44
0.0
173
     0
291
     0
 45
0.0
1001
ACAD
1000
AcDbSavedByObjectVersion
1070
     0
  0
VISUALSTYLE
  5
31
102
{ACAD_REACTORS
330
2A
102
}
330
2A
100
AcDbVisualStyle
  2
3D Hidden
 70
     6
 71
     1
 72
     2
 73
     2
 90
        0
 40
-0.6
 41
-30.0
 62
     5
 63
     7
 74
     2
 91
        2
 64
     7
 65
   257
 75
     2
175
     1
 42
40.0
 92
        0
 66
   257
 43
1.0
 76
     1
 77
     6
 78
     2
 67
     7
 79
     3
170
     0
171
     0
290
     0
174
     0
 93
        1
 44
0.0
173
     0
291
     0
 45
0.0
1001
ACAD
1000
AcDbSavedByObjectVersion
1070
     0
  0
VISUALSTYLE
  5
30
102
{ACAD_REACTORS
330
2A
102
}
330
2A
100
AcDbVisualStyle
  2
3dWireframe
 70
     5
 71
     0
 72
     2
 73
     0
 90
        0
 40
-0.6
 41
-30.0
 62
     5
 63
     7
 74
     1
 91
        4
 64
     7
 65
   257
 75
     1
175
     1
 42
1.0
 92
        0
 66
   257
 43
1.0
 76
     1
 77
     6
 78
     2
 67
     7
 79
     5
170
     0
171
     0
290
     0
174
     0
 93
        1
 44
0.0
173
     0
291
     0
 45
0.0
1001
ACAD
1000
AcDbSavedByObjectVersion
1070
     0
  0
VISUALSTYLE
  5
32
102
{ACAD_REACTORS
330
2A
102
}
330
2A
100
AcDbVisualStyle
  2
Basic
 70
     7
 71
     1
 72
     0
 73
     1
 90
        0
 40
-0.6
 41
-30.0
 62
     5
 63
     7
 74
     0
 91
        4
 64
     7
 65
   257
 75
     1
175
     1
 42
1.0
 92
        8
 66
     7
 43
1.0
 76
     1
 77
     6
 78
     2
 67
     7
 79
     5
170
     0
171
     0
290
     0
174
     0
 93
        1
 44
0.0
173
     0
291
     1
 45
0.0
1001
ACAD
1000
AcDbSavedByObjectVersion
1070
     0
  0
VISUALSTYLE
  5
36
102
{ACAD_REACTORS
330
2A
102
}
330
2A
100
AcDbVisualStyle
  2
Brighten
 70
    12
 71
     2
 72
     2
 73
     0
 90
        0
 40
-0.6
 41
-30.0
 62
     5
 63
     7
 74
     1
 91
        4
 64
     7
 65
   257
 75
     1
175
     1
 42
1.0
 92
        8
 66
     7
 43
1.0
 76
     1
 77
     6
 78
     2
 67
     7
 79
     5
170
     0
171
     0
290
     0
174
     0
 93
        1
 44
50.0
173
     0
291
     1
 45
0.0
1001
ACAD
1000
AcDbSavedByObjectVersion
1070
     0
  0
VISUALSTYLE
  5
3A
102
{ACAD_REACTORS
330
2A
102
}
330
2A
100
AcDbVisualStyle
  2
ColorChange
 70
    16
 71
     2
 72
     2
 73
     3
 90
        0
 40
-0.6
 41
-30.0
 62
     5
 63
     8
 74
     1
 91
        4
 64
     7
 65
   257
 75
     1
175
     1
 42
1.0
 92
        8
 66
     8
 43
1.0
 76
     1
 77
     6
 78
     2
 67
     7
 79
     5
170
     0
171
     0
290
     0
174
     0
 93
        1
 44
0.0
173
     0
291
     1
 45
0.0
1001
ACAD
1000
AcDbSavedByObjectVersion
1070
     0
  0
VISUALSTYLE
  5
34
102
{ACAD_REACTORS
330
2A
102
}
330
2A
100
AcDbVisualStyle
  2
Conceptual
 70
     9
 71
     3
 72
     2
 73
     0
 90
        0
 40
-0.6
 41
-30.0
 62
     5
 63
     7
 74
     2
 91
        2
 64
     7
 65
   257
 75
     1
175
     1
 42
40.0
 92
        8
 66
     7
 43
1.0
 76
     1
 77
     6
 78
     2
 67
     7
 79
     3
170
     0
171
     0
290
     0
174
     0
 93
        1
 44
0.0
173
     0
291
     0
 45
0.0
1001
ACAD
1000
AcDbSavedByObjectVersion
1070
     0
  0
VISUALSTYLE
  5
35
102
{ACAD_REACTORS
330
2A
102
}
330
2A
100
AcDbVisualStyle
  2
Dim
 70
    11
 71
     2
 72
     2
 73
     0
 90
        0
 40
-0.6
 41
-30.0
 62
     5
 63
     7
 74
     1
 91
        4
 64
     7
 65
   257
 75
     1
175
     1
 42
1.0
 92
        8
 66
     7
 43
1.0
 76
     1
 77
     6
 78
     2
 67
     7
 79
     5
170
     0
171
     0
290
     0
174
     0
 93
        1
 44
-50.0
173
     0
291
     1
 45
0.0
1001
ACAD
1000
AcDbSavedByObjectVersion
1070
     0
  0
VISUALSTYLE
  5
39
102
{ACAD_REACTORS
330
2A
102
}
330
2A
100
AcDbVisualStyle
  2
Facepattern
 70
    15
 71
     2
 72
     2
 73
     0
 90
        0
 40
-0.6
 41
-30.0
 62
     5
 63
     7
 74
     1
 91
        4
 64
     7
 65
   257
 75
     1
175
     1
 42
1.0
 92
        8
 66
     7
 43
1.0
 76
     1
 77
     6
 78
     2
 67
     7
 79
     5
170
     0
171
     0
290
     0
174
     0
 93
        1
 44
0.0
173
     0
291
     1
 45
0.0
1001
ACAD
1000
AcDbSavedByObjectVersion
1070
     0
  0
VISUALSTYLE
  5
2B
102
{ACAD_REACTORS
330
2A
102
}
330
2A
100
AcDbVisualStyle
  2
Flat
 70
     0
 71
     2
 72
     1
 73
     1
 90
        2
 40
-0.6
 41
30.0
 62
     5
 63
     7
 74
     0
 91
        4
 64
     7
 65
   257
 75
     1
175
     1
 42
1.0
 92
        8
 66
     7
 43
1.0
 76
     1
 77
     6
 78
     2
 67
     7
 79
     5
170
     0
171
     0
290
     0
174
     0
 93
       13
 44
0.0
173
     0
291
     1
 45
0.0
1001
ACAD
1000
AcDbSavedByObjectVersion
1070
     0
  0
VISUALSTYLE
  5
2C
102
{ACAD_REACTORS
330
2A
102
}
330
2A
100
AcDbVisualStyle
  2
FlatWithEdges
 70
     1
 71
     2
 72
     1
 73
     1
 90
        2
 40
-0.6
 41
30.0
 62
     5
 63
     7
 74
     1
 91
        4
 64
     7
 65
   257
 75
     1
175
     1
 42
1.0
 92
        0
 66
   257
 43
1.0
 76
     1
 77
     6
 78
     2
 67
     7
 79
     5
170
     0
171
     0
290
     0
174
     0
 93
       13
 44
0.0
173
     0
291
     1
 45
0.0
1001
ACAD
1000
AcDbSavedByObjectVersion
1070
     0
  0
VISUALSTYLE
  5
2D
102
{ACAD_REACTORS
330
2A
102
}
330
2A
100
AcDbVisualStyle
  2
Gouraud
 70
     2
 71
     2
 72
     2
 73
     1
 90
        2
 40
-0.6
 41
30.0
 62
     5
 63
     7
 74
     0
 91
        4
 64
     7
 65
   257
 75
     1
175
     1
 42
1.0
 92
        0
 66
     7
 43
1.0
 76
     1
 77
     6
 78
     2
 67
     7
 79
     5
170
     0
171
     0
290
     0
174
     0
 93
       13
 44
0.0
173
     0
291
     1
 45
0.0
1001
ACAD
1000
AcDbSavedByObjectVersion
1070
     0
  0
VISUALSTYLE
  5
2E
102
{ACAD_REACTORS
330
2A
102
}
330
2A
100
AcDbVisualStyle
  2
GouraudWithEdges
 70
     3
 71
     2
 72
     2
 73
     1
 90
        2
 40
-0.6
 41
30.0
 62
     5
 63
     7
 74
     1
 91
        4
 64
     7
 65
   257
 75
     1
175
     1
 42
1.0
 92
        0
 66
   257
 43
1.0
 76
     1
 77
     6
 78
     2
 67
     7
 79
     5
170
     0
171
     0
290
     0
174
     0
 93
       13
 44
0.0
173
     0
291
     1
 45
0.0
1001
ACAD
1000
AcDbSavedByObjectVersion
1070
     0
  0
VISUALSTYLE
  5
38
102
{ACAD_REACTORS
330
2A
102
}
330
2A
100
AcDbVisualStyle
  2
Linepattern
 70
    14
 71
     2
 72
     2
 73
     0
 90
        0
 40
-0.6
 41
-30.0
 62
     5
 63
     7
 74
     1
 91
        4
 64
     7
 65
   257
 75
     7
175
     7
 42
1.0
 92
        8
 66
     7
 43
1.0
 76
     1
 77
     6
 78
     2
 67
     7
 79
     5
170
     0
171
     0
290
     0
174
     0
 93
        1
 44
0.0
173
     0
291
     1
 45
0.0
1001
ACAD
1000
AcDbSavedByObjectVersion
1070
     0
  0
VISUALSTYLE
  5
33
102
{ACAD_REACTORS
330
2A
102
}
330
2A
100
AcDbVisualStyle
  2
Realistic
 70
     8
 71
     2
 72
     2
 73
     0
 90
        0
 40
-0.6
 41
-30.0
 62
     5
 63
     7
 74
     1
 91
        0
 64
     7
 65
   257
 75
     1
175
     1
 42
1.0
 92
        8
 66
     8
 43
1.0
 76
     1
 77
     6
 78
     2
 67
     7
 79
     5
170
     0
171
     0
290
     0
174
     0
 93
       13
 44
0.0
173
     0
291
     0
 45
0.0
1001
ACAD
1000
AcDbSavedByObjectVersion
1070
     0
  0
VISUALSTYLE
  5
37
102
{ACAD_REACTORS
330
2A
102
}
330
2A
100
AcDbVisualStyle
  2
Thicken
 70
    13
 71
     2
 72
     2
 73
     0
 90
        0
 40
-0.6
 41
-30.0
 62
     5
 63
     7
 74
     1
 91
        4
 64
     7
 65
   257
 75
     1
175
     1
 42
1.0
 92
       12
 66
     7
 43
1.0
 76
     1
 77
     6
 78
     2
 67
     7
 79
     5
170
     0
171
     0
290
     0
174
     0
 93
        1
 44
0.0
173
     0
291
     1
 45
0.0
1001
ACAD
1000
AcDbSavedByObjectVersion
1070
     0
  0
DICTIONARYVAR
  5
4DD
102
{ACAD_REACTORS
330
4DC
102
}
330
4DC
100
DictionaryVariables
280
     0
  1
1:1
  0
DICTIONARYVAR
  5
4E1
102
{ACAD_REACTORS
330
4DC
102
}
330
4DC
100
DictionaryVariables
280
     0
  1
80.000000
  0
DICTIONARYVAR
  5
4E0
102
{ACAD_REACTORS
330
4DC
102
}
330
4DC
100
DictionaryVariables
280
     0
  1
5.000000
  0
ENDSEC
  0
EOF
