  0
SECTION
  2
HEADER
  9
$ACADVER
  1
AC1015
  9
$ACADMAINTVER
 70
     6
  9
$DWGCODEPAGE
  3
ANSI_932
  9
$INSBASE
 10
0.0
 20
0.0
 30
0.0
  9
$EXTMIN
 10
27.017532
 20
9.974998
 30
0.0
  9
$EXTMAX
 10
203.349548
 20
120.918541
 30
0.0
  9
$LIMMIN
 10
0.0
 20
0.0
  9
$LIMMAX
 10
12.0
 20
9.0
  9
$ORTHOMODE
 70
     0
  9
$REGENMODE
 70
     1
  9
$FILLMODE
 70
     1
  9
$QTEXTMODE
 70
     0
  9
$MIRRTEXT
 70
     1
  9
$LTSCALE
 40
2.083301
  9
$ATTMODE
 70
     1
  9
$TEXTSIZE
 40
3.2
  9
$TRACEWID
 40
1.0
  9
$TEXTSTYLE
  7
Standard
  9
$CLAYER
  8
0
  9
$CELTYPE
  6
ByLayer
  9
$CECOLOR
 62
   256
  9
$CELTSCALE
 40
1.0
  9
$DISPSILH
 70
     0
  9
$DIMSCALE
 40
1.0
  9
$DIMASZ
 40
2.5
  9
$DIMEXO
 40
0.625
  9
$DIMDLI
 40
3.75
  9
$DIMRND
 40
0.0
  9
$DIMDLE
 40
0.0
  9
$DIMEXE
 40
1.25
  9
$DIMTP
 40
0.0
  9
$DIMTM
 40
0.0
  9
$DIMTXT
 40
2.5
  9
$DIMCEN
 40
0.09
  9
$DIMTSZ
 40
0.0
  9
$DIMTOL
 70
     0
  9
$DIMLIM
 70
     0
  9
$DIMTIH
 70
     0
  9
$DIMTOH
 70
     0
  9
$DIMSE1
 70
     0
  9
$DIMSE2
 70
     0
  9
$DIMTAD
 70
     0
  9
$DIMZIN
 70
     8
  9
$DIMBLK
  1

  9
$DIMASO
 70
     1
  9
$DIMSHO
 70
     0
  9
$DIMPOST
  1

  9
$DIMAPOST
  1

  9
$DIMALT
 70
     0
  9
$DIMALTD
 70
     3
  9
$DIMALTF
 40
0.03937
  9
$DIMLFAC
 40
1.0
  9
$DIMTOFL
 70
     1
  9
$DIMTVP
 40
0.0
  9
$DIMTIX
 70
     0
  9
$DIMSOXD
 70
     0
  9
$DIMSAH
 70
     0
  9
$DIMBLK1
  1

  9
$DIMBLK2
  1

  9
$DIMSTYLE
  2
ISO-25
  9
$DIMCLRD
 70
     0
  9
$DIMCLRE
 70
     0
  9
$DIMCLRT
 70
     0
  9
$DIMTFAC
 40
1.0
  9
$DIMGAP
 40
0.625
  9
$DIMJUST
 70
     0
  9
$DIMSD1
 70
     0
  9
$DIMSD2
 70
     0
  9
$DIMTOLJ
 70
     0
  9
$DIMTZIN
 70
     8
  9
$DIMALTZ
 70
     0
  9
$DIMALTTZ
 70
     0
  9
$DIMUPT
 70
     0
  9
$DIMDEC
 70
     2
  9
$DIMTDEC
 70
     2
  9
$DIMALTU
 70
     2
  9
$DIMALTTD
 70
     3
  9
$DIMTXSTY
  7
Standard
  9
$DIMAUNIT
 70
     0
  9
$DIMADEC
 70
     0
  9
$DIMALTRND
 40
0.0
  9
$DIMAZIN
 70
     0
  9
$DIMDSEP
 70
    44
  9
$DIMATFIT
 70
     3
  9
$DIMFRAC
 70
     0
  9
$DIMLDRBLK
  1

  9
$DIMLUNIT
 70
     2
  9
$DIMLWD
 70
    -2
  9
$DIMLWE
 70
    -2
  9
$DIMTMOVE
 70
     0
  9
$LUNITS
 70
     2
  9
$LUPREC
 70
     4
  9
$SKETCHINC
 40
1.0
  9
$FILLETRAD
 40
0.0
  9
$AUNITS
 70
     0
  9
$AUPREC
 70
     0
  9
$MENU
  1
.
  9
$ELEVATION
 40
0.0
  9
$PELEVATION
 40
0.0
  9
$THICKNESS
 40
0.0
  9
$LIMCHECK
 70
     0
  9
$CHAMFERA
 40
10.0
  9
$CHAMFERB
 40
10.0
  9
$CHAMFERC
 40
20.0
  9
$CHAMFERD
 40
0.0
  9
$SKPOLY
 70
     0
  9
$TDCREATE
 40
2456244.594682975
  9
$TDUCREATE
 40
2456244.219682975
  9
$TDUPDATE
 40
2456244.594682986
  9
$TDUUPDATE
 40
2456244.219682986
  9
$TDINDWG
 40
0.0000000116
  9
$TDUSRTIMER
 40
0.0000000116
  9
$USRTIMER
 70
     1
  9
$ANGBASE
 50
0.0
  9
$ANGDIR
 70
     0
  9
$PDMODE
 70
     0
  9
$PDSIZE
 40
0.0
  9
$PLINEWID
 40
0.0
  9
$SPLFRAME
 70
     0
  9
$SPLINETYPE
 70
     6
  9
$SPLINESEGS
 70
     8
  9
$HANDSEED
  5
4F7
  9
$SURFTAB1
 70
     6
  9
$SURFTAB2
 70
     6
  9
$SURFTYPE
 70
     6
  9
$SURFU
 70
     6
  9
$SURFV
 70
     6
  9
$UCSBASE
  2

  9
$UCSNAME
  2

  9
$UCSORG
 10
0.0
 20
0.0
 30
0.0
  9
$UCSXDIR
 10
1.0
 20
0.0
 30
0.0
  9
$UCSYDIR
 10
0.0
 20
1.0
 30
0.0
  9
$UCSORTHOREF
  2

  9
$UCSORTHOVIEW
 70
     0
  9
$UCSORGTOP
 10
0.0
 20
0.0
 30
0.0
  9
$UCSORGBOTTOM
 10
0.0
 20
0.0
 30
0.0
  9
$UCSORGLEFT
 10
0.0
 20
0.0
 30
0.0
  9
$UCSORGRIGHT
 10
0.0
 20
0.0
 30
0.0
  9
$UCSORGFRONT
 10
0.0
 20
0.0
 30
0.0
  9
$UCSORGBACK
 10
0.0
 20
0.0
 30
0.0
  9
$PUCSBASE
  2

  9
$PUCSNAME
  2

  9
$PUCSORG
 10
0.0
 20
0.0
 30
0.0
  9
$PUCSXDIR
 10
1.0
 20
0.0
 30
0.0
  9
$PUCSYDIR
 10
0.0
 20
1.0
 30
0.0
  9
$PUCSORTHOREF
  2

  9
$PUCSORTHOVIEW
 70
     0
  9
$PUCSORGTOP
 10
0.0
 20
0.0
 30
0.0
  9
$PUCSORGBOTTOM
 10
0.0
 20
0.0
 30
0.0
  9
$PUCSORGLEFT
 10
0.0
 20
0.0
 30
0.0
  9
$PUCSORGRIGHT
 10
0.0
 20
0.0
 30
0.0
  9
$PUCSORGFRONT
 10
0.0
 20
0.0
 30
0.0
  9
$PUCSORGBACK
 10
0.0
 20
0.0
 30
0.0
  9
$USERI1
 70
     0
  9
$USERI2
 70
     0
  9
$USERI3
 70
     0
  9
$USERI4
 70
     0
  9
$USERI5
 70
     0
  9
$USERR1
 40
0.0
  9
$USERR2
 40
0.0
  9
$USERR3
 40
0.0
  9
$USERR4
 40
0.0
  9
$USERR5
 40
0.0
  9
$WORLDVIEW
 70
     1
  9
$SHADEDGE
 70
     3
  9
$SHADEDIF
 70
    70
  9
$TILEMODE
 70
     1
  9
$MAXACTVP
 70
    64
  9
$PINSBASE
 10
0.0
 20
0.0
 30
0.0
  9
$PLIMCHECK
 70
     0
  9
$PEXTMIN
 10
1.000000E+20
 20
1.000000E+20
 30
0.0
  9
$PEXTMAX
 10
-1.000000E+20
 20
-1.000000E+20
 30
0.0
  9
$PLIMMIN
 10
0.0
 20
0.0
  9
$PLIMMAX
 10
12.0
 20
9.0
  9
$UNITMODE
 70
     0
  9
$VISRETAIN
 70
     1
  9
$PLINEGEN
 70
     0
  9
$PSLTSCALE
 70
     1
  9
$TREEDEPTH
 70
  3020
  9
$CMLSTYLE
  2
Standard
  9
$CMLJUST
 70
     0
  9
$CMLSCALE
 40
20.0
  9
$PROXYGRAPHICS
 70
     1
  9
$MEASUREMENT
 70
     1
  9
$CELWEIGHT
370
    -1
  9
$ENDCAPS
280
     0
  9
$JOINSTYLE
280
     0
  9
$LWDISPLAY
290
     0
  9
$INSUNITS
 70
     4
  9
$HYPERLINKBASE
  1

  9
$STYLESHEET
  1

  9
$XEDIT
290
     1
  9
$CEPSNTYPE
380
     0
  9
$PSTYLEMODE
290
     1
  9
$FINGERPRINTGUID
  2
{EF1A5565-4AEC-4B2B-9A97-6AE7044C5359}
  9
$VERSIONGUID
  2
{FAEB1C32-E019-11D5-929B-00C0DF256EC4}
  9
$EXTNAMES
290
     1
  9
$PSVPSCALE
 40
0.0
  9
$OLESTARTUP
290
     0
  0
ENDSEC
  0
SECTION
  2
CLASSES
  0
CLASS
  1
ACDBDICTIONARYWDFLT
  2
AcDbDictionaryWithDefault
  3
ObjectDBX Classes
 90
        0
280
     0
281
     0
  0
CLASS
  1
VISUALSTYLE
  2
AcDbVisualStyle
  3
ObjectDBX Classes
 90
     4095
280
     0
281
     0
  0
CLASS
  1
SCALE
  2
AcDbScale
  3
ObjectDBX Classes
 90
     1153
280
     0
281
     0
  0
CLASS
  1
DICTIONARYVAR
  2
AcDbDictionaryVar
  3
ObjectDBX Classes
 90
        0
280
     0
281
     0
  0
CLASS
  1
ACDBPLACEHOLDER
  2
AcDbPlaceHolder
  3
ObjectDBX Classes
 90
        0
280
     0
281
     0
  0
CLASS
  1
LAYOUT
  2
AcDbLayout
  3
ObjectDBX Classes
 90
        0
280
     0
281
     0
  0
ENDSEC
  0
SECTION
  2
TABLES
  0
TABLE
  2
VPORT
  5
8
330
0
100
AcDbSymbolTable
 70
     1
  0
VPORT
  5
29
330
8
100
AcDbSymbolTableRecord
100
AcDbViewportTableRecord
  2
*Active
 70
     0
 10
0.0
 20
0.0
 11
1.0
 21
1.0
 12
115.18354
 22
65.44677
 13
0.0
 23
0.0
 14
1.0
 24
1.0
 15
0.0
 25
0.0
 16
0.0
 26
0.0
 36
1.0
 17
0.0
 27
0.0
 37
0.0
 40
112.052978
 41
1.691288
 42
50.0
 43
0.0
 44
0.0
 50
0.0
 51
0.0
 71
     0
 72
   100
 73
     1
 74
     3
 75
     0
 76
     0
 77
     0
 78
     0
281
     0
 65
     1
110
0.0
120
0.0
130
0.0
111
1.0
121
0.0
131
0.0
112
0.0
122
1.0
132
0.0
 79
     0
146
0.0
  0
ENDTAB
  0
TABLE
  2
LTYPE
  5
5
330
0
100
AcDbSymbolTable
 70
     5
  0
LTYPE
  5
14
330
5
100
AcDbSymbolTableRecord
100
AcDbLinetypeTableRecord
  2
ByBlock
 70
     0
  3

 72
    65
 73
     0
 40
0.0
  0
LTYPE
  5
15
330
5
100
AcDbSymbolTableRecord
100
AcDbLinetypeTableRecord
  2
ByLayer
 70
     0
  3

 72
    65
 73
     0
 40
0.0
  0
LTYPE
  5
16
330
5
100
AcDbSymbolTableRecord
100
AcDbLinetypeTableRecord
  2
Continuous
 70
     0
  3
Solid line
 72
    65
 73
     0
 40
0.0
  0
LTYPE
  5
5D
330
5
100
AcDbSymbolTableRecord
100
AcDbLinetypeTableRecord
  2
DASHED
 70
     0
  3
DASHED
 72
    83
 73
     2
 40
0.75
 49
0.5
 74
     0
 49
-0.25
 74
     0
  0
LTYPE
  5
5E
330
5
100
AcDbSymbolTableRecord
100
AcDbLinetypeTableRecord
  2
HIDDEN
 70
     0
  3
HIDDEN
 72
    83
 73
     2
 40
0.375
 49
0.25
 74
     0
 49
-0.125
 74
     0
  0
LTYPE
  5
5F
330
5
100
AcDbSymbolTableRecord
100
AcDbLinetypeTableRecord
  2
CENTER
 70
     0
  3
CENTER
 72
    83
 73
     4
 40
2.0
 49
1.25
 74
     0
 49
-0.25
 74
     0
 49
0.25
 74
     0
 49
-0.25
 74
     0
  0
LTYPE
  5
60
330
5
100
AcDbSymbolTableRecord
100
AcDbLinetypeTableRecord
  2
PHANTOM
 70
     0
  3
PHANTOM
 72
    83
 73
     6
 40
2.5
 49
1.25
 74
     0
 49
-0.25
 74
     0
 49
0.25
 74
     0
 49
-0.25
 74
     0
 49
0.25
 74
     0
 49
-0.25
 74
     0
  0
ENDTAB
  0
TABLE
  2
LAYER
  5
2
330
0
100
AcDbSymbolTable
 70
     2
  0
LAYER
  5
10
330
2
100
AcDbSymbolTableRecord
100
AcDbLayerTableRecord
  2
0
 70
     0
 62
     7
  6
Continuous
370
    -3
390
F
  0
LAYER
  5
61
330
2
100
AcDbSymbolTableRecord
100
AcDbLayerTableRecord
  2
001
 70
     0
 62
     7
  6
Continuous
370
    -3
390
F
  0
ENDTAB
  0
TABLE
  2
STYLE
  5
3
330
0
100
AcDbSymbolTable
 70
     2
  0
STYLE
  5
11
330
3
100
AcDbSymbolTableRecord
100
AcDbTextStyleTableRecord
  2
Standard
 70
     0
 40
0.0
 41
1.0
 50
0.0
 71
     0
 42
0.2
  3
TXT
  4
BIGFONT
  0
STYLE
  5
62
330
3
100
AcDbSymbolTableRecord
100
AcDbTextStyleTableRecord
  2
TATEGAKI
 70
     4
 40
1.0
 41
1.0
 50
0.0
 71
     0
 42
0.2
  3
TXT
  4
BIGFONT
  0
ENDTAB
  0
TABLE
  2
VIEW
  5
6
330
0
100
AcDbSymbolTable
 70
     0
  0
ENDTAB
  0
TABLE
  2
UCS
  5
7
330
0
100
AcDbSymbolTable
 70
     0
  0
ENDTAB
  0
TABLE
  2
APPID
  5
9
330
0
100
AcDbSymbolTable
 70
     1
  0
APPID
  5
12
330
9
100
AcDbSymbolTableRecord
100
AcDbRegAppTableRecord
  2
ACAD
 70
     0
  0
ENDTAB
  0
TABLE
  2
DIMSTYLE
  5
A
330
0
100
AcDbSymbolTable
 70
     2
100
AcDbDimStyleTable
  0
DIMSTYLE
105
27
330
A
100
AcDbSymbolTableRecord
100
AcDbDimStyleTableRecord
  2
ISO-25
 70
     0
 41
2.5
 42
0.625
 43
3.75
 44
1.25
 73
     0
 74
     0
 77
     1
 78
     8
140
2.5
141
2.5
143
0.03937
147
0.625
171
     3
172
     1
271
     2
272
     2
274
     3
278
    44
283
     0
284
     8
340
11
  0
DIMSTYLE
105
63
102
{ACAD_REACTORS
330
43F
330
440
330
441
330
44E
330
44F
330
450
102
}
330
A
100
AcDbSymbolTableRecord
100
AcDbDimStyleTableRecord
  2
Standard
 70
     0
 41
1.5
 42
0.0
 44
2.75
 73
     0
 74
     0
 77
     1
 78
     8
 79
     2
140
4.0
146
0.8
147
1.0
172
     1
179
     1
271
     1
340
11
  0
ENDTAB
  0
TABLE
  2
BLOCK_RECORD
  5
1
330
0
100
AcDbSymbolTable
 70
     9
  0
BLOCK_RECORD
  5
1F
330
1
100
AcDbSymbolTableRecord
100
AcDbBlockTableRecord
  2
*Model_Space
340
22
  0
BLOCK_RECORD
  5
1B
330
1
100
AcDbSymbolTableRecord
100
AcDbBlockTableRecord
  2
*Paper_Space
340
1E
  0
BLOCK_RECORD
  5
23
330
1
100
AcDbSymbolTableRecord
100
AcDbBlockTableRecord
  2
*Paper_Space0
340
26
  0
BLOCK_RECORD
  5
64
330
1
100
AcDbSymbolTableRecord
100
AcDbBlockTableRecord
  2
M-1-1
340
0
102
{BLKREFS
331
43D
102
}
  0
BLOCK_RECORD
  5
258
330
1
100
AcDbSymbolTableRecord
100
AcDbBlockTableRecord
  2
C32GUX-2
340
0
102
{BLKREFS
331
43E
102
}
  0
BLOCK_RECORD
  5
3BF
330
1
100
AcDbSymbolTableRecord
100
AcDbBlockTableRecord
  2
*D3
340
0
  0
BLOCK_RECORD
  5
3D3
330
1
100
AcDbSymbolTableRecord
100
AcDbBlockTableRecord
  2
*D4
340
0
  0
BLOCK_RECORD
  5
3E9
330
1
100
AcDbSymbolTableRecord
100
AcDbBlockTableRecord
  2
*D5
340
0
  0
BLOCK_RECORD
  5
400
330
1
100
AcDbSymbolTableRecord
100
AcDbBlockTableRecord
  2
*D6
340
0
  0
BLOCK_RECORD
  5
414
330
1
100
AcDbSymbolTableRecord
100
AcDbBlockTableRecord
  2
*D7
340
0
  0
BLOCK_RECORD
  5
428
330
1
100
AcDbSymbolTableRecord
100
AcDbBlockTableRecord
  2
*D8
340
0
  0
ENDTAB
  0
ENDSEC
  0
SECTION
  2
BLOCKS
  0
BLOCK
  5
20
330
1F
100
AcDbEntity
  8
0
100
AcDbBlockBegin
  2
*Model_Space
 70
     0
 10
0.0
 20
0.0
 30
0.0
  3
*Model_Space
  1

  0
ENDBLK
  5
21
330
1F
100
AcDbEntity
  8
0
100
AcDbBlockEnd
  0
BLOCK
  5
1C
330
1B
100
AcDbEntity
 67
     1
  8
0
100
AcDbBlockBegin
  2
*Paper_Space
 70
     0
 10
0.0
 20
0.0
 30
0.0
  3
*Paper_Space
  1

  0
ENDBLK
  5
1D
330
1B
100
AcDbEntity
 67
     1
  8
0
100
AcDbBlockEnd
  0
BLOCK
  5
24
330
23
100
AcDbEntity
  8
0
100
AcDbBlockBegin
  2
*Paper_Space0
 70
     0
 10
0.0
 20
0.0
 30
0.0
  3
*Paper_Space0
  1

  0
ENDBLK
  5
25
330
23
100
AcDbEntity
  8
0
100
AcDbBlockEnd
  0
BLOCK
  5
65
330
64
100
AcDbEntity
  8
0
100
AcDbBlockBegin
  2
M-1-1
 70
     0
 10
0.0
 20
0.0
 30
0.0
  3
M-1-1
  1

  0
POLYLINE
  5
67
330
64
100
AcDbEntity
  8
001
 62
     5
370
    50
100
AcDb2dPolyline
 66
     1
 10
0.0
 20
0.0
 30
0.0
  0
VERTEX
  5
69
330
67
100
AcDbEntity
  8
001
 62
     5
370
    50
100
AcDbVertex
100
AcDb2dVertex
 10
59.074783
 20
69.276611
 30
0.0
  0
VERTEX
  5
6A
330
67
100
AcDbEntity
  8
001
 62
     5
370
    50
100
AcDbVertex
100
AcDb2dVertex
 10
58.99275
 20
69.248697
 30
0.0
  0
VERTEX
  5
6B
330
67
100
AcDbEntity
  8
001
 62
     5
370
    50
100
AcDbVertex
100
AcDb2dVertex
 10
58.911593
 20
69.218512
 30
0.0
  0
VERTEX
  5
6C
330
67
100
AcDbEntity
  8
001
 62
     5
370
    50
100
AcDbVertex
100
AcDb2dVertex
 10
58.834343
 20
69.185348
 30
0.0
  0
VERTEX
  5
6D
330
67
100
AcDbEntity
  8
001
 62
     5
370
    50
100
AcDbVertex
100
AcDb2dVertex
 10
58.758694
 20
69.148573
 30
0.0
  0
VERTEX
  5
6E
330
67
100
AcDbEntity
  8
001
 62
     5
370
    50
100
AcDbVertex
100
AcDb2dVertex
 10
58.684497
 20
69.108652
 30
0.0
  0
VERTEX
  5
6F
330
67
100
AcDbEntity
  8
001
 62
     5
370
    50
100
AcDbVertex
100
AcDb2dVertex
 10
58.612036
 20
69.065702
 30
0.0
  0
VERTEX
  5
70
330
67
100
AcDbEntity
  8
001
 62
     5
370
    50
100
AcDbVertex
100
AcDb2dVertex
 10
58.541328
 20
69.019581
 30
0.0
  0
VERTEX
  5
71
330
67
100
AcDbEntity
  8
001
 62
     5
370
    50
100
AcDbVertex
100
AcDb2dVertex
 10
58.472647
 20
68.97048
 30
0.0
  0
VERTEX
  5
72
330
67
100
AcDbEntity
  8
001
 62
     5
370
    50
100
AcDbVertex
100
AcDb2dVertex
 10
58.40595
 20
68.918407
 30
0.0
  0
VERTEX
  5
73
330
67
100
AcDbEntity
  8
001
 62
     5
370
    50
100
AcDbVertex
100
AcDb2dVertex
 10
58.341509
 20
68.863573
 30
0.0
  0
VERTEX
  5
74
330
67
100
AcDbEntity
  8
001
 62
     5
370
    50
100
AcDbVertex
100
AcDb2dVertex
 10
58.279287
 20
68.805933
 30
0.0
  0
VERTEX
  5
75
330
67
100
AcDbEntity
  8
001
 62
     5
370
    50
100
AcDbVertex
100
AcDb2dVertex
 10
58.219543
 20
68.745728
 30
0.0
  0
VERTEX
  5
76
330
67
100
AcDbEntity
  8
001
 62
     5
370
    50
100
AcDbVertex
100
AcDb2dVertex
 10
58.162239
 20
68.682921
 30
0.0
  0
VERTEX
  5
77
330
67
100
AcDbEntity
  8
001
 62
     5
370
    50
100
AcDbVertex
100
AcDb2dVertex
 10
58.107611
 20
68.617772
 30
0.0
  0
VERTEX
  5
78
330
67
100
AcDbEntity
  8
001
 62
     5
370
    50
100
AcDbVertex
100
AcDb2dVertex
 10
58.055628
 20
68.550239
 30
0.0
  0
VERTEX
  5
79
330
67
100
AcDbEntity
  8
001
 62
     5
370
    50
100
AcDbVertex
100
AcDb2dVertex
 10
58.006503
 20
68.480601
 30
0.0
  0
VERTEX
  5
7A
330
67
100
AcDbEntity
  8
001
 62
     5
370
    50
100
AcDbVertex
100
AcDb2dVertex
 10
57.960211
 20
68.408818
 30
0.0
  0
VERTEX
  5
7B
330
67
100
AcDbEntity
  8
001
 62
     5
370
    50
100
AcDbVertex
100
AcDb2dVertex
 10
57.916935
 20
68.335177
 30
0.0
  0
VERTEX
  5
7C
330
67
100
AcDbEntity
  8
001
 62
     5
370
    50
100
AcDbVertex
100
AcDb2dVertex
 10
57.876661
 20
68.25965
 30
0.0
  0
VERTEX
  5
7D
330
67
100
AcDbEntity
  8
001
 62
     5
370
    50
100
AcDbVertex
100
AcDb2dVertex
 10
57.839542
 20
68.182524
 30
0.0
  0
VERTEX
  5
7E
330
67
100
AcDbEntity
  8
001
 62
     5
370
    50
100
AcDbVertex
100
AcDb2dVertex
 10
57.805573
 20
68.103785
 30
0.0
  0
VERTEX
  5
7F
330
67
100
AcDbEntity
  8
001
 62
     5
370
    50
100
AcDbVertex
100
AcDb2dVertex
 10
57.774875
 20
68.023714
 30
0.0
  0
VERTEX
  5
80
330
67
100
AcDbEntity
  8
001
 62
     5
370
    50
100
AcDbVertex
100
AcDb2dVertex
 10
57.747451
 20
67.942318
 30
0.0
  0
VERTEX
  5
81
330
67
100
AcDbEntity
  8
001
 62
     5
370
    50
100
AcDbVertex
100
AcDb2dVertex
 10
57.723393
 20
67.859866
 30
0.0
  0
VERTEX
  5
82
330
67
100
AcDbEntity
  8
001
 62
     5
370
    50
100
AcDbVertex
100
AcDb2dVertex
 10
57.702711
 20
67.776388
 30
0.0
  0
VERTEX
  5
83
330
67
100
AcDbEntity
  8
001
 62
     5
370
    50
100
AcDbVertex
100
AcDb2dVertex
 10
57.685466
 20
67.692134
 30
0.0
  0
VERTEX
  5
84
330
67
100
AcDbEntity
  8
001
 62
     5
370
    50
100
AcDbVertex
100
AcDb2dVertex
 10
57.671672
 20
67.607165
 30
0.0
  0
VERTEX
  5
85
330
67
100
AcDbEntity
  8
001
 62
     5
370
    50
100
AcDbVertex
100
AcDb2dVertex
 10
57.661365
 20
67.521703
 30
0.0
  0
VERTEX
  5
86
330
67
100
AcDbEntity
  8
001
 62
     5
370
    50
100
AcDbVertex
100
AcDb2dVertex
 10
57.654558
 20
67.435842
 30
0.0
  0
VERTEX
  5
87
330
67
100
AcDbEntity
  8
001
 62
     5
370
    50
100
AcDbVertex
100
AcDb2dVertex
 10
57.651266
 20
67.349775
 30
0.0
  0
VERTEX
  5
88
330
67
100
AcDbEntity
  8
001
 62
     5
370
    50
100
AcDbVertex
100
AcDb2dVertex
 10
57.651495
 20
67.263629
 30
0.0
  0
VERTEX
  5
89
330
67
100
AcDbEntity
  8
001
 62
     5
370
    50
100
AcDbVertex
100
AcDb2dVertex
 10
57.655244
 20
67.177565
 30
0.0
  0
VERTEX
  5
8A
330
67
100
AcDbEntity
  8
001
 62
     5
370
    50
100
AcDbVertex
100
AcDb2dVertex
 10
57.662508
 20
67.091745
 30
0.0
  0
VERTEX
  5
8B
330
67
100
AcDbEntity
  8
001
 62
     5
370
    50
100
AcDbVertex
100
AcDb2dVertex
 10
57.673275
 20
67.006293
 30
0.0
  0
VERTEX
  5
8C
330
67
100
AcDbEntity
  8
001
 62
     5
370
    50
100
AcDbVertex
100
AcDb2dVertex
 10
57.687522
 20
66.921405
 30
0.0
  0
VERTEX
  5
8D
330
67
100
AcDbEntity
  8
001
 62
     5
370
    50
100
AcDbVertex
100
AcDb2dVertex
 10
57.705234
 20
66.837171
 30
0.0
  0
VERTEX
  5
8E
330
67
100
AcDbEntity
  8
001
 62
     5
370
    50
100
AcDbVertex
100
AcDb2dVertex
 10
57.726364
 20
66.753816
 30
0.0
  0
VERTEX
  5
8F
330
67
100
AcDbEntity
  8
001
 62
     5
370
    50
100
AcDbVertex
100
AcDb2dVertex
 10
57.750898
 20
66.671398
 30
0.0
  0
VERTEX
  5
90
330
67
100
AcDbEntity
  8
001
 62
     5
370
    50
100
AcDbVertex
100
AcDb2dVertex
 10
57.778761
 20
66.590164
 30
0.0
  0
VERTEX
  5
91
330
67
100
AcDbEntity
  8
001
 62
     5
370
    50
100
AcDbVertex
100
AcDb2dVertex
 10
57.809944
 20
66.510146
 30
0.0
  0
VERTEX
  5
92
330
67
100
AcDbEntity
  8
001
 62
     5
370
    50
100
AcDbVertex
100
AcDb2dVertex
 10
57.844344
 20
66.431609
 30
0.0
  0
VERTEX
  5
93
330
67
100
AcDbEntity
  8
001
 62
     5
370
    50
100
AcDbVertex
100
AcDb2dVertex
 10
57.881956
 20
66.354559
 30
0.0
  0
VERTEX
  5
94
330
67
100
AcDbEntity
  8
001
 62
     5
370
    50
100
AcDbVertex
100
AcDb2dVertex
 10
57.922648
 20
66.279273
 30
0.0
  0
VERTEX
  5
95
330
67
100
AcDbEntity
  8
001
 62
     5
370
    50
100
AcDbVertex
100
AcDb2dVertex
 10
57.966425
 20
66.205738
 30
0.0
  0
VERTEX
  5
96
330
67
100
AcDbEntity
  8
001
 62
     5
370
    50
100
AcDbVertex
100
AcDb2dVertex
 10
58.01312
 20
66.134235
 30
0.0
  0
VERTEX
  5
97
330
67
100
AcDbEntity
  8
001
 62
     5
370
    50
100
AcDbVertex
100
AcDb2dVertex
 10
58.062751
 20
66.064738
 30
0.0
  0
VERTEX
  5
98
330
67
100
AcDbEntity
  8
001
 62
     5
370
    50
100
AcDbVertex
100
AcDb2dVertex
 10
58.115119
 20
65.997523
 30
0.0
  0
VERTEX
  5
99
330
67
100
AcDbEntity
  8
001
 62
     5
370
    50
100
AcDbVertex
100
AcDb2dVertex
 10
58.170251
 20
65.932556
 30
0.0
  0
VERTEX
  5
9A
330
67
100
AcDbEntity
  8
001
 62
     5
370
    50
100
AcDbVertex
100
AcDb2dVertex
 10
58.227921
 20
65.870103
 30
0.0
  0
VERTEX
  5
9B
330
67
100
AcDbEntity
  8
001
 62
     5
370
    50
100
AcDbVertex
100
AcDb2dVertex
 10
58.288162
 20
65.810127
 30
0.0
  0
VERTEX
  5
9C
330
67
100
AcDbEntity
  8
001
 62
     5
370
    50
100
AcDbVertex
100
AcDb2dVertex
 10
58.350724
 20
65.752877
 30
0.0
  0
VERTEX
  5
9D
330
67
100
AcDbEntity
  8
001
 62
     5
370
    50
100
AcDbVertex
100
AcDb2dVertex
 10
58.415646
 20
65.698316
 30
0.0
  0
VERTEX
  5
9E
330
67
100
AcDbEntity
  8
001
 62
     5
370
    50
100
AcDbVertex
100
AcDb2dVertex
 10
58.482658
 20
65.646672
 30
0.0
  0
VERTEX
  5
9F
330
67
100
AcDbEntity
  8
001
 62
     5
370
    50
100
AcDbVertex
100
AcDb2dVertex
 10
58.551798
 20
65.597912
 30
0.0
  0
VERTEX
  5
A0
330
67
100
AcDbEntity
  8
001
 62
     5
370
    50
100
AcDbVertex
100
AcDb2dVertex
 10
58.622785
 20
65.552232
 30
0.0
  0
VERTEX
  5
A1
330
67
100
AcDbEntity
  8
001
 62
     5
370
    50
100
AcDbVertex
100
AcDb2dVertex
 10
58.695651
 20
65.509619
 30
0.0
  0
VERTEX
  5
A2
330
67
100
AcDbEntity
  8
001
 62
     5
370
    50
100
AcDbVertex
100
AcDb2dVertex
 10
58.770114
 20
65.470241
 30
0.0
  0
VERTEX
  5
A3
330
67
100
AcDbEntity
  8
001
 62
     5
370
    50
100
AcDbVertex
100
AcDb2dVertex
 10
58.846187
 20
65.434059
 30
0.0
  0
VERTEX
  5
A4
330
67
100
AcDbEntity
  8
001
 62
     5
370
    50
100
AcDbVertex
100
AcDb2dVertex
 10
58.923591
 20
65.401199
 30
0.0
  0
VERTEX
  5
A5
330
67
100
AcDbEntity
  8
001
 62
     5
370
    50
100
AcDbVertex
100
AcDb2dVertex
 10
59.002339
 20
65.371757
 30
0.0
  0
VERTEX
  5
A6
330
67
100
AcDbEntity
  8
001
 62
     5
370
    50
100
AcDbVertex
100
AcDb2dVertex
 10
59.010674
 20
65.368871
 30
0.0
  0
VERTEX
  5
A7
330
67
100
AcDbEntity
  8
001
 62
     5
370
    50
100
AcDbVertex
100
AcDb2dVertex
 10
59.019016
 20
65.366004
 30
0.0
  0
SEQEND
  5
68
330
67
100
AcDbEntity
  8
001
370
    50
  0
POLYLINE
  5
A8
330
64
100
AcDbEntity
  8
001
 62
     5
370
    50
100
AcDb2dPolyline
 66
     1
 10
0.0
 20
0.0
 30
0.0
  0
VERTEX
  5
AA
330
A8
100
AcDbEntity
  8
001
 62
     5
370
    50
100
AcDbVertex
100
AcDb2dVertex
 10
59.645384
 20
65.262291
 30
0.0
  0
VERTEX
  5
AB
330
A8
100
AcDbEntity
  8
001
 62
     5
370
    50
100
AcDbVertex
100
AcDb2dVertex
 10
59.786466
 20
65.268192
 30
0.0
  0
VERTEX
  5
AC
330
A8
100
AcDbEntity
  8
001
 62
     5
370
    50
100
AcDbVertex
100
AcDb2dVertex
 10
59.990675
 20
65.293435
 30
0.0
  0
VERTEX
  5
AD
330
A8
100
AcDbEntity
  8
001
 62
     5
370
    50
100
AcDbVertex
100
AcDb2dVertex
 10
60.14488
 20
65.328453
 30
0.0
  0
VERTEX
  5
AE
330
A8
100
AcDbEntity
  8
001
 62
     5
370
    50
100
AcDbVertex
100
AcDb2dVertex
 10
60.24891
 20
65.358997
 30
0.0
  0
SEQEND
  5
A9
330
A8
100
AcDbEntity
  8
001
370
    50
  0
POLYLINE
  5
AF
330
64
100
AcDbEntity
  8
001
 62
     5
370
    50
100
AcDb2dPolyline
 66
     1
 10
0.0
 20
0.0
 30
0.0
  0
VERTEX
  5
B1
330
AF
100
AcDbEntity
  8
001
 62
     5
370
    50
100
AcDbVertex
100
AcDb2dVertex
 10
59.645384
 20
69.362291
 30
0.0
  0
VERTEX
  5
B2
330
AF
100
AcDbEntity
  8
001
 62
     5
370
    50
100
AcDbVertex
100
AcDb2dVertex
 10
59.504312
 20
69.356392
 30
0.0
  0
VERTEX
  5
B3
330
AF
100
AcDbEntity
  8
001
 62
     5
370
    50
100
AcDbVertex
100
AcDb2dVertex
 10
59.300094
 20
69.331147
 30
0.0
  0
VERTEX
  5
B4
330
AF
100
AcDbEntity
  8
001
 62
     5
370
    50
100
AcDbVertex
100
AcDb2dVertex
 10
59.167668
 20
69.301937
 30
0.0
  0
VERTEX
  5
B5
330
AF
100
AcDbEntity
  8
001
 62
     5
370
    50
100
AcDbVertex
100
AcDb2dVertex
 10
59.078111
 20
69.277099
 30
0.0
  0
SEQEND
  5
B0
330
AF
100
AcDbEntity
  8
001
370
    50
  0
POLYLINE
  5
B6
330
64
100
AcDbEntity
  8
001
 62
     5
370
    50
100
AcDb2dPolyline
 66
     1
 10
0.0
 20
0.0
 30
0.0
  0
VERTEX
  5
B8
330
B6
100
AcDbEntity
  8
001
 62
     5
370
    50
100
AcDbVertex
100
AcDb2dVertex
 10
58.964792
 20
66.121285
 30
0.0
  0
VERTEX
  5
B9
330
B6
100
AcDbEntity
  8
001
 62
     5
370
    50
100
AcDbVertex
100
AcDb2dVertex
 10
58.984661
 20
66.122316
 30
0.0
  0
VERTEX
  5
BA
330
B6
100
AcDbEntity
  8
001
 62
     5
370
    50
100
AcDbVertex
100
AcDb2dVertex
 10
59.011954
 20
66.125539
 30
0.0
  0
VERTEX
  5
BB
330
B6
100
AcDbEntity
  8
001
 62
     5
370
    50
100
AcDbVertex
100
AcDb2dVertex
 10
59.036333
 20
66.131013
 30
0.0
  0
VERTEX
  5
BC
330
B6
100
AcDbEntity
  8
001
 62
     5
370
    50
100
AcDbVertex
100
AcDb2dVertex
 10
59.057683
 20
66.138171
 30
0.0
  0
VERTEX
  5
BD
330
B6
100
AcDbEntity
  8
001
 62
     5
370
    50
100
AcDbVertex
100
AcDb2dVertex
 10
59.078481
 20
66.146838
 30
0.0
  0
VERTEX
  5
BE
330
B6
100
AcDbEntity
  8
001
 62
     5
370
    50
100
AcDbVertex
100
AcDb2dVertex
 10
59.100589
 20
66.158798
 30
0.0
  0
VERTEX
  5
BF
330
B6
100
AcDbEntity
  8
001
 62
     5
370
    50
100
AcDbVertex
100
AcDb2dVertex
 10
59.119576
 20
66.171438
 30
0.0
  0
VERTEX
  5
C0
330
B6
100
AcDbEntity
  8
001
 62
     5
370
    50
100
AcDbVertex
100
AcDb2dVertex
 10
59.132745
 20
66.181243
 30
0.0
  0
SEQEND
  5
B7
330
B6
100
AcDbEntity
  8
001
370
    50
  0
POLYLINE
  5
C1
330
64
100
AcDbEntity
  8
001
 62
     5
370
    50
100
AcDb2dPolyline
 66
     1
 10
0.0
 20
0.0
 30
0.0
  0
VERTEX
  5
C3
330
C1
100
AcDbEntity
  8
001
 62
     5
370
    50
100
AcDbVertex
100
AcDb2dVertex
 10
59.840003
 20
66.110125
 30
0.0
  0
VERTEX
  5
C4
330
C1
100
AcDbEntity
  8
001
 62
     5
370
    50
100
AcDbVertex
100
AcDb2dVertex
 10
59.786994
 20
66.162511
 30
0.0
  0
VERTEX
  5
C5
330
C1
100
AcDbEntity
  8
001
 62
     5
370
    50
100
AcDbVertex
100
AcDb2dVertex
 10
59.707181
 20
66.22369
 30
0.0
  0
VERTEX
  5
C6
330
C1
100
AcDbEntity
  8
001
 62
     5
370
    50
100
AcDbVertex
100
AcDb2dVertex
 10
59.666057
 20
66.246043
 30
0.0
  0
VERTEX
  5
C7
330
C1
100
AcDbEntity
  8
001
 62
     5
370
    50
100
AcDbVertex
100
AcDb2dVertex
 10
59.626038
 20
66.262699
 30
0.0
  0
VERTEX
  5
C8
330
C1
100
AcDbEntity
  8
001
 62
     5
370
    50
100
AcDbVertex
100
AcDb2dVertex
 10
59.585483
 20
66.276307
 30
0.0
  0
VERTEX
  5
C9
330
C1
100
AcDbEntity
  8
001
 62
     5
370
    50
100
AcDbVertex
100
AcDb2dVertex
 10
59.539559
 20
66.286588
 30
0.0
  0
VERTEX
  5
CA
330
C1
100
AcDbEntity
  8
001
 62
     5
370
    50
100
AcDbVertex
100
AcDb2dVertex
 10
59.48798
 20
66.29267
 30
0.0
  0
VERTEX
  5
CB
330
C1
100
AcDbEntity
  8
001
 62
     5
370
    50
100
AcDbVertex
100
AcDb2dVertex
 10
59.450369
 20
66.294633
 30
0.0
  0
SEQEND
  5
C2
330
C1
100
AcDbEntity
  8
001
370
    50
  0
POLYLINE
  5
CC
330
64
100
AcDbEntity
  8
001
 62
     5
370
    50
100
AcDb2dPolyline
 66
     1
 10
0.0
 20
0.0
 30
0.0
  0
VERTEX
  5
CE
330
CC
100
AcDbEntity
  8
001
 62
     5
370
    50
100
AcDbVertex
100
AcDb2dVertex
 10
60.046032
 20
66.012562
 30
0.0
  0
VERTEX
  5
CF
330
CC
100
AcDbEntity
  8
001
 62
     5
370
    50
100
AcDbVertex
100
AcDb2dVertex
 10
60.065943
 20
66.013628
 30
0.0
  0
VERTEX
  5
D0
330
CC
100
AcDbEntity
  8
001
 62
     5
370
    50
100
AcDbVertex
100
AcDb2dVertex
 10
60.093194
 20
66.016815
 30
0.0
  0
VERTEX
  5
D1
330
CC
100
AcDbEntity
  8
001
 62
     5
370
    50
100
AcDbVertex
100
AcDb2dVertex
 10
60.117365
 20
66.022109
 30
0.0
  0
VERTEX
  5
D2
330
CC
100
AcDbEntity
  8
001
 62
     5
370
    50
100
AcDbVertex
100
AcDb2dVertex
 10
60.138923
 20
66.029448
 30
0.0
  0
VERTEX
  5
D3
330
CC
100
AcDbEntity
  8
001
 62
     5
370
    50
100
AcDbVertex
100
AcDb2dVertex
 10
60.160515
 20
66.038802
 30
0.0
  0
VERTEX
  5
D4
330
CC
100
AcDbEntity
  8
001
 62
     5
370
    50
100
AcDbVertex
100
AcDb2dVertex
 10
60.181829
 20
66.050075
 30
0.0
  0
VERTEX
  5
D5
330
CC
100
AcDbEntity
  8
001
 62
     5
370
    50
100
AcDbVertex
100
AcDb2dVertex
 10
60.238429
 20
66.094489
 30
0.0
  0
VERTEX
  5
D6
330
CC
100
AcDbEntity
  8
001
 62
     5
370
    50
100
AcDbVertex
100
AcDb2dVertex
 10
60.281239
 20
66.152562
 30
0.0
  0
VERTEX
  5
D7
330
CC
100
AcDbEntity
  8
001
 62
     5
370
    50
100
AcDbVertex
100
AcDb2dVertex
 10
60.301167
 20
66.197762
 30
0.0
  0
VERTEX
  5
D8
330
CC
100
AcDbEntity
  8
001
 62
     5
370
    50
100
AcDbVertex
100
AcDb2dVertex
 10
60.313499
 20
66.24394
 30
0.0
  0
VERTEX
  5
D9
330
CC
100
AcDbEntity
  8
001
 62
     5
370
    50
100
AcDbVertex
100
AcDb2dVertex
 10
60.316765
 20
66.266952
 30
0.0
  0
VERTEX
  5
DA
330
CC
100
AcDbEntity
  8
001
 62
     5
370
    50
100
AcDbVertex
100
AcDb2dVertex
 10
60.317625
 20
66.292562
 30
0.0
  0
VERTEX
  5
DB
330
CC
100
AcDbEntity
  8
001
 62
     5
370
    50
100
AcDbVertex
100
AcDb2dVertex
 10
60.31648
 20
66.315798
 30
0.0
  0
VERTEX
  5
DC
330
CC
100
AcDbEntity
  8
001
 62
     5
370
    50
100
AcDbVertex
100
AcDb2dVertex
 10
60.314849
 20
66.332494
 30
0.0
  0
SEQEND
  5
CD
330
CC
100
AcDbEntity
  8
001
370
    50
  0
POLYLINE
  5
DD
330
64
100
AcDbEntity
  8
001
 62
     5
370
    50
100
AcDb2dPolyline
 66
     1
 10
0.0
 20
0.0
 30
0.0
  0
VERTEX
  5
DF
330
DD
100
AcDbEntity
  8
001
 62
     5
370
    50
100
AcDbVertex
100
AcDb2dVertex
 10
60.728218
 20
66.928399
 30
0.0
  0
VERTEX
  5
E0
330
DD
100
AcDbEntity
  8
001
 62
     5
370
    50
100
AcDbVertex
100
AcDb2dVertex
 10
60.694032
 20
66.919972
 30
0.0
  0
VERTEX
  5
E1
330
DD
100
AcDbEntity
  8
001
 62
     5
370
    50
100
AcDbVertex
100
AcDb2dVertex
 10
60.647552
 20
66.905602
 30
0.0
  0
VERTEX
  5
E2
330
DD
100
AcDbEntity
  8
001
 62
     5
370
    50
100
AcDbVertex
100
AcDb2dVertex
 10
60.603948
 20
66.887487
 30
0.0
  0
VERTEX
  5
E3
330
DD
100
AcDbEntity
  8
001
 62
     5
370
    50
100
AcDbVertex
100
AcDb2dVertex
 10
60.56641
 20
66.866593
 30
0.0
  0
VERTEX
  5
E4
330
DD
100
AcDbEntity
  8
001
 62
     5
370
    50
100
AcDbVertex
100
AcDb2dVertex
 10
60.462175
 20
66.783029
 30
0.0
  0
VERTEX
  5
E5
330
DD
100
AcDbEntity
  8
001
 62
     5
370
    50
100
AcDbVertex
100
AcDb2dVertex
 10
60.378411
 20
66.672774
 30
0.0
  0
VERTEX
  5
E6
330
DD
100
AcDbEntity
  8
001
 62
     5
370
    50
100
AcDbVertex
100
AcDb2dVertex
 10
60.340328
 20
66.587232
 30
0.0
  0
VERTEX
  5
E7
330
DD
100
AcDbEntity
  8
001
 62
     5
370
    50
100
AcDbVertex
100
AcDb2dVertex
 10
60.317402
 20
66.499964
 30
0.0
  0
VERTEX
  5
E8
330
DD
100
AcDbEntity
  8
001
 62
     5
370
    50
100
AcDbVertex
100
AcDb2dVertex
 10
60.311263
 20
66.45645
 30
0.0
  0
VERTEX
  5
E9
330
DD
100
AcDbEntity
  8
001
 62
     5
370
    50
100
AcDbVertex
100
AcDb2dVertex
 10
60.309599
 20
66.408013
 30
0.0
  0
VERTEX
  5
EA
330
DD
100
AcDbEntity
  8
001
 62
     5
370
    50
100
AcDbVertex
100
AcDb2dVertex
 10
60.311759
 20
66.364069
 30
0.0
  0
VERTEX
  5
EB
330
DD
100
AcDbEntity
  8
001
 62
     5
370
    50
100
AcDbVertex
100
AcDb2dVertex
 10
60.314849
 20
66.332494
 30
0.0
  0
SEQEND
  5
DE
330
DD
100
AcDbEntity
  8
001
370
    50
  0
POLYLINE
  5
EC
330
64
100
AcDbEntity
  8
001
 62
     5
370
    50
100
AcDb2dPolyline
 66
     1
 10
0.0
 20
0.0
 30
0.0
  0
VERTEX
  5
EE
330
EC
100
AcDbEntity
  8
001
 62
     5
370
    50
100
AcDbVertex
100
AcDb2dVertex
 10
60.728218
 20
66.928399
 30
0.0
  0
VERTEX
  5
EF
330
EC
100
AcDbEntity
  8
001
 62
     5
370
    50
100
AcDbVertex
100
AcDb2dVertex
 10
60.746295
 20
66.932858
 30
0.0
  0
VERTEX
  5
F0
330
EC
100
AcDbEntity
  8
001
 62
     5
370
    50
100
AcDbVertex
100
AcDb2dVertex
 10
60.770873
 20
66.940453
 30
0.0
  0
VERTEX
  5
F1
330
EC
100
AcDbEntity
  8
001
 62
     5
370
    50
100
AcDbVertex
100
AcDb2dVertex
 10
60.793933
 20
66.950016
 30
0.0
  0
VERTEX
  5
F2
330
EC
100
AcDbEntity
  8
001
 62
     5
370
    50
100
AcDbVertex
100
AcDb2dVertex
 10
60.813779
 20
66.96108
 30
0.0
  0
VERTEX
  5
F3
330
EC
100
AcDbEntity
  8
001
 62
     5
370
    50
100
AcDbVertex
100
AcDb2dVertex
 10
60.868847
 20
67.005591
 30
0.0
  0
VERTEX
  5
F4
330
EC
100
AcDbEntity
  8
001
 62
     5
370
    50
100
AcDbVertex
100
AcDb2dVertex
 10
60.913189
 20
67.063567
 30
0.0
  0
VERTEX
  5
F5
330
EC
100
AcDbEntity
  8
001
 62
     5
370
    50
100
AcDbVertex
100
AcDb2dVertex
 10
60.933453
 20
67.107975
 30
0.0
  0
VERTEX
  5
F6
330
EC
100
AcDbEntity
  8
001
 62
     5
370
    50
100
AcDbVertex
100
AcDb2dVertex
 10
60.945449
 20
67.154946
 30
0.0
  0
VERTEX
  5
F7
330
EC
100
AcDbEntity
  8
001
 62
     5
370
    50
100
AcDbVertex
100
AcDb2dVertex
 10
60.948508
 20
67.17918
 30
0.0
  0
VERTEX
  5
F8
330
EC
100
AcDbEntity
  8
001
 62
     5
370
    50
100
AcDbVertex
100
AcDb2dVertex
 10
60.949575
 20
67.203567
 30
0.0
  0
VERTEX
  5
F9
330
EC
100
AcDbEntity
  8
001
 62
     5
370
    50
100
AcDbVertex
100
AcDb2dVertex
 10
60.948603
 20
67.227936
 30
0.0
  0
VERTEX
  5
FA
330
EC
100
AcDbEntity
  8
001
 62
     5
370
    50
100
AcDbVertex
100
AcDb2dVertex
 10
60.945449
 20
67.252189
 30
0.0
  0
VERTEX
  5
FB
330
EC
100
AcDbEntity
  8
001
 62
     5
370
    50
100
AcDbVertex
100
AcDb2dVertex
 10
60.932703
 20
67.299419
 30
0.0
  0
VERTEX
  5
FC
330
EC
100
AcDbEntity
  8
001
 62
     5
370
    50
100
AcDbVertex
100
AcDb2dVertex
 10
60.913189
 20
67.343567
 30
0.0
  0
VERTEX
  5
FD
330
EC
100
AcDbEntity
  8
001
 62
     5
370
    50
100
AcDbVertex
100
AcDb2dVertex
 10
60.874042
 20
67.399673
 30
0.0
  0
VERTEX
  5
FE
330
EC
100
AcDbEntity
  8
001
 62
     5
370
    50
100
AcDbVertex
100
AcDb2dVertex
 10
60.813779
 20
67.446054
 30
0.0
  0
VERTEX
  5
FF
330
EC
100
AcDbEntity
  8
001
 62
     5
370
    50
100
AcDbVertex
100
AcDb2dVertex
 10
60.793457
 20
67.456753
 30
0.0
  0
VERTEX
  5
100
330
EC
100
AcDbEntity
  8
001
 62
     5
370
    50
100
AcDbVertex
100
AcDb2dVertex
 10
60.778847
 20
67.463542
 30
0.0
  0
SEQEND
  5
ED
330
EC
100
AcDbEntity
  8
001
370
    50
  0
POLYLINE
  5
101
330
64
100
AcDbEntity
  8
001
 62
     5
370
    50
100
AcDb2dPolyline
 66
     1
 10
0.0
 20
0.0
 30
0.0
  0
VERTEX
  5
103
330
101
100
AcDbEntity
  8
001
 62
     5
370
    50
100
AcDbVertex
100
AcDb2dVertex
 10
60.484959
 20
68.130565
 30
0.0
  0
VERTEX
  5
104
330
101
100
AcDbEntity
  8
001
 62
     5
370
    50
100
AcDbVertex
100
AcDb2dVertex
 10
60.474925
 20
68.095795
 30
0.0
  0
VERTEX
  5
105
330
101
100
AcDbEntity
  8
001
 62
     5
370
    50
100
AcDbVertex
100
AcDb2dVertex
 10
60.463776
 20
68.047145
 30
0.0
  0
VERTEX
  5
106
330
101
100
AcDbEntity
  8
001
 62
     5
370
    50
100
AcDbVertex
100
AcDb2dVertex
 10
60.457297
 20
67.999391
 30
0.0
  0
VERTEX
  5
107
330
101
100
AcDbEntity
  8
001
 62
     5
370
    50
100
AcDbVertex
100
AcDb2dVertex
 10
60.455972
 20
67.955194
 30
0.0
  0
VERTEX
  5
108
330
101
100
AcDbEntity
  8
001
 62
     5
370
    50
100
AcDbVertex
100
AcDb2dVertex
 10
60.458014
 20
67.909668
 30
0.0
  0
VERTEX
  5
109
330
101
100
AcDbEntity
  8
001
 62
     5
370
    50
100
AcDbVertex
100
AcDb2dVertex
 10
60.463776
 20
67.863243
 30
0.0
  0
VERTEX
  5
10A
330
101
100
AcDbEntity
  8
001
 62
     5
370
    50
100
AcDbVertex
100
AcDb2dVertex
 10
60.487745
 20
67.773547
 30
0.0
  0
VERTEX
  5
10B
330
101
100
AcDbEntity
  8
001
 62
     5
370
    50
100
AcDbVertex
100
AcDb2dVertex
 10
60.524785
 20
67.690433
 30
0.0
  0
VERTEX
  5
10C
330
101
100
AcDbEntity
  8
001
 62
     5
370
    50
100
AcDbVertex
100
AcDb2dVertex
 10
60.59887
 20
67.584472
 30
0.0
  0
VERTEX
  5
10D
330
101
100
AcDbEntity
  8
001
 62
     5
370
    50
100
AcDbVertex
100
AcDb2dVertex
 10
60.712784
 20
67.496614
 30
0.0
  0
VERTEX
  5
10E
330
101
100
AcDbEntity
  8
001
 62
     5
370
    50
100
AcDbVertex
100
AcDb2dVertex
 10
60.751215
 20
67.476377
 30
0.0
  0
VERTEX
  5
10F
330
101
100
AcDbEntity
  8
001
 62
     5
370
    50
100
AcDbVertex
100
AcDb2dVertex
 10
60.778847
 20
67.463542
 30
0.0
  0
SEQEND
  5
102
330
101
100
AcDbEntity
  8
001
370
    50
  0
POLYLINE
  5
110
330
64
100
AcDbEntity
  8
001
 62
     5
370
    50
100
AcDb2dPolyline
 66
     1
 10
0.0
 20
0.0
 30
0.0
  0
VERTEX
  5
112
330
110
100
AcDbEntity
  8
001
 62
     5
370
    50
100
AcDbVertex
100
AcDb2dVertex
 10
60.228693
 20
68.503297
 30
0.0
  0
VERTEX
  5
113
330
110
100
AcDbEntity
  8
001
 62
     5
370
    50
100
AcDbVertex
100
AcDb2dVertex
 10
60.208824
 20
68.502266
 30
0.0
  0
VERTEX
  5
114
330
110
100
AcDbEntity
  8
001
 62
     5
370
    50
100
AcDbVertex
100
AcDb2dVertex
 10
60.181531
 20
68.499043
 30
0.0
  0
VERTEX
  5
115
330
110
100
AcDbEntity
  8
001
 62
     5
370
    50
100
AcDbVertex
100
AcDb2dVertex
 10
60.157153
 20
68.493569
 30
0.0
  0
VERTEX
  5
116
330
110
100
AcDbEntity
  8
001
 62
     5
370
    50
100
AcDbVertex
100
AcDb2dVertex
 10
60.135803
 20
68.486411
 30
0.0
  0
VERTEX
  5
117
330
110
100
AcDbEntity
  8
001
 62
     5
370
    50
100
AcDbVertex
100
AcDb2dVertex
 10
60.115005
 20
68.477744
 30
0.0
  0
VERTEX
  5
118
330
110
100
AcDbEntity
  8
001
 62
     5
370
    50
100
AcDbVertex
100
AcDb2dVertex
 10
60.092897
 20
68.465784
 30
0.0
  0
VERTEX
  5
119
330
110
100
AcDbEntity
  8
001
 62
     5
370
    50
100
AcDbVertex
100
AcDb2dVertex
 10
60.07391
 20
68.453144
 30
0.0
  0
VERTEX
  5
11A
330
110
100
AcDbEntity
  8
001
 62
     5
370
    50
100
AcDbVertex
100
AcDb2dVertex
 10
60.060741
 20
68.443339
 30
0.0
  0
SEQEND
  5
111
330
110
100
AcDbEntity
  8
001
370
    50
  0
POLYLINE
  5
11B
330
64
100
AcDbEntity
  8
001
 62
     5
370
    50
100
AcDb2dPolyline
 66
     1
 10
0.0
 20
0.0
 30
0.0
  0
VERTEX
  5
11D
330
11B
100
AcDbEntity
  8
001
 62
     5
370
    50
100
AcDbVertex
100
AcDb2dVertex
 10
59.353483
 20
68.514457
 30
0.0
  0
VERTEX
  5
11E
330
11B
100
AcDbEntity
  8
001
 62
     5
370
    50
100
AcDbVertex
100
AcDb2dVertex
 10
59.406491
 20
68.462071
 30
0.0
  0
VERTEX
  5
11F
330
11B
100
AcDbEntity
  8
001
 62
     5
370
    50
100
AcDbVertex
100
AcDb2dVertex
 10
59.486305
 20
68.400892
 30
0.0
  0
VERTEX
  5
120
330
11B
100
AcDbEntity
  8
001
 62
     5
370
    50
100
AcDbVertex
100
AcDb2dVertex
 10
59.527428
 20
68.378539
 30
0.0
  0
VERTEX
  5
121
330
11B
100
AcDbEntity
  8
001
 62
     5
370
    50
100
AcDbVertex
100
AcDb2dVertex
 10
59.567447
 20
68.361883
 30
0.0
  0
VERTEX
  5
122
330
11B
100
AcDbEntity
  8
001
 62
     5
370
    50
100
AcDbVertex
100
AcDb2dVertex
 10
59.608002
 20
68.348275
 30
0.0
  0
VERTEX
  5
123
330
11B
100
AcDbEntity
  8
001
 62
     5
370
    50
100
AcDbVertex
100
AcDb2dVertex
 10
59.653927
 20
68.337994
 30
0.0
  0
VERTEX
  5
124
330
11B
100
AcDbEntity
  8
001
 62
     5
370
    50
100
AcDbVertex
100
AcDb2dVertex
 10
59.705505
 20
68.331912
 30
0.0
  0
VERTEX
  5
125
330
11B
100
AcDbEntity
  8
001
 62
     5
370
    50
100
AcDbVertex
100
AcDb2dVertex
 10
59.743117
 20
68.329949
 30
0.0
  0
SEQEND
  5
11C
330
11B
100
AcDbEntity
  8
001
370
    50
  0
POLYLINE
  5
126
330
64
100
AcDbEntity
  8
001
 62
     5
370
    50
100
AcDb2dPolyline
 66
     1
 10
0.0
 20
0.0
 30
0.0
  0
VERTEX
  5
128
330
126
100
AcDbEntity
  8
001
 62
     5
370
    50
100
AcDbVertex
100
AcDb2dVertex
 10
59.147453
 20
68.61202
 30
0.0
  0
VERTEX
  5
129
330
126
100
AcDbEntity
  8
001
 62
     5
370
    50
100
AcDbVertex
100
AcDb2dVertex
 10
59.127543
 20
68.610954
 30
0.0
  0
VERTEX
  5
12A
330
126
100
AcDbEntity
  8
001
 62
     5
370
    50
100
AcDbVertex
100
AcDb2dVertex
 10
59.100291
 20
68.607767
 30
0.0
  0
VERTEX
  5
12B
330
126
100
AcDbEntity
  8
001
 62
     5
370
    50
100
AcDbVertex
100
AcDb2dVertex
 10
59.076121
 20
68.602473
 30
0.0
  0
VERTEX
  5
12C
330
126
100
AcDbEntity
  8
001
 62
     5
370
    50
100
AcDbVertex
100
AcDb2dVertex
 10
59.054563
 20
68.595134
 30
0.0
  0
VERTEX
  5
12D
330
126
100
AcDbEntity
  8
001
 62
     5
370
    50
100
AcDbVertex
100
AcDb2dVertex
 10
59.032971
 20
68.58578
 30
0.0
  0
VERTEX
  5
12E
330
126
100
AcDbEntity
  8
001
 62
     5
370
    50
100
AcDbVertex
100
AcDb2dVertex
 10
59.011657
 20
68.574507
 30
0.0
  0
VERTEX
  5
12F
330
126
100
AcDbEntity
  8
001
 62
     5
370
    50
100
AcDbVertex
100
AcDb2dVertex
 10
58.955056
 20
68.530093
 30
0.0
  0
VERTEX
  5
130
330
126
100
AcDbEntity
  8
001
 62
     5
370
    50
100
AcDbVertex
100
AcDb2dVertex
 10
58.912247
 20
68.47202
 30
0.0
  0
VERTEX
  5
131
330
126
100
AcDbEntity
  8
001
 62
     5
370
    50
100
AcDbVertex
100
AcDb2dVertex
 10
58.892318
 20
68.42682
 30
0.0
  0
VERTEX
  5
132
330
126
100
AcDbEntity
  8
001
 62
     5
370
    50
100
AcDbVertex
100
AcDb2dVertex
 10
58.879986
 20
68.380642
 30
0.0
  0
VERTEX
  5
133
330
126
100
AcDbEntity
  8
001
 62
     5
370
    50
100
AcDbVertex
100
AcDb2dVertex
 10
58.876721
 20
68.35763
 30
0.0
  0
VERTEX
  5
134
330
126
100
AcDbEntity
  8
001
 62
     5
370
    50
100
AcDbVertex
100
AcDb2dVertex
 10
58.87586
 20
68.33202
 30
0.0
  0
VERTEX
  5
135
330
126
100
AcDbEntity
  8
001
 62
     5
370
    50
100
AcDbVertex
100
AcDb2dVertex
 10
58.877006
 20
68.308784
 30
0.0
  0
VERTEX
  5
136
330
126
100
AcDbEntity
  8
001
 62
     5
370
    50
100
AcDbVertex
100
AcDb2dVertex
 10
58.878637
 20
68.292088
 30
0.0
  0
SEQEND
  5
127
330
126
100
AcDbEntity
  8
001
370
    50
  0
POLYLINE
  5
137
330
64
100
AcDbEntity
  8
001
 62
     5
370
    50
100
AcDb2dPolyline
 66
     1
 10
0.0
 20
0.0
 30
0.0
  0
VERTEX
  5
139
330
137
100
AcDbEntity
  8
001
 62
     5
370
    50
100
AcDbVertex
100
AcDb2dVertex
 10
58.465267
 20
67.696183
 30
0.0
  0
VERTEX
  5
13A
330
137
100
AcDbEntity
  8
001
 62
     5
370
    50
100
AcDbVertex
100
AcDb2dVertex
 10
58.499453
 20
67.70461
 30
0.0
  0
VERTEX
  5
13B
330
137
100
AcDbEntity
  8
001
 62
     5
370
    50
100
AcDbVertex
100
AcDb2dVertex
 10
58.545933
 20
67.71898
 30
0.0
  0
VERTEX
  5
13C
330
137
100
AcDbEntity
  8
001
 62
     5
370
    50
100
AcDbVertex
100
AcDb2dVertex
 10
58.589538
 20
67.737095
 30
0.0
  0
VERTEX
  5
13D
330
137
100
AcDbEntity
  8
001
 62
     5
370
    50
100
AcDbVertex
100
AcDb2dVertex
 10
58.627075
 20
67.757989
 30
0.0
  0
VERTEX
  5
13E
330
137
100
AcDbEntity
  8
001
 62
     5
370
    50
100
AcDbVertex
100
AcDb2dVertex
 10
58.73131
 20
67.841553
 30
0.0
  0
VERTEX
  5
13F
330
137
100
AcDbEntity
  8
001
 62
     5
370
    50
100
AcDbVertex
100
AcDb2dVertex
 10
58.815074
 20
67.951808
 30
0.0
  0
VERTEX
  5
140
330
137
100
AcDbEntity
  8
001
 62
     5
370
    50
100
AcDbVertex
100
AcDb2dVertex
 10
58.853158
 20
68.03735
 30
0.0
  0
VERTEX
  5
141
330
137
100
AcDbEntity
  8
001
 62
     5
370
    50
100
AcDbVertex
100
AcDb2dVertex
 10
58.876084
 20
68.124618
 30
0.0
  0
VERTEX
  5
142
330
137
100
AcDbEntity
  8
001
 62
     5
370
    50
100
AcDbVertex
100
AcDb2dVertex
 10
58.882222
 20
68.168132
 30
0.0
  0
VERTEX
  5
143
330
137
100
AcDbEntity
  8
001
 62
     5
370
    50
100
AcDbVertex
100
AcDb2dVertex
 10
58.883887
 20
68.216569
 30
0.0
  0
VERTEX
  5
144
330
137
100
AcDbEntity
  8
001
 62
     5
370
    50
100
AcDbVertex
100
AcDb2dVertex
 10
58.881726
 20
68.260513
 30
0.0
  0
VERTEX
  5
145
330
137
100
AcDbEntity
  8
001
 62
     5
370
    50
100
AcDbVertex
100
AcDb2dVertex
 10
58.878637
 20
68.292088
 30
0.0
  0
SEQEND
  5
138
330
137
100
AcDbEntity
  8
001
370
    50
  0
POLYLINE
  5
146
330
64
100
AcDbEntity
  8
001
 62
     5
370
    50
100
AcDb2dPolyline
 66
     1
 10
0.0
 20
0.0
 30
0.0
  0
VERTEX
  5
148
330
146
100
AcDbEntity
  8
001
 62
     5
370
    50
100
AcDbVertex
100
AcDb2dVertex
 10
58.465267
 20
67.696183
 30
0.0
  0
VERTEX
  5
149
330
146
100
AcDbEntity
  8
001
 62
     5
370
    50
100
AcDbVertex
100
AcDb2dVertex
 10
58.44719
 20
67.691724
 30
0.0
  0
VERTEX
  5
14A
330
146
100
AcDbEntity
  8
001
 62
     5
370
    50
100
AcDbVertex
100
AcDb2dVertex
 10
58.422612
 20
67.684129
 30
0.0
  0
VERTEX
  5
14B
330
146
100
AcDbEntity
  8
001
 62
     5
370
    50
100
AcDbVertex
100
AcDb2dVertex
 10
58.399553
 20
67.674566
 30
0.0
  0
VERTEX
  5
14C
330
146
100
AcDbEntity
  8
001
 62
     5
370
    50
100
AcDbVertex
100
AcDb2dVertex
 10
58.379706
 20
67.663502
 30
0.0
  0
VERTEX
  5
14D
330
146
100
AcDbEntity
  8
001
 62
     5
370
    50
100
AcDbVertex
100
AcDb2dVertex
 10
58.324639
 20
67.618991
 30
0.0
  0
VERTEX
  5
14E
330
146
100
AcDbEntity
  8
001
 62
     5
370
    50
100
AcDbVertex
100
AcDb2dVertex
 10
58.280296
 20
67.561015
 30
0.0
  0
VERTEX
  5
14F
330
146
100
AcDbEntity
  8
001
 62
     5
370
    50
100
AcDbVertex
100
AcDb2dVertex
 10
58.260033
 20
67.516607
 30
0.0
  0
VERTEX
  5
150
330
146
100
AcDbEntity
  8
001
 62
     5
370
    50
100
AcDbVertex
100
AcDb2dVertex
 10
58.248036
 20
67.469636
 30
0.0
  0
VERTEX
  5
151
330
146
100
AcDbEntity
  8
001
 62
     5
370
    50
100
AcDbVertex
100
AcDb2dVertex
 10
58.244977
 20
67.445402
 30
0.0
  0
VERTEX
  5
152
330
146
100
AcDbEntity
  8
001
 62
     5
370
    50
100
AcDbVertex
100
AcDb2dVertex
 10
58.24391
 20
67.421015
 30
0.0
  0
VERTEX
  5
153
330
146
100
AcDbEntity
  8
001
 62
     5
370
    50
100
AcDbVertex
100
AcDb2dVertex
 10
58.244883
 20
67.396646
 30
0.0
  0
VERTEX
  5
154
330
146
100
AcDbEntity
  8
001
 62
     5
370
    50
100
AcDbVertex
100
AcDb2dVertex
 10
58.248036
 20
67.372393
 30
0.0
  0
VERTEX
  5
155
330
146
100
AcDbEntity
  8
001
 62
     5
370
    50
100
AcDbVertex
100
AcDb2dVertex
 10
58.260782
 20
67.325163
 30
0.0
  0
VERTEX
  5
156
330
146
100
AcDbEntity
  8
001
 62
     5
370
    50
100
AcDbVertex
100
AcDb2dVertex
 10
58.280296
 20
67.281015
 30
0.0
  0
VERTEX
  5
157
330
146
100
AcDbEntity
  8
001
 62
     5
370
    50
100
AcDbVertex
100
AcDb2dVertex
 10
58.319444
 20
67.224909
 30
0.0
  0
VERTEX
  5
158
330
146
100
AcDbEntity
  8
001
 62
     5
370
    50
100
AcDbVertex
100
AcDb2dVertex
 10
58.379706
 20
67.178528
 30
0.0
  0
VERTEX
  5
159
330
146
100
AcDbEntity
  8
001
 62
     5
370
    50
100
AcDbVertex
100
AcDb2dVertex
 10
58.400029
 20
67.167829
 30
0.0
  0
VERTEX
  5
15A
330
146
100
AcDbEntity
  8
001
 62
     5
370
    50
100
AcDbVertex
100
AcDb2dVertex
 10
58.414639
 20
67.16104
 30
0.0
  0
SEQEND
  5
147
330
146
100
AcDbEntity
  8
001
370
    50
  0
POLYLINE
  5
15B
330
64
100
AcDbEntity
  8
001
 62
     5
370
    50
100
AcDb2dPolyline
 66
     1
 10
0.0
 20
0.0
 30
0.0
  0
VERTEX
  5
15D
330
15B
100
AcDbEntity
  8
001
 62
     5
370
    50
100
AcDbVertex
100
AcDb2dVertex
 10
58.708527
 20
66.494017
 30
0.0
  0
VERTEX
  5
15E
330
15B
100
AcDbEntity
  8
001
 62
     5
370
    50
100
AcDbVertex
100
AcDb2dVertex
 10
58.71856
 20
66.528787
 30
0.0
  0
VERTEX
  5
15F
330
15B
100
AcDbEntity
  8
001
 62
     5
370
    50
100
AcDbVertex
100
AcDb2dVertex
 10
58.72971
 20
66.577437
 30
0.0
  0
VERTEX
  5
160
330
15B
100
AcDbEntity
  8
001
 62
     5
370
    50
100
AcDbVertex
100
AcDb2dVertex
 10
58.736188
 20
66.625191
 30
0.0
  0
VERTEX
  5
161
330
15B
100
AcDbEntity
  8
001
 62
     5
370
    50
100
AcDbVertex
100
AcDb2dVertex
 10
58.737513
 20
66.669388
 30
0.0
  0
VERTEX
  5
162
330
15B
100
AcDbEntity
  8
001
 62
     5
370
    50
100
AcDbVertex
100
AcDb2dVertex
 10
58.735472
 20
66.714914
 30
0.0
  0
VERTEX
  5
163
330
15B
100
AcDbEntity
  8
001
 62
     5
370
    50
100
AcDbVertex
100
AcDb2dVertex
 10
58.72971
 20
66.761339
 30
0.0
  0
VERTEX
  5
164
330
15B
100
AcDbEntity
  8
001
 62
     5
370
    50
100
AcDbVertex
100
AcDb2dVertex
 10
58.705741
 20
66.851035
 30
0.0
  0
VERTEX
  5
165
330
15B
100
AcDbEntity
  8
001
 62
     5
370
    50
100
AcDbVertex
100
AcDb2dVertex
 10
58.6687
 20
66.934149
 30
0.0
  0
VERTEX
  5
166
330
15B
100
AcDbEntity
  8
001
 62
     5
370
    50
100
AcDbVertex
100
AcDb2dVertex
 10
58.594616
 20
67.04011
 30
0.0
  0
VERTEX
  5
167
330
15B
100
AcDbEntity
  8
001
 62
     5
370
    50
100
AcDbVertex
100
AcDb2dVertex
 10
58.480701
 20
67.127968
 30
0.0
  0
VERTEX
  5
168
330
15B
100
AcDbEntity
  8
001
 62
     5
370
    50
100
AcDbVertex
100
AcDb2dVertex
 10
58.44227
 20
67.148205
 30
0.0
  0
VERTEX
  5
169
330
15B
100
AcDbEntity
  8
001
 62
     5
370
    50
100
AcDbVertex
100
AcDb2dVertex
 10
58.414639
 20
67.16104
 30
0.0
  0
SEQEND
  5
15C
330
15B
100
AcDbEntity
  8
001
370
    50
  0
POLYLINE
  5
16A
330
64
100
AcDbEntity
  8
001
 62
     5
370
    50
100
AcDb2dPolyline
 66
     1
 10
0.0
 20
0.0
 30
0.0
  0
VERTEX
  5
16C
330
16A
100
AcDbEntity
  8
001
 62
     5
370
    50
100
AcDbVertex
100
AcDb2dVertex
 10
59.718347
 20
65.262291
 30
0.0
  0
VERTEX
  5
16D
330
16A
100
AcDbEntity
  8
001
 62
     5
370
    50
100
AcDbVertex
100
AcDb2dVertex
 10
59.864121
 20
65.270094
 30
0.0
  0
VERTEX
  5
16E
330
16A
100
AcDbEntity
  8
001
 62
     5
370
    50
100
AcDbVertex
100
AcDb2dVertex
 10
60.063637
 20
65.293435
 30
0.0
  0
VERTEX
  5
16F
330
16A
100
AcDbEntity
  8
001
 62
     5
370
    50
100
AcDbVertex
100
AcDb2dVertex
 10
60.240598
 20
65.332222
 30
0.0
  0
VERTEX
  5
170
330
16A
100
AcDbEntity
  8
001
 62
     5
370
    50
100
AcDbVertex
100
AcDb2dVertex
 10
60.398436
 20
65.385921
 30
0.0
  0
VERTEX
  5
171
330
16A
100
AcDbEntity
  8
001
 62
     5
370
    50
100
AcDbVertex
100
AcDb2dVertex
 10
60.556539
 20
65.454283
 30
0.0
  0
VERTEX
  5
172
330
16A
100
AcDbEntity
  8
001
 62
     5
370
    50
100
AcDbVertex
100
AcDb2dVertex
 10
60.71257
 20
65.536939
 30
0.0
  0
VERTEX
  5
173
330
16A
100
AcDbEntity
  8
001
 62
     5
370
    50
100
AcDbVertex
100
AcDb2dVertex
 10
61.126634
 20
65.864479
 30
0.0
  0
VERTEX
  5
174
330
16A
100
AcDbEntity
  8
001
 62
     5
370
    50
100
AcDbVertex
100
AcDb2dVertex
 10
61.440392
 20
66.287291
 30
0.0
  0
VERTEX
  5
175
330
16A
100
AcDbEntity
  8
001
 62
     5
370
    50
100
AcDbVertex
100
AcDb2dVertex
 10
61.587139
 20
66.612217
 30
0.0
  0
VERTEX
  5
176
330
16A
100
AcDbEntity
  8
001
 62
     5
370
    50
100
AcDbVertex
100
AcDb2dVertex
 10
61.676585
 20
66.956312
 30
0.0
  0
VERTEX
  5
177
330
16A
100
AcDbEntity
  8
001
 62
     5
370
    50
100
AcDbVertex
100
AcDb2dVertex
 10
61.699244
 20
67.133716
 30
0.0
  0
VERTEX
  5
178
330
16A
100
AcDbEntity
  8
001
 62
     5
370
    50
100
AcDbVertex
100
AcDb2dVertex
 10
61.706794
 20
67.312291
 30
0.0
  0
VERTEX
  5
179
330
16A
100
AcDbEntity
  8
001
 62
     5
370
    50
100
AcDbVertex
100
AcDb2dVertex
 10
61.699244
 20
67.490866
 30
0.0
  0
VERTEX
  5
17A
330
16A
100
AcDbEntity
  8
001
 62
     5
370
    50
100
AcDbVertex
100
AcDb2dVertex
 10
61.676585
 20
67.66827
 30
0.0
  0
VERTEX
  5
17B
330
16A
100
AcDbEntity
  8
001
 62
     5
370
    50
100
AcDbVertex
100
AcDb2dVertex
 10
61.587139
 20
68.012365
 30
0.0
  0
VERTEX
  5
17C
330
16A
100
AcDbEntity
  8
001
 62
     5
370
    50
100
AcDbVertex
100
AcDb2dVertex
 10
61.440392
 20
68.337291
 30
0.0
  0
VERTEX
  5
17D
330
16A
100
AcDbEntity
  8
001
 62
     5
370
    50
100
AcDbVertex
100
AcDb2dVertex
 10
61.126634
 20
68.760103
 30
0.0
  0
VERTEX
  5
17E
330
16A
100
AcDbEntity
  8
001
 62
     5
370
    50
100
AcDbVertex
100
AcDb2dVertex
 10
60.71257
 20
69.087643
 30
0.0
  0
VERTEX
  5
17F
330
16A
100
AcDbEntity
  8
001
 62
     5
370
    50
100
AcDbVertex
100
AcDb2dVertex
 10
60.556539
 20
69.170299
 30
0.0
  0
VERTEX
  5
180
330
16A
100
AcDbEntity
  8
001
 62
     5
370
    50
100
AcDbVertex
100
AcDb2dVertex
 10
60.398436
 20
69.238661
 30
0.0
  0
VERTEX
  5
181
330
16A
100
AcDbEntity
  8
001
 62
     5
370
    50
100
AcDbVertex
100
AcDb2dVertex
 10
60.240598
 20
69.29236
 30
0.0
  0
VERTEX
  5
182
330
16A
100
AcDbEntity
  8
001
 62
     5
370
    50
100
AcDbVertex
100
AcDb2dVertex
 10
60.063637
 20
69.331147
 30
0.0
  0
VERTEX
  5
183
330
16A
100
AcDbEntity
  8
001
 62
     5
370
    50
100
AcDbVertex
100
AcDb2dVertex
 10
59.864121
 20
69.354489
 30
0.0
  0
VERTEX
  5
184
330
16A
100
AcDbEntity
  8
001
 62
     5
370
    50
100
AcDbVertex
100
AcDb2dVertex
 10
59.718347
 20
69.362291
 30
0.0
  0
SEQEND
  5
16B
330
16A
100
AcDbEntity
  8
001
370
    50
  0
POLYLINE
  5
185
330
64
100
AcDbEntity
  8
001
 62
     5
370
    50
100
AcDb2dPolyline
 66
     1
 10
0.0
 20
0.0
 30
0.0
  0
VERTEX
  5
187
330
185
100
AcDbEntity
  8
001
 62
     5
370
    50
100
AcDbVertex
100
AcDb2dVertex
 10
60.278721
 20
69.255527
 30
0.0
  0
VERTEX
  5
188
330
185
100
AcDbEntity
  8
001
 62
     5
370
    50
100
AcDbVertex
100
AcDb2dVertex
 10
60.162829
 20
69.291123
 30
0.0
  0
VERTEX
  5
189
330
185
100
AcDbEntity
  8
001
 62
     5
370
    50
100
AcDbVertex
100
AcDb2dVertex
 10
59.990675
 20
69.331147
 30
0.0
  0
VERTEX
  5
18A
330
185
100
AcDbEntity
  8
001
 62
     5
370
    50
100
AcDbVertex
100
AcDb2dVertex
 10
59.786474
 20
69.356389
 30
0.0
  0
VERTEX
  5
18B
330
185
100
AcDbEntity
  8
001
 62
     5
370
    50
100
AcDbVertex
100
AcDb2dVertex
 10
59.645384
 20
69.362291
 30
0.0
  0
SEQEND
  5
186
330
185
100
AcDbEntity
  8
001
370
    50
  0
POLYLINE
  5
18C
330
64
100
AcDbEntity
  8
001
 62
     5
370
    50
100
AcDb2dPolyline
 66
     1
 10
0.0
 20
0.0
 30
0.0
  0
VERTEX
  5
18E
330
18C
100
AcDbEntity
  8
001
 62
     5
370
    50
100
AcDbVertex
100
AcDb2dVertex
 10
59.022639
 20
65.36542
 30
0.0
  0
VERTEX
  5
18F
330
18C
100
AcDbEntity
  8
001
 62
     5
370
    50
100
AcDbVertex
100
AcDb2dVertex
 10
59.134321
 20
65.331656
 30
0.0
  0
VERTEX
  5
190
330
18C
100
AcDbEntity
  8
001
 62
     5
370
    50
100
AcDbVertex
100
AcDb2dVertex
 10
59.300094
 20
65.293435
 30
0.0
  0
VERTEX
  5
191
330
18C
100
AcDbEntity
  8
001
 62
     5
370
    50
100
AcDbVertex
100
AcDb2dVertex
 10
59.504298
 20
65.268193
 30
0.0
  0
VERTEX
  5
192
330
18C
100
AcDbEntity
  8
001
 62
     5
370
    50
100
AcDbVertex
100
AcDb2dVertex
 10
59.645384
 20
65.262291
 30
0.0
  0
SEQEND
  5
18D
330
18C
100
AcDbEntity
  8
001
370
    50
  0
LINE
  5
193
330
64
100
AcDbEntity
  8
001
 62
     5
370
    50
100
AcDbLine
 10
59.645384
 20
65.262291
 30
0.0
 11
59.718347
 21
65.262291
 31
0.0
  0
LINE
  5
194
330
64
100
AcDbEntity
  8
001
 62
     5
370
    50
100
AcDbLine
 10
59.718347
 20
69.362291
 30
0.0
 11
59.645384
 21
69.362291
 31
0.0
  0
POLYLINE
  5
195
330
64
100
AcDbEntity
  8
001
 62
     5
370
    50
100
AcDb2dPolyline
 66
     1
 10
0.0
 20
0.0
 30
0.0
  0
VERTEX
  5
197
330
195
100
AcDbEntity
  8
001
 62
     5
370
    50
100
AcDbVertex
100
AcDb2dVertex
 10
60.484959
 20
68.130565
 30
0.0
  0
VERTEX
  5
198
330
195
100
AcDbEntity
  8
001
 62
     5
370
    50
100
AcDbVertex
100
AcDb2dVertex
 10
60.490261
 20
68.148951
 30
0.0
  0
VERTEX
  5
199
330
195
100
AcDbEntity
  8
001
 62
     5
370
    50
100
AcDbVertex
100
AcDb2dVertex
 10
60.49616
 20
68.174675
 30
0.0
  0
VERTEX
  5
19A
330
195
100
AcDbEntity
  8
001
 62
     5
370
    50
100
AcDbVertex
100
AcDb2dVertex
 10
60.499599
 20
68.19992
 30
0.0
  0
VERTEX
  5
19B
330
195
100
AcDbEntity
  8
001
 62
     5
370
    50
100
AcDbVertex
100
AcDb2dVertex
 10
60.500286
 20
68.223297
 30
0.0
  0
VERTEX
  5
19C
330
195
100
AcDbEntity
  8
001
 62
     5
370
    50
100
AcDbVertex
100
AcDb2dVertex
 10
60.499155
 20
68.247393
 30
0.0
  0
VERTEX
  5
19D
330
195
100
AcDbEntity
  8
001
 62
     5
370
    50
100
AcDbVertex
100
AcDb2dVertex
 10
60.49616
 20
68.271918
 30
0.0
  0
VERTEX
  5
19E
330
195
100
AcDbEntity
  8
001
 62
     5
370
    50
100
AcDbVertex
100
AcDb2dVertex
 10
60.48401
 20
68.319115
 30
0.0
  0
VERTEX
  5
19F
330
195
100
AcDbEntity
  8
001
 62
     5
370
    50
100
AcDbVertex
100
AcDb2dVertex
 10
60.463899
 20
68.363297
 30
0.0
  0
VERTEX
  5
1A0
330
195
100
AcDbEntity
  8
001
 62
     5
370
    50
100
AcDbVertex
100
AcDb2dVertex
 10
60.421018
 20
68.420968
 30
0.0
  0
VERTEX
  5
1A1
330
195
100
AcDbEntity
  8
001
 62
     5
370
    50
100
AcDbVertex
100
AcDb2dVertex
 10
60.364489
 20
68.465784
 30
0.0
  0
VERTEX
  5
1A2
330
195
100
AcDbEntity
  8
001
 62
     5
370
    50
100
AcDbVertex
100
AcDb2dVertex
 10
60.343179
 20
68.477077
 30
0.0
  0
VERTEX
  5
1A3
330
195
100
AcDbEntity
  8
001
 62
     5
370
    50
100
AcDbVertex
100
AcDb2dVertex
 10
60.321583
 20
68.486411
 30
0.0
  0
VERTEX
  5
1A4
330
195
100
AcDbEntity
  8
001
 62
     5
370
    50
100
AcDbVertex
100
AcDb2dVertex
 10
60.300025
 20
68.493744
 30
0.0
  0
VERTEX
  5
1A5
330
195
100
AcDbEntity
  8
001
 62
     5
370
    50
100
AcDbVertex
100
AcDb2dVertex
 10
60.275855
 20
68.499043
 30
0.0
  0
VERTEX
  5
1A6
330
195
100
AcDbEntity
  8
001
 62
     5
370
    50
100
AcDbVertex
100
AcDb2dVertex
 10
60.248604
 20
68.502231
 30
0.0
  0
VERTEX
  5
1A7
330
195
100
AcDbEntity
  8
001
 62
     5
370
    50
100
AcDbVertex
100
AcDb2dVertex
 10
60.228693
 20
68.503297
 30
0.0
  0
SEQEND
  5
196
330
195
100
AcDbEntity
  8
001
370
    50
  0
POLYLINE
  5
1A8
330
64
100
AcDbEntity
  8
001
 62
     5
370
    50
100
AcDb2dPolyline
 66
     1
 10
0.0
 20
0.0
 30
0.0
  0
VERTEX
  5
1AA
330
1A8
100
AcDbEntity
  8
001
 62
     5
370
    50
100
AcDbVertex
100
AcDb2dVertex
 10
60.373745
 20
68.460018
 30
0.0
  0
VERTEX
  5
1AB
330
1A8
100
AcDbEntity
  8
001
 62
     5
370
    50
100
AcDbVertex
100
AcDb2dVertex
 10
60.368962
 20
68.45682
 30
0.0
  0
VERTEX
  5
1AC
330
1A8
100
AcDbEntity
  8
001
 62
     5
370
    50
100
AcDbVertex
100
AcDb2dVertex
 10
60.362086
 20
68.451983
 30
0.0
  0
VERTEX
  5
1AD
330
1A8
100
AcDbEntity
  8
001
 62
     5
370
    50
100
AcDbVertex
100
AcDb2dVertex
 10
60.355363
 20
68.446915
 30
0.0
  0
VERTEX
  5
1AE
330
1A8
100
AcDbEntity
  8
001
 62
     5
370
    50
100
AcDbVertex
100
AcDb2dVertex
 10
60.350845
 20
68.443339
 30
0.0
  0
SEQEND
  5
1A9
330
1A8
100
AcDbEntity
  8
001
370
    50
  0
POLYLINE
  5
1AF
330
64
100
AcDbEntity
  8
001
 62
     5
370
    50
100
AcDb2dPolyline
 66
     1
 10
0.0
 20
0.0
 30
0.0
  0
VERTEX
  5
1B1
330
1AF
100
AcDbEntity
  8
001
 62
     5
370
    50
100
AcDbVertex
100
AcDb2dVertex
 10
59.840003
 20
66.110125
 30
0.0
  0
VERTEX
  5
1B2
330
1AF
100
AcDbEntity
  8
001
 62
     5
370
    50
100
AcDbVertex
100
AcDb2dVertex
 10
59.868032
 20
66.082425
 30
0.0
  0
VERTEX
  5
1B3
330
1AF
100
AcDbEntity
  8
001
 62
     5
370
    50
100
AcDbVertex
100
AcDb2dVertex
 10
59.910236
 20
66.050075
 30
0.0
  0
VERTEX
  5
1B4
330
1AF
100
AcDbEntity
  8
001
 62
     5
370
    50
100
AcDbVertex
100
AcDb2dVertex
 10
59.931981
 20
66.038255
 30
0.0
  0
VERTEX
  5
1B5
330
1AF
100
AcDbEntity
  8
001
 62
     5
370
    50
100
AcDbVertex
100
AcDb2dVertex
 10
59.953142
 20
66.029448
 30
0.0
  0
VERTEX
  5
1B6
330
1AF
100
AcDbEntity
  8
001
 62
     5
370
    50
100
AcDbVertex
100
AcDb2dVertex
 10
59.974587
 20
66.022252
 30
0.0
  0
VERTEX
  5
1B7
330
1AF
100
AcDbEntity
  8
001
 62
     5
370
    50
100
AcDbVertex
100
AcDb2dVertex
 10
59.998871
 20
66.016815
 30
0.0
  0
VERTEX
  5
1B8
330
1AF
100
AcDbEntity
  8
001
 62
     5
370
    50
100
AcDbVertex
100
AcDb2dVertex
 10
60.026144
 20
66.0136
 30
0.0
  0
VERTEX
  5
1B9
330
1AF
100
AcDbEntity
  8
001
 62
     5
370
    50
100
AcDbVertex
100
AcDb2dVertex
 10
60.046032
 20
66.012562
 30
0.0
  0
SEQEND
  5
1B0
330
1AF
100
AcDbEntity
  8
001
370
    50
  0
POLYLINE
  5
1BA
330
64
100
AcDbEntity
  8
001
 62
     5
370
    50
100
AcDb2dPolyline
 66
     1
 10
0.0
 20
0.0
 30
0.0
  0
VERTEX
  5
1BC
330
1BA
100
AcDbEntity
  8
001
 62
     5
370
    50
100
AcDbVertex
100
AcDb2dVertex
 10
60.130107
 20
66.110125
 30
0.0
  0
VERTEX
  5
1BD
330
1BA
100
AcDbEntity
  8
001
 62
     5
370
    50
100
AcDbVertex
100
AcDb2dVertex
 10
60.141227
 20
66.097669
 30
0.0
  0
VERTEX
  5
1BE
330
1BA
100
AcDbEntity
  8
001
 62
     5
370
    50
100
AcDbVertex
100
AcDb2dVertex
 10
60.158632
 20
66.080639
 30
0.0
  0
VERTEX
  5
1BF
330
1BA
100
AcDbEntity
  8
001
 62
     5
370
    50
100
AcDbVertex
100
AcDb2dVertex
 10
60.177481
 20
66.065395
 30
0.0
  0
VERTEX
  5
1C0
330
1BA
100
AcDbEntity
  8
001
 62
     5
370
    50
100
AcDbVertex
100
AcDb2dVertex
 10
60.191085
 20
66.05584
 30
0.0
  0
SEQEND
  5
1BB
330
1BA
100
AcDbEntity
  8
001
370
    50
  0
POLYLINE
  5
1C1
330
64
100
AcDbEntity
  8
001
 62
     5
370
    50
100
AcDb2dPolyline
 66
     1
 10
0.0
 20
0.0
 30
0.0
  0
VERTEX
  5
1C3
330
1C1
100
AcDbEntity
  8
001
 62
     5
370
    50
100
AcDbVertex
100
AcDb2dVertex
 10
59.743117
 20
68.329949
 30
0.0
  0
VERTEX
  5
1C4
330
1C1
100
AcDbEntity
  8
001
 62
     5
370
    50
100
AcDbVertex
100
AcDb2dVertex
 10
59.780692
 20
68.331898
 30
0.0
  0
VERTEX
  5
1C5
330
1C1
100
AcDbEntity
  8
001
 62
     5
370
    50
100
AcDbVertex
100
AcDb2dVertex
 10
59.832306
 20
68.337994
 30
0.0
  0
VERTEX
  5
1C6
330
1C1
100
AcDbEntity
  8
001
 62
     5
370
    50
100
AcDbVertex
100
AcDb2dVertex
 10
59.87841
 20
68.348345
 30
0.0
  0
VERTEX
  5
1C7
330
1C1
100
AcDbEntity
  8
001
 62
     5
370
    50
100
AcDbVertex
100
AcDb2dVertex
 10
59.918786
 20
68.361883
 30
0.0
  0
VERTEX
  5
1C8
330
1C1
100
AcDbEntity
  8
001
 62
     5
370
    50
100
AcDbVertex
100
AcDb2dVertex
 10
59.958119
 20
68.378273
 30
0.0
  0
VERTEX
  5
1C9
330
1C1
100
AcDbEntity
  8
001
 62
     5
370
    50
100
AcDbVertex
100
AcDb2dVertex
 10
59.999928
 20
68.400892
 30
0.0
  0
VERTEX
  5
1CA
330
1C1
100
AcDbEntity
  8
001
 62
     5
370
    50
100
AcDbVertex
100
AcDb2dVertex
 10
60.035836
 20
68.424794
 30
0.0
  0
VERTEX
  5
1CB
330
1C1
100
AcDbEntity
  8
001
 62
     5
370
    50
100
AcDbVertex
100
AcDb2dVertex
 10
60.060741
 20
68.443339
 30
0.0
  0
SEQEND
  5
1C2
330
1C1
100
AcDbEntity
  8
001
370
    50
  0
LINE
  5
1CC
330
64
100
AcDbEntity
  8
001
 62
     5
370
    50
100
AcDbLine
 10
59.743117
 20
68.329949
 30
0.0
 11
60.033221
 21
68.329949
 31
0.0
  0
POLYLINE
  5
1CD
330
64
100
AcDbEntity
  8
001
 62
     5
370
    50
100
AcDb2dPolyline
 66
     1
 10
0.0
 20
0.0
 30
0.0
  0
VERTEX
  5
1CF
330
1CD
100
AcDbEntity
  8
001
 62
     5
370
    50
100
AcDbVertex
100
AcDb2dVertex
 10
60.033221
 20
68.329949
 30
0.0
  0
VERTEX
  5
1D0
330
1CD
100
AcDbEntity
  8
001
 62
     5
370
    50
100
AcDbVertex
100
AcDb2dVertex
 10
60.070796
 20
68.331898
 30
0.0
  0
VERTEX
  5
1D1
330
1CD
100
AcDbEntity
  8
001
 62
     5
370
    50
100
AcDbVertex
100
AcDb2dVertex
 10
60.122411
 20
68.337994
 30
0.0
  0
VERTEX
  5
1D2
330
1CD
100
AcDbEntity
  8
001
 62
     5
370
    50
100
AcDbVertex
100
AcDb2dVertex
 10
60.168515
 20
68.348345
 30
0.0
  0
VERTEX
  5
1D3
330
1CD
100
AcDbEntity
  8
001
 62
     5
370
    50
100
AcDbVertex
100
AcDb2dVertex
 10
60.20889
 20
68.361883
 30
0.0
  0
VERTEX
  5
1D4
330
1CD
100
AcDbEntity
  8
001
 62
     5
370
    50
100
AcDbVertex
100
AcDb2dVertex
 10
60.248223
 20
68.378273
 30
0.0
  0
VERTEX
  5
1D5
330
1CD
100
AcDbEntity
  8
001
 62
     5
370
    50
100
AcDbVertex
100
AcDb2dVertex
 10
60.290033
 20
68.400892
 30
0.0
  0
VERTEX
  5
1D6
330
1CD
100
AcDbEntity
  8
001
 62
     5
370
    50
100
AcDbVertex
100
AcDb2dVertex
 10
60.32594
 20
68.424794
 30
0.0
  0
VERTEX
  5
1D7
330
1CD
100
AcDbEntity
  8
001
 62
     5
370
    50
100
AcDbVertex
100
AcDb2dVertex
 10
60.350845
 20
68.443339
 30
0.0
  0
SEQEND
  5
1CE
330
1CD
100
AcDbEntity
  8
001
370
    50
  0
POLYLINE
  5
1D8
330
64
100
AcDbEntity
  8
001
 62
     5
370
    50
100
AcDb2dPolyline
 66
     1
 10
0.0
 20
0.0
 30
0.0
  0
VERTEX
  5
1DA
330
1D8
100
AcDbEntity
  8
001
 62
     5
370
    50
100
AcDbVertex
100
AcDb2dVertex
 10
59.450369
 20
66.294633
 30
0.0
  0
VERTEX
  5
1DB
330
1D8
100
AcDbEntity
  8
001
 62
     5
370
    50
100
AcDbVertex
100
AcDb2dVertex
 10
59.412793
 20
66.292684
 30
0.0
  0
VERTEX
  5
1DC
330
1D8
100
AcDbEntity
  8
001
 62
     5
370
    50
100
AcDbVertex
100
AcDb2dVertex
 10
59.361179
 20
66.286588
 30
0.0
  0
VERTEX
  5
1DD
330
1D8
100
AcDbEntity
  8
001
 62
     5
370
    50
100
AcDbVertex
100
AcDb2dVertex
 10
59.315075
 20
66.276237
 30
0.0
  0
VERTEX
  5
1DE
330
1D8
100
AcDbEntity
  8
001
 62
     5
370
    50
100
AcDbVertex
100
AcDb2dVertex
 10
59.274699
 20
66.262699
 30
0.0
  0
VERTEX
  5
1DF
330
1D8
100
AcDbEntity
  8
001
 62
     5
370
    50
100
AcDbVertex
100
AcDb2dVertex
 10
59.235367
 20
66.246309
 30
0.0
  0
VERTEX
  5
1E0
330
1D8
100
AcDbEntity
  8
001
 62
     5
370
    50
100
AcDbVertex
100
AcDb2dVertex
 10
59.193557
 20
66.22369
 30
0.0
  0
VERTEX
  5
1E1
330
1D8
100
AcDbEntity
  8
001
 62
     5
370
    50
100
AcDbVertex
100
AcDb2dVertex
 10
59.15765
 20
66.199788
 30
0.0
  0
VERTEX
  5
1E2
330
1D8
100
AcDbEntity
  8
001
 62
     5
370
    50
100
AcDbVertex
100
AcDb2dVertex
 10
59.132745
 20
66.181243
 30
0.0
  0
SEQEND
  5
1D9
330
1D8
100
AcDbEntity
  8
001
370
    50
  0
POLYLINE
  5
1E3
330
64
100
AcDbEntity
  8
001
 62
     5
370
    50
100
AcDb2dPolyline
 66
     1
 10
0.0
 20
0.0
 30
0.0
  0
VERTEX
  5
1E5
330
1E3
100
AcDbEntity
  8
001
 62
     5
370
    50
100
AcDbVertex
100
AcDb2dVertex
 10
60.130107
 20
66.110125
 30
0.0
  0
VERTEX
  5
1E6
330
1E3
100
AcDbEntity
  8
001
 62
     5
370
    50
100
AcDbVertex
100
AcDb2dVertex
 10
60.077098
 20
66.162511
 30
0.0
  0
VERTEX
  5
1E7
330
1E3
100
AcDbEntity
  8
001
 62
     5
370
    50
100
AcDbVertex
100
AcDb2dVertex
 10
59.997285
 20
66.22369
 30
0.0
  0
VERTEX
  5
1E8
330
1E3
100
AcDbEntity
  8
001
 62
     5
370
    50
100
AcDbVertex
100
AcDb2dVertex
 10
59.956161
 20
66.246043
 30
0.0
  0
VERTEX
  5
1E9
330
1E3
100
AcDbEntity
  8
001
 62
     5
370
    50
100
AcDbVertex
100
AcDb2dVertex
 10
59.916143
 20
66.262699
 30
0.0
  0
VERTEX
  5
1EA
330
1E3
100
AcDbEntity
  8
001
 62
     5
370
    50
100
AcDbVertex
100
AcDb2dVertex
 10
59.875587
 20
66.276307
 30
0.0
  0
VERTEX
  5
1EB
330
1E3
100
AcDbEntity
  8
001
 62
     5
370
    50
100
AcDbVertex
100
AcDb2dVertex
 10
59.829663
 20
66.286588
 30
0.0
  0
VERTEX
  5
1EC
330
1E3
100
AcDbEntity
  8
001
 62
     5
370
    50
100
AcDbVertex
100
AcDb2dVertex
 10
59.778084
 20
66.29267
 30
0.0
  0
VERTEX
  5
1ED
330
1E3
100
AcDbEntity
  8
001
 62
     5
370
    50
100
AcDbVertex
100
AcDb2dVertex
 10
59.740473
 20
66.294633
 30
0.0
  0
SEQEND
  5
1E4
330
1E3
100
AcDbEntity
  8
001
370
    50
  0
LINE
  5
1EE
330
64
100
AcDbEntity
  8
001
 62
     5
370
    50
100
AcDbLine
 10
59.740473
 20
66.294633
 30
0.0
 11
59.450369
 21
66.294633
 31
0.0
  0
POLYLINE
  5
1EF
330
64
100
AcDbEntity
  8
001
 62
     5
370
    50
100
AcDb2dPolyline
 66
     1
 10
0.0
 20
0.0
 30
0.0
  0
VERTEX
  5
1F1
330
1EF
100
AcDbEntity
  8
001
 62
     5
370
    50
100
AcDbVertex
100
AcDb2dVertex
 10
59.353483
 20
68.514457
 30
0.0
  0
VERTEX
  5
1F2
330
1EF
100
AcDbEntity
  8
001
 62
     5
370
    50
100
AcDbVertex
100
AcDb2dVertex
 10
59.325453
 20
68.542157
 30
0.0
  0
VERTEX
  5
1F3
330
1EF
100
AcDbEntity
  8
001
 62
     5
370
    50
100
AcDbVertex
100
AcDb2dVertex
 10
59.283249
 20
68.574507
 30
0.0
  0
VERTEX
  5
1F4
330
1EF
100
AcDbEntity
  8
001
 62
     5
370
    50
100
AcDbVertex
100
AcDb2dVertex
 10
59.261504
 20
68.586327
 30
0.0
  0
VERTEX
  5
1F5
330
1EF
100
AcDbEntity
  8
001
 62
     5
370
    50
100
AcDbVertex
100
AcDb2dVertex
 10
59.240343
 20
68.595134
 30
0.0
  0
VERTEX
  5
1F6
330
1EF
100
AcDbEntity
  8
001
 62
     5
370
    50
100
AcDbVertex
100
AcDb2dVertex
 10
59.218898
 20
68.60233
 30
0.0
  0
VERTEX
  5
1F7
330
1EF
100
AcDbEntity
  8
001
 62
     5
370
    50
100
AcDbVertex
100
AcDb2dVertex
 10
59.194615
 20
68.607767
 30
0.0
  0
VERTEX
  5
1F8
330
1EF
100
AcDbEntity
  8
001
 62
     5
370
    50
100
AcDbVertex
100
AcDb2dVertex
 10
59.167341
 20
68.610982
 30
0.0
  0
VERTEX
  5
1F9
330
1EF
100
AcDbEntity
  8
001
 62
     5
370
    50
100
AcDbVertex
100
AcDb2dVertex
 10
59.147453
 20
68.61202
 30
0.0
  0
SEQEND
  5
1F0
330
1EF
100
AcDbEntity
  8
001
370
    50
  0
POLYLINE
  5
1FA
330
64
100
AcDbEntity
  8
001
 62
     5
370
    50
100
AcDb2dPolyline
 66
     1
 10
0.0
 20
0.0
 30
0.0
  0
VERTEX
  5
1FC
330
1FA
100
AcDbEntity
  8
001
 62
     5
370
    50
100
AcDbVertex
100
AcDb2dVertex
 10
59.292505
 20
68.568742
 30
0.0
  0
VERTEX
  5
1FD
330
1FA
100
AcDbEntity
  8
001
 62
     5
370
    50
100
AcDbVertex
100
AcDb2dVertex
 10
59.250193
 20
68.531667
 30
0.0
  0
VERTEX
  5
1FE
330
1FA
100
AcDbEntity
  8
001
 62
     5
370
    50
100
AcDbVertex
100
AcDb2dVertex
 10
59.202351
 20
68.47202
 30
0.0
  0
VERTEX
  5
1FF
330
1FA
100
AcDbEntity
  8
001
 62
     5
370
    50
100
AcDbVertex
100
AcDb2dVertex
 10
59.181046
 20
68.425958
 30
0.0
  0
VERTEX
  5
200
330
1FA
100
AcDbEntity
  8
001
 62
     5
370
    50
100
AcDbVertex
100
AcDb2dVertex
 10
59.170091
 20
68.380642
 30
0.0
  0
VERTEX
  5
201
330
1FA
100
AcDbEntity
  8
001
 62
     5
370
    50
100
AcDbVertex
100
AcDb2dVertex
 10
59.166955
 20
68.357711
 30
0.0
  0
VERTEX
  5
202
330
1FA
100
AcDbEntity
  8
001
 62
     5
370
    50
100
AcDbVertex
100
AcDb2dVertex
 10
59.165965
 20
68.33202
 30
0.0
  0
VERTEX
  5
203
330
1FA
100
AcDbEntity
  8
001
 62
     5
370
    50
100
AcDbVertex
100
AcDb2dVertex
 10
59.167091
 20
68.308772
 30
0.0
  0
VERTEX
  5
204
330
1FA
100
AcDbEntity
  8
001
 62
     5
370
    50
100
AcDbVertex
100
AcDb2dVertex
 10
59.168741
 20
68.292088
 30
0.0
  0
SEQEND
  5
1FB
330
1FA
100
AcDbEntity
  8
001
370
    50
  0
POLYLINE
  5
205
330
64
100
AcDbEntity
  8
001
 62
     5
370
    50
100
AcDb2dPolyline
 66
     1
 10
0.0
 20
0.0
 30
0.0
  0
VERTEX
  5
207
330
205
100
AcDbEntity
  8
001
 62
     5
370
    50
100
AcDbVertex
100
AcDb2dVertex
 10
58.708527
 20
66.494017
 30
0.0
  0
VERTEX
  5
208
330
205
100
AcDbEntity
  8
001
 62
     5
370
    50
100
AcDbVertex
100
AcDb2dVertex
 10
58.703224
 20
66.475631
 30
0.0
  0
VERTEX
  5
209
330
205
100
AcDbEntity
  8
001
 62
     5
370
    50
100
AcDbVertex
100
AcDb2dVertex
 10
58.697326
 20
66.449907
 30
0.0
  0
VERTEX
  5
20A
330
205
100
AcDbEntity
  8
001
 62
     5
370
    50
100
AcDbVertex
100
AcDb2dVertex
 10
58.693887
 20
66.424662
 30
0.0
  0
VERTEX
  5
20B
330
205
100
AcDbEntity
  8
001
 62
     5
370
    50
100
AcDbVertex
100
AcDb2dVertex
 10
58.6932
 20
66.401285
 30
0.0
  0
VERTEX
  5
20C
330
205
100
AcDbEntity
  8
001
 62
     5
370
    50
100
AcDbVertex
100
AcDb2dVertex
 10
58.694331
 20
66.377189
 30
0.0
  0
VERTEX
  5
20D
330
205
100
AcDbEntity
  8
001
 62
     5
370
    50
100
AcDbVertex
100
AcDb2dVertex
 10
58.697326
 20
66.352664
 30
0.0
  0
VERTEX
  5
20E
330
205
100
AcDbEntity
  8
001
 62
     5
370
    50
100
AcDbVertex
100
AcDb2dVertex
 10
58.709475
 20
66.305467
 30
0.0
  0
VERTEX
  5
20F
330
205
100
AcDbEntity
  8
001
 62
     5
370
    50
100
AcDbVertex
100
AcDb2dVertex
 10
58.729586
 20
66.261285
 30
0.0
  0
VERTEX
  5
210
330
205
100
AcDbEntity
  8
001
 62
     5
370
    50
100
AcDbVertex
100
AcDb2dVertex
 10
58.772467
 20
66.203614
 30
0.0
  0
VERTEX
  5
211
330
205
100
AcDbEntity
  8
001
 62
     5
370
    50
100
AcDbVertex
100
AcDb2dVertex
 10
58.828996
 20
66.158798
 30
0.0
  0
VERTEX
  5
212
330
205
100
AcDbEntity
  8
001
 62
     5
370
    50
100
AcDbVertex
100
AcDb2dVertex
 10
58.850306
 20
66.147505
 30
0.0
  0
VERTEX
  5
213
330
205
100
AcDbEntity
  8
001
 62
     5
370
    50
100
AcDbVertex
100
AcDb2dVertex
 10
58.871902
 20
66.138171
 30
0.0
  0
VERTEX
  5
214
330
205
100
AcDbEntity
  8
001
 62
     5
370
    50
100
AcDbVertex
100
AcDb2dVertex
 10
58.893461
 20
66.130838
 30
0.0
  0
VERTEX
  5
215
330
205
100
AcDbEntity
  8
001
 62
     5
370
    50
100
AcDbVertex
100
AcDb2dVertex
 10
58.917631
 20
66.125539
 30
0.0
  0
VERTEX
  5
216
330
205
100
AcDbEntity
  8
001
 62
     5
370
    50
100
AcDbVertex
100
AcDb2dVertex
 10
58.944882
 20
66.122351
 30
0.0
  0
VERTEX
  5
217
330
205
100
AcDbEntity
  8
001
 62
     5
370
    50
100
AcDbVertex
100
AcDb2dVertex
 10
58.964792
 20
66.121285
 30
0.0
  0
SEQEND
  5
206
330
205
100
AcDbEntity
  8
001
370
    50
  0
POLYLINE
  5
218
330
64
100
AcDbEntity
  8
001
 62
     5
370
    50
100
AcDb2dPolyline
 66
     1
 10
0.0
 20
0.0
 30
0.0
  0
VERTEX
  5
21A
330
218
100
AcDbEntity
  8
001
 62
     5
370
    50
100
AcDbVertex
100
AcDb2dVertex
 10
58.998631
 20
66.494017
 30
0.0
  0
VERTEX
  5
21B
330
218
100
AcDbEntity
  8
001
 62
     5
370
    50
100
AcDbVertex
100
AcDb2dVertex
 10
58.993335
 20
66.475627
 30
0.0
  0
VERTEX
  5
21C
330
218
100
AcDbEntity
  8
001
 62
     5
370
    50
100
AcDbVertex
100
AcDb2dVertex
 10
58.98743
 20
66.449907
 30
0.0
  0
VERTEX
  5
21D
330
218
100
AcDbEntity
  8
001
 62
     5
370
    50
100
AcDbVertex
100
AcDb2dVertex
 10
58.983955
 20
66.424684
 30
0.0
  0
VERTEX
  5
21E
330
218
100
AcDbEntity
  8
001
 62
     5
370
    50
100
AcDbVertex
100
AcDb2dVertex
 10
58.983304
 20
66.401285
 30
0.0
  0
VERTEX
  5
21F
330
218
100
AcDbEntity
  8
001
 62
     5
370
    50
100
AcDbVertex
100
AcDb2dVertex
 10
58.984571
 20
66.377102
 30
0.0
  0
VERTEX
  5
220
330
218
100
AcDbEntity
  8
001
 62
     5
370
    50
100
AcDbVertex
100
AcDb2dVertex
 10
58.98743
 20
66.352664
 30
0.0
  0
VERTEX
  5
221
330
218
100
AcDbEntity
  8
001
 62
     5
370
    50
100
AcDbVertex
100
AcDb2dVertex
 10
58.998202
 20
66.306349
 30
0.0
  0
VERTEX
  5
222
330
218
100
AcDbEntity
  8
001
 62
     5
370
    50
100
AcDbVertex
100
AcDb2dVertex
 10
59.01969
 20
66.261285
 30
0.0
  0
VERTEX
  5
223
330
218
100
AcDbEntity
  8
001
 62
     5
370
    50
100
AcDbVertex
100
AcDb2dVertex
 10
59.067588
 20
66.201944
 30
0.0
  0
VERTEX
  5
224
330
218
100
AcDbEntity
  8
001
 62
     5
370
    50
100
AcDbVertex
100
AcDb2dVertex
 10
59.109845
 20
66.164564
 30
0.0
  0
SEQEND
  5
219
330
218
100
AcDbEntity
  8
001
370
    50
  0
POLYLINE
  5
225
330
64
100
AcDbEntity
  8
001
 62
     5
370
    50
100
AcDb2dPolyline
 66
     1
 10
0.0
 20
0.0
 30
0.0
  0
VERTEX
  5
227
330
225
100
AcDbEntity
  8
001
 62
     5
370
    50
100
AcDbVertex
100
AcDb2dVertex
 10
58.755371
 20
67.696183
 30
0.0
  0
VERTEX
  5
228
330
225
100
AcDbEntity
  8
001
 62
     5
370
    50
100
AcDbVertex
100
AcDb2dVertex
 10
58.789558
 20
67.70461
 30
0.0
  0
VERTEX
  5
229
330
225
100
AcDbEntity
  8
001
 62
     5
370
    50
100
AcDbVertex
100
AcDb2dVertex
 10
58.836037
 20
67.71898
 30
0.0
  0
VERTEX
  5
22A
330
225
100
AcDbEntity
  8
001
 62
     5
370
    50
100
AcDbVertex
100
AcDb2dVertex
 10
58.879642
 20
67.737095
 30
0.0
  0
VERTEX
  5
22B
330
225
100
AcDbEntity
  8
001
 62
     5
370
    50
100
AcDbVertex
100
AcDb2dVertex
 10
58.917179
 20
67.757989
 30
0.0
  0
VERTEX
  5
22C
330
225
100
AcDbEntity
  8
001
 62
     5
370
    50
100
AcDbVertex
100
AcDb2dVertex
 10
59.021415
 20
67.841553
 30
0.0
  0
VERTEX
  5
22D
330
225
100
AcDbEntity
  8
001
 62
     5
370
    50
100
AcDbVertex
100
AcDb2dVertex
 10
59.105179
 20
67.951808
 30
0.0
  0
VERTEX
  5
22E
330
225
100
AcDbEntity
  8
001
 62
     5
370
    50
100
AcDbVertex
100
AcDb2dVertex
 10
59.143262
 20
68.03735
 30
0.0
  0
VERTEX
  5
22F
330
225
100
AcDbEntity
  8
001
 62
     5
370
    50
100
AcDbVertex
100
AcDb2dVertex
 10
59.166188
 20
68.124618
 30
0.0
  0
VERTEX
  5
230
330
225
100
AcDbEntity
  8
001
 62
     5
370
    50
100
AcDbVertex
100
AcDb2dVertex
 10
59.172327
 20
68.168132
 30
0.0
  0
VERTEX
  5
231
330
225
100
AcDbEntity
  8
001
 62
     5
370
    50
100
AcDbVertex
100
AcDb2dVertex
 10
59.173991
 20
68.216569
 30
0.0
  0
VERTEX
  5
232
330
225
100
AcDbEntity
  8
001
 62
     5
370
    50
100
AcDbVertex
100
AcDb2dVertex
 10
59.17183
 20
68.260513
 30
0.0
  0
VERTEX
  5
233
330
225
100
AcDbEntity
  8
001
 62
     5
370
    50
100
AcDbVertex
100
AcDb2dVertex
 10
59.168741
 20
68.292088
 30
0.0
  0
SEQEND
  5
226
330
225
100
AcDbEntity
  8
001
370
    50
  0
POLYLINE
  5
234
330
64
100
AcDbEntity
  8
001
 62
     5
370
    50
100
AcDb2dPolyline
 66
     1
 10
0.0
 20
0.0
 30
0.0
  0
VERTEX
  5
236
330
234
100
AcDbEntity
  8
001
 62
     5
370
    50
100
AcDbVertex
100
AcDb2dVertex
 10
58.998631
 20
66.494017
 30
0.0
  0
VERTEX
  5
237
330
234
100
AcDbEntity
  8
001
 62
     5
370
    50
100
AcDbVertex
100
AcDb2dVertex
 10
59.008664
 20
66.528787
 30
0.0
  0
VERTEX
  5
238
330
234
100
AcDbEntity
  8
001
 62
     5
370
    50
100
AcDbVertex
100
AcDb2dVertex
 10
59.019814
 20
66.577437
 30
0.0
  0
VERTEX
  5
239
330
234
100
AcDbEntity
  8
001
 62
     5
370
    50
100
AcDbVertex
100
AcDb2dVertex
 10
59.026293
 20
66.625191
 30
0.0
  0
VERTEX
  5
23A
330
234
100
AcDbEntity
  8
001
 62
     5
370
    50
100
AcDbVertex
100
AcDb2dVertex
 10
59.027617
 20
66.669388
 30
0.0
  0
VERTEX
  5
23B
330
234
100
AcDbEntity
  8
001
 62
     5
370
    50
100
AcDbVertex
100
AcDb2dVertex
 10
59.025576
 20
66.714914
 30
0.0
  0
VERTEX
  5
23C
330
234
100
AcDbEntity
  8
001
 62
     5
370
    50
100
AcDbVertex
100
AcDb2dVertex
 10
59.019814
 20
66.761339
 30
0.0
  0
VERTEX
  5
23D
330
234
100
AcDbEntity
  8
001
 62
     5
370
    50
100
AcDbVertex
100
AcDb2dVertex
 10
58.995845
 20
66.851035
 30
0.0
  0
VERTEX
  5
23E
330
234
100
AcDbEntity
  8
001
 62
     5
370
    50
100
AcDbVertex
100
AcDb2dVertex
 10
58.958805
 20
66.934149
 30
0.0
  0
VERTEX
  5
23F
330
234
100
AcDbEntity
  8
001
 62
     5
370
    50
100
AcDbVertex
100
AcDb2dVertex
 10
58.88472
 20
67.04011
 30
0.0
  0
VERTEX
  5
240
330
234
100
AcDbEntity
  8
001
 62
     5
370
    50
100
AcDbVertex
100
AcDb2dVertex
 10
58.770806
 20
67.127968
 30
0.0
  0
VERTEX
  5
241
330
234
100
AcDbEntity
  8
001
 62
     5
370
    50
100
AcDbVertex
100
AcDb2dVertex
 10
58.732374
 20
67.148205
 30
0.0
  0
VERTEX
  5
242
330
234
100
AcDbEntity
  8
001
 62
     5
370
    50
100
AcDbVertex
100
AcDb2dVertex
 10
58.704743
 20
67.16104
 30
0.0
  0
SEQEND
  5
235
330
234
100
AcDbEntity
  8
001
370
    50
  0
POLYLINE
  5
243
330
64
100
AcDbEntity
  8
001
 62
     5
370
    50
100
AcDb2dPolyline
 66
     1
 10
0.0
 20
0.0
 30
0.0
  0
VERTEX
  5
245
330
243
100
AcDbEntity
  8
001
 62
     5
370
    50
100
AcDbVertex
100
AcDb2dVertex
 10
58.755371
 20
67.696183
 30
0.0
  0
VERTEX
  5
246
330
243
100
AcDbEntity
  8
001
 62
     5
370
    50
100
AcDbVertex
100
AcDb2dVertex
 10
58.737295
 20
67.691724
 30
0.0
  0
VERTEX
  5
247
330
243
100
AcDbEntity
  8
001
 62
     5
370
    50
100
AcDbVertex
100
AcDb2dVertex
 10
58.712717
 20
67.684129
 30
0.0
  0
VERTEX
  5
248
330
243
100
AcDbEntity
  8
001
 62
     5
370
    50
100
AcDbVertex
100
AcDb2dVertex
 10
58.689657
 20
67.674566
 30
0.0
  0
VERTEX
  5
249
330
243
100
AcDbEntity
  8
001
 62
     5
370
    50
100
AcDbVertex
100
AcDb2dVertex
 10
58.669811
 20
67.663502
 30
0.0
  0
VERTEX
  5
24A
330
243
100
AcDbEntity
  8
001
 62
     5
370
    50
100
AcDbVertex
100
AcDb2dVertex
 10
58.614743
 20
67.618991
 30
0.0
  0
VERTEX
  5
24B
330
243
100
AcDbEntity
  8
001
 62
     5
370
    50
100
AcDbVertex
100
AcDb2dVertex
 10
58.570401
 20
67.561015
 30
0.0
  0
VERTEX
  5
24C
330
243
100
AcDbEntity
  8
001
 62
     5
370
    50
100
AcDbVertex
100
AcDb2dVertex
 10
58.550137
 20
67.516607
 30
0.0
  0
VERTEX
  5
24D
330
243
100
AcDbEntity
  8
001
 62
     5
370
    50
100
AcDbVertex
100
AcDb2dVertex
 10
58.53814
 20
67.469636
 30
0.0
  0
VERTEX
  5
24E
330
243
100
AcDbEntity
  8
001
 62
     5
370
    50
100
AcDbVertex
100
AcDb2dVertex
 10
58.535082
 20
67.445402
 30
0.0
  0
VERTEX
  5
24F
330
243
100
AcDbEntity
  8
001
 62
     5
370
    50
100
AcDbVertex
100
AcDb2dVertex
 10
58.534014
 20
67.421015
 30
0.0
  0
VERTEX
  5
250
330
243
100
AcDbEntity
  8
001
 62
     5
370
    50
100
AcDbVertex
100
AcDb2dVertex
 10
58.534987
 20
67.396646
 30
0.0
  0
VERTEX
  5
251
330
243
100
AcDbEntity
  8
001
 62
     5
370
    50
100
AcDbVertex
100
AcDb2dVertex
 10
58.53814
 20
67.372393
 30
0.0
  0
VERTEX
  5
252
330
243
100
AcDbEntity
  8
001
 62
     5
370
    50
100
AcDbVertex
100
AcDb2dVertex
 10
58.550886
 20
67.325163
 30
0.0
  0
VERTEX
  5
253
330
243
100
AcDbEntity
  8
001
 62
     5
370
    50
100
AcDbVertex
100
AcDb2dVertex
 10
58.570401
 20
67.281015
 30
0.0
  0
VERTEX
  5
254
330
243
100
AcDbEntity
  8
001
 62
     5
370
    50
100
AcDbVertex
100
AcDb2dVertex
 10
58.609548
 20
67.224909
 30
0.0
  0
VERTEX
  5
255
330
243
100
AcDbEntity
  8
001
 62
     5
370
    50
100
AcDbVertex
100
AcDb2dVertex
 10
58.669811
 20
67.178528
 30
0.0
  0
VERTEX
  5
256
330
243
100
AcDbEntity
  8
001
 62
     5
370
    50
100
AcDbVertex
100
AcDb2dVertex
 10
58.690133
 20
67.167829
 30
0.0
  0
VERTEX
  5
257
330
243
100
AcDbEntity
  8
001
 62
     5
370
    50
100
AcDbVertex
100
AcDb2dVertex
 10
58.704743
 20
67.16104
 30
0.0
  0
SEQEND
  5
244
330
243
100
AcDbEntity
  8
001
370
    50
  0
ENDBLK
  5
66
330
64
100
AcDbEntity
  8
0
100
AcDbBlockEnd
  0
BLOCK
  5
259
330
258
100
AcDbEntity
  8
0
100
AcDbBlockBegin
  2
C32GUX-2
 70
     0
 10
0.0
 20
0.0
 30
0.0
  3
C32GUX-2
  1

  0
POLYLINE
  5
25B
330
258
100
AcDbEntity
  8
001
 62
    40
370
    50
100
AcDb2dPolyline
 66
     1
 10
0.0
 20
0.0
 30
0.0
  0
VERTEX
  5
25D
330
25B
100
AcDbEntity
  8
001
 62
    40
370
    50
100
AcDbVertex
100
AcDb2dVertex
 10
62.418539
 20
63.864269
 30
0.0
  0
VERTEX
  5
25E
330
25B
100
AcDbEntity
  8
001
 62
    40
370
    50
100
AcDbVertex
100
AcDb2dVertex
 10
62.586454
 20
63.701919
 30
0.0
  0
VERTEX
  5
25F
330
25B
100
AcDbEntity
  8
001
 62
    40
370
    50
100
AcDbVertex
100
AcDb2dVertex
 10
62.841137
 20
63.475086
 30
0.0
  0
VERTEX
  5
260
330
25B
100
AcDbEntity
  8
001
 62
    40
370
    50
100
AcDbVertex
100
AcDb2dVertex
 10
63.085097
 20
63.282181
 30
0.0
  0
VERTEX
  5
261
330
25B
100
AcDbEntity
  8
001
 62
    40
370
    50
100
AcDbVertex
100
AcDb2dVertex
 10
63.257763
 20
63.157528
 30
0.0
  0
SEQEND
  5
25C
330
25B
100
AcDbEntity
  8
001
370
    50
  0
LINE
  5
262
330
258
100
AcDbEntity
  8
001
 62
    40
370
    50
100
AcDbLine
 10
61.624965
 20
66.035502
 30
0.0
 11
62.418539
 21
63.864269
 31
0.0
  0
POLYLINE
  5
263
330
258
100
AcDbEntity
  8
001
 62
    40
370
    50
100
AcDb2dPolyline
 66
     1
 10
0.0
 20
0.0
 30
0.0
  0
VERTEX
  5
265
330
263
100
AcDbEntity
  8
001
 62
    40
370
    50
100
AcDbVertex
100
AcDb2dVertex
 10
61.624965
 20
66.035502
 30
0.0
  0
VERTEX
  5
266
330
263
100
AcDbEntity
  8
001
 62
    40
370
    50
100
AcDbVertex
100
AcDb2dVertex
 10
61.674198
 20
66.188713
 30
0.0
  0
VERTEX
  5
267
330
263
100
AcDbEntity
  8
001
 62
    40
370
    50
100
AcDbVertex
100
AcDb2dVertex
 10
61.719841
 20
66.34297
 30
0.0
  0
VERTEX
  5
268
330
263
100
AcDbEntity
  8
001
 62
    40
370
    50
100
AcDbVertex
100
AcDb2dVertex
 10
61.760108
 20
66.504677
 30
0.0
  0
VERTEX
  5
269
330
263
100
AcDbEntity
  8
001
 62
    40
370
    50
100
AcDbVertex
100
AcDb2dVertex
 10
61.79235
 20
66.668218
 30
0.0
  0
VERTEX
  5
26A
330
263
100
AcDbEntity
  8
001
 62
    40
370
    50
100
AcDbVertex
100
AcDb2dVertex
 10
61.815964
 20
66.831076
 30
0.0
  0
VERTEX
  5
26B
330
263
100
AcDbEntity
  8
001
 62
    40
370
    50
100
AcDbVertex
100
AcDb2dVertex
 10
61.830947
 20
66.994935
 30
0.0
  0
VERTEX
  5
26C
330
263
100
AcDbEntity
  8
001
 62
    40
370
    50
100
AcDbVertex
100
AcDb2dVertex
 10
61.836857
 20
67.162185
 30
0.0
  0
VERTEX
  5
26D
330
263
100
AcDbEntity
  8
001
 62
    40
370
    50
100
AcDbVertex
100
AcDb2dVertex
 10
61.833003
 20
67.329513
 30
0.0
  0
VERTEX
  5
26E
330
263
100
AcDbEntity
  8
001
 62
    40
370
    50
100
AcDbVertex
100
AcDb2dVertex
 10
61.81895
 20
67.49684
 30
0.0
  0
VERTEX
  5
26F
330
263
100
AcDbEntity
  8
001
 62
    40
370
    50
100
AcDbVertex
100
AcDb2dVertex
 10
61.794129
 20
67.662877
 30
0.0
  0
VERTEX
  5
270
330
263
100
AcDbEntity
  8
001
 62
    40
370
    50
100
AcDbVertex
100
AcDb2dVertex
 10
61.762536
 20
67.80929
 30
0.0
  0
VERTEX
  5
271
330
263
100
AcDbEntity
  8
001
 62
    40
370
    50
100
AcDbVertex
100
AcDb2dVertex
 10
61.722287
 20
67.953575
 30
0.0
  0
VERTEX
  5
272
330
263
100
AcDbEntity
  8
001
 62
    40
370
    50
100
AcDbVertex
100
AcDb2dVertex
 10
61.673408
 20
68.096183
 30
0.0
  0
VERTEX
  5
273
330
263
100
AcDbEntity
  8
001
 62
    40
370
    50
100
AcDbVertex
100
AcDb2dVertex
 10
61.616361
 20
68.235725
 30
0.0
  0
VERTEX
  5
274
330
263
100
AcDbEntity
  8
001
 62
    40
370
    50
100
AcDbVertex
100
AcDb2dVertex
 10
61.551439
 20
68.371525
 30
0.0
  0
VERTEX
  5
275
330
263
100
AcDbEntity
  8
001
 62
    40
370
    50
100
AcDbVertex
100
AcDb2dVertex
 10
61.478694
 20
68.503285
 30
0.0
  0
VERTEX
  5
276
330
263
100
AcDbEntity
  8
001
 62
    40
370
    50
100
AcDbVertex
100
AcDb2dVertex
 10
61.403904
 20
68.622257
 30
0.0
  0
VERTEX
  5
277
330
263
100
AcDbEntity
  8
001
 62
    40
370
    50
100
AcDbVertex
100
AcDb2dVertex
 10
61.323005
 20
68.737171
 30
0.0
  0
VERTEX
  5
278
330
263
100
AcDbEntity
  8
001
 62
    40
370
    50
100
AcDbVertex
100
AcDb2dVertex
 10
61.236297
 20
68.848299
 30
0.0
  0
VERTEX
  5
279
330
263
100
AcDbEntity
  8
001
 62
    40
370
    50
100
AcDbVertex
100
AcDb2dVertex
 10
61.14447
 20
68.955238
 30
0.0
  0
VERTEX
  5
27A
330
263
100
AcDbEntity
  8
001
 62
    40
370
    50
100
AcDbVertex
100
AcDb2dVertex
 10
61.048435
 20
69.05743
 30
0.0
  0
VERTEX
  5
27B
330
263
100
AcDbEntity
  8
001
 62
    40
370
    50
100
AcDbVertex
100
AcDb2dVertex
 10
60.948074
 20
69.155365
 30
0.0
  0
VERTEX
  5
27C
330
263
100
AcDbEntity
  8
001
 62
    40
370
    50
100
AcDbVertex
100
AcDb2dVertex
 10
60.845703
 20
69.24738
 30
0.0
  0
VERTEX
  5
27D
330
263
100
AcDbEntity
  8
001
 62
    40
370
    50
100
AcDbVertex
100
AcDb2dVertex
 10
60.740079
 20
69.335663
 30
0.0
  0
VERTEX
  5
27E
330
263
100
AcDbEntity
  8
001
 62
    40
370
    50
100
AcDbVertex
100
AcDb2dVertex
 10
60.63282
 20
69.419754
 30
0.0
  0
VERTEX
  5
27F
330
263
100
AcDbEntity
  8
001
 62
    40
370
    50
100
AcDbVertex
100
AcDb2dVertex
 10
60.523125
 20
69.500609
 30
0.0
  0
VERTEX
  5
280
330
263
100
AcDbEntity
  8
001
 62
    40
370
    50
100
AcDbVertex
100
AcDb2dVertex
 10
60.413778
 20
69.576823
 30
0.0
  0
VERTEX
  5
281
330
263
100
AcDbEntity
  8
001
 62
    40
370
    50
100
AcDbVertex
100
AcDb2dVertex
 10
60.303342
 20
69.651485
 30
0.0
  0
SEQEND
  5
264
330
263
100
AcDbEntity
  8
001
370
    50
  0
LINE
  5
282
330
258
100
AcDbEntity
  8
001
 62
    40
370
    50
100
AcDbLine
 10
59.691474
 20
71.325567
 30
0.0
 11
60.303342
 21
69.651485
 31
0.0
  0
POLYLINE
  5
283
330
258
100
AcDbEntity
  8
001
 62
    40
370
    50
100
AcDb2dPolyline
 66
     1
 10
0.0
 20
0.0
 30
0.0
  0
VERTEX
  5
285
330
283
100
AcDbEntity
  8
001
 62
    40
370
    50
100
AcDbVertex
100
AcDb2dVertex
 10
59.949771
 20
72.208253
 30
0.0
  0
VERTEX
  5
286
330
283
100
AcDbEntity
  8
001
 62
    40
370
    50
100
AcDbVertex
100
AcDb2dVertex
 10
59.88268
 20
72.043503
 30
0.0
  0
VERTEX
  5
287
330
283
100
AcDbEntity
  8
001
 62
    40
370
    50
100
AcDbVertex
100
AcDb2dVertex
 10
59.799292
 20
71.797628
 30
0.0
  0
VERTEX
  5
288
330
283
100
AcDbEntity
  8
001
 62
    40
370
    50
100
AcDbVertex
100
AcDb2dVertex
 10
59.728986
 20
71.518949
 30
0.0
  0
VERTEX
  5
289
330
283
100
AcDbEntity
  8
001
 62
    40
370
    50
100
AcDbVertex
100
AcDb2dVertex
 10
59.691474
 20
71.325567
 30
0.0
  0
SEQEND
  5
284
330
283
100
AcDbEntity
  8
001
370
    50
  0
POLYLINE
  5
28A
330
258
100
AcDbEntity
  8
001
 62
    40
370
    50
100
AcDb2dPolyline
 66
     1
 10
0.0
 20
0.0
 30
0.0
  0
VERTEX
  5
28C
330
28A
100
AcDbEntity
  8
001
 62
    40
370
    50
100
AcDbVertex
100
AcDb2dVertex
 10
59.949771
 20
72.208253
 30
0.0
  0
VERTEX
  5
28D
330
28A
100
AcDbEntity
  8
001
 62
    40
370
    50
100
AcDbVertex
100
AcDb2dVertex
 10
60.076883
 20
72.229845
 30
0.0
  0
VERTEX
  5
28E
330
28A
100
AcDbEntity
  8
001
 62
    40
370
    50
100
AcDbVertex
100
AcDb2dVertex
 10
60.252947
 20
72.260161
 30
0.0
  0
VERTEX
  5
28F
330
28A
100
AcDbEntity
  8
001
 62
    40
370
    50
100
AcDbVertex
100
AcDb2dVertex
 10
60.452404
 20
72.29529
 30
0.0
  0
VERTEX
  5
290
330
28A
100
AcDbEntity
  8
001
 62
    40
370
    50
100
AcDbVertex
100
AcDb2dVertex
 10
60.634587
 20
72.328348
 30
0.0
  0
VERTEX
  5
291
330
28A
100
AcDbEntity
  8
001
 62
    40
370
    50
100
AcDbVertex
100
AcDb2dVertex
 10
60.824401
 20
72.363527
 30
0.0
  0
VERTEX
  5
292
330
28A
100
AcDbEntity
  8
001
 62
    40
370
    50
100
AcDbVertex
100
AcDb2dVertex
 10
61.015686
 20
72.399493
 30
0.0
  0
VERTEX
  5
293
330
28A
100
AcDbEntity
  8
001
 62
    40
370
    50
100
AcDbVertex
100
AcDb2dVertex
 10
61.358166
 20
72.465584
 30
0.0
  0
VERTEX
  5
294
330
28A
100
AcDbEntity
  8
001
 62
    40
370
    50
100
AcDbVertex
100
AcDb2dVertex
 10
61.730314
 20
72.541986
 30
0.0
  0
VERTEX
  5
295
330
28A
100
AcDbEntity
  8
001
 62
    40
370
    50
100
AcDbVertex
100
AcDb2dVertex
 10
62.000081
 20
72.600136
 30
0.0
  0
VERTEX
  5
296
330
28A
100
AcDbEntity
  8
001
 62
    40
370
    50
100
AcDbVertex
100
AcDb2dVertex
 10
62.193701
 20
72.64315
 30
0.0
  0
SEQEND
  5
28B
330
28A
100
AcDbEntity
  8
001
370
    50
  0
POLYLINE
  5
297
330
258
100
AcDbEntity
  8
001
 62
    40
370
    50
100
AcDb2dPolyline
 66
     1
 10
0.0
 20
0.0
 30
0.0
  0
VERTEX
  5
299
330
297
100
AcDbEntity
  8
001
 62
    40
370
    50
100
AcDbVertex
100
AcDb2dVertex
 10
62.843221
 20
71.93641
 30
0.0
  0
VERTEX
  5
29A
330
297
100
AcDbEntity
  8
001
 62
    40
370
    50
100
AcDbVertex
100
AcDb2dVertex
 10
62.718006
 20
72.09857
 30
0.0
  0
VERTEX
  5
29B
330
297
100
AcDbEntity
  8
001
 62
    40
370
    50
100
AcDbVertex
100
AcDb2dVertex
 10
62.523415
 20
72.325593
 30
0.0
  0
VERTEX
  5
29C
330
297
100
AcDbEntity
  8
001
 62
    40
370
    50
100
AcDbVertex
100
AcDb2dVertex
 10
62.331914
 20
72.51843
 30
0.0
  0
VERTEX
  5
29D
330
297
100
AcDbEntity
  8
001
 62
    40
370
    50
100
AcDbVertex
100
AcDb2dVertex
 10
62.193701
 20
72.64315
 30
0.0
  0
SEQEND
  5
298
330
297
100
AcDbEntity
  8
001
370
    50
  0
LINE
  5
29E
330
258
100
AcDbEntity
  8
001
 62
    40
370
    50
100
AcDbLine
 10
65.570286
 20
64.475111
 30
0.0
 11
62.843221
 21
71.93641
 31
0.0
  0
POLYLINE
  5
29F
330
258
100
AcDbEntity
  8
001
 62
    40
370
    50
100
AcDb2dPolyline
 66
     1
 10
0.0
 20
0.0
 30
0.0
  0
VERTEX
  5
2A1
330
29F
100
AcDbEntity
  8
001
 62
    40
370
    50
100
AcDbVertex
100
AcDb2dVertex
 10
65.504501
 20
63.604019
 30
0.0
  0
VERTEX
  5
2A2
330
29F
100
AcDbEntity
  8
001
 62
    40
370
    50
100
AcDbVertex
100
AcDb2dVertex
 10
65.528326
 20
63.7206
 30
0.0
  0
VERTEX
  5
2A3
330
29F
100
AcDbEntity
  8
001
 62
    40
370
    50
100
AcDbVertex
100
AcDb2dVertex
 10
65.554597
 20
63.892296
 30
0.0
  0
VERTEX
  5
2A4
330
29F
100
AcDbEntity
  8
001
 62
    40
370
    50
100
AcDbVertex
100
AcDb2dVertex
 10
65.575134
 20
64.237658
 30
0.0
  0
VERTEX
  5
2A5
330
29F
100
AcDbEntity
  8
001
 62
    40
370
    50
100
AcDbVertex
100
AcDb2dVertex
 10
65.570286
 20
64.475111
 30
0.0
  0
SEQEND
  5
2A0
330
29F
100
AcDbEntity
  8
001
370
    50
  0
LINE
  5
2A6
330
258
100
AcDbEntity
  8
001
 62
    40
370
    50
100
AcDbLine
 10
65.349023
 20
63.558037
 30
0.0
 11
65.411213
 21
63.573623
 31
0.0
  0
POLYLINE
  5
2A7
330
258
100
AcDbEntity
  8
001
 62
    40
370
    50
100
AcDb2dPolyline
 66
     1
 10
0.0
 20
0.0
 30
0.0
  0
VERTEX
  5
2A9
330
2A7
100
AcDbEntity
  8
001
 62
    40
370
    50
100
AcDbVertex
100
AcDb2dVertex
 10
63.257763
 20
63.157528
 30
0.0
  0
VERTEX
  5
2AA
330
2A7
100
AcDbEntity
  8
001
 62
    40
370
    50
100
AcDbVertex
100
AcDb2dVertex
 10
63.384884
 20
63.179122
 30
0.0
  0
VERTEX
  5
2AB
330
2A7
100
AcDbEntity
  8
001
 62
    40
370
    50
100
AcDbVertex
100
AcDb2dVertex
 10
63.560939
 20
63.209436
 30
0.0
  0
VERTEX
  5
2AC
330
2A7
100
AcDbEntity
  8
001
 62
    40
370
    50
100
AcDbVertex
100
AcDb2dVertex
 10
63.76033
 20
63.244554
 30
0.0
  0
VERTEX
  5
2AD
330
2A7
100
AcDbEntity
  8
001
 62
    40
370
    50
100
AcDbVertex
100
AcDb2dVertex
 10
63.942578
 20
63.277623
 30
0.0
  0
VERTEX
  5
2AE
330
2A7
100
AcDbEntity
  8
001
 62
    40
370
    50
100
AcDbVertex
100
AcDb2dVertex
 10
64.132652
 20
63.312845
 30
0.0
  0
VERTEX
  5
2AF
330
2A7
100
AcDbEntity
  8
001
 62
    40
370
    50
100
AcDbVertex
100
AcDb2dVertex
 10
64.323678
 20
63.348768
 30
0.0
  0
VERTEX
  5
2B0
330
2A7
100
AcDbEntity
  8
001
 62
    40
370
    50
100
AcDbVertex
100
AcDb2dVertex
 10
64.663744
 20
63.414454
 30
0.0
  0
VERTEX
  5
2B1
330
2A7
100
AcDbEntity
  8
001
 62
    40
370
    50
100
AcDbVertex
100
AcDb2dVertex
 10
65.038306
 20
63.491261
 30
0.0
  0
VERTEX
  5
2B2
330
2A7
100
AcDbEntity
  8
001
 62
    40
370
    50
100
AcDbVertex
100
AcDb2dVertex
 10
65.220027
 20
63.53002
 30
0.0
  0
VERTEX
  5
2B3
330
2A7
100
AcDbEntity
  8
001
 62
    40
370
    50
100
AcDbVertex
100
AcDb2dVertex
 10
65.349023
 20
63.558037
 30
0.0
  0
SEQEND
  5
2A8
330
2A7
100
AcDbEntity
  8
001
370
    50
  0
LINE
  5
2B4
330
258
100
AcDbEntity
  8
001
 62
    40
370
    50
100
AcDbLine
 10
62.686264
 20
72.574082
 30
0.0
 11
62.843221
 21
71.93641
 31
0.0
  0
LINE
  5
2B5
330
258
100
AcDbEntity
  8
001
 62
    40
370
    50
100
AcDbLine
 10
64.041359
 20
70.774329
 30
0.0
 11
63.383559
 21
72.574082
 31
0.0
  0
LINE
  5
2B6
330
258
100
AcDbEntity
  8
001
 62
    40
370
    50
100
AcDbLine
 10
65.570286
 20
64.475111
 30
0.0
 11
65.767885
 21
64.067563
 31
0.0
  0
POLYLINE
  5
2B7
330
258
100
AcDbEntity
  8
001
 62
    40
370
    50
100
AcDb2dPolyline
 66
     1
 10
0.0
 20
0.0
 30
0.0
  0
VERTEX
  5
2B9
330
2B7
100
AcDbEntity
  8
001
 62
    40
370
    50
100
AcDbVertex
100
AcDb2dVertex
 10
65.504501
 20
63.604019
 30
0.0
  0
VERTEX
  5
2BA
330
2B7
100
AcDbEntity
  8
001
 62
    40
370
    50
100
AcDbVertex
100
AcDb2dVertex
 10
65.568876
 20
63.638778
 30
0.0
  0
VERTEX
  5
2BB
330
2B7
100
AcDbEntity
  8
001
 62
    40
370
    50
100
AcDbVertex
100
AcDb2dVertex
 10
65.629418
 20
63.678967
 30
0.0
  0
VERTEX
  5
2BC
330
2B7
100
AcDbEntity
  8
001
 62
    40
370
    50
100
AcDbVertex
100
AcDb2dVertex
 10
65.662961
 20
63.70813
 30
0.0
  0
VERTEX
  5
2BD
330
2B7
100
AcDbEntity
  8
001
 62
    40
370
    50
100
AcDbVertex
100
AcDb2dVertex
 10
65.69355
 20
63.7405
 30
0.0
  0
VERTEX
  5
2BE
330
2B7
100
AcDbEntity
  8
001
 62
    40
370
    50
100
AcDbVertex
100
AcDb2dVertex
 10
65.720697
 20
63.774929
 30
0.0
  0
VERTEX
  5
2BF
330
2B7
100
AcDbEntity
  8
001
 62
    40
370
    50
100
AcDbVertex
100
AcDb2dVertex
 10
65.744549
 20
63.811833
 30
0.0
  0
VERTEX
  5
2C0
330
2B7
100
AcDbEntity
  8
001
 62
    40
370
    50
100
AcDbVertex
100
AcDb2dVertex
 10
65.770181
 20
63.864903
 30
0.0
  0
VERTEX
  5
2C1
330
2B7
100
AcDbEntity
  8
001
 62
    40
370
    50
100
AcDbVertex
100
AcDb2dVertex
 10
65.785634
 20
63.921335
 30
0.0
  0
VERTEX
  5
2C2
330
2B7
100
AcDbEntity
  8
001
 62
    40
370
    50
100
AcDbVertex
100
AcDb2dVertex
 10
65.78852
 20
63.946833
 30
0.0
  0
VERTEX
  5
2C3
330
2B7
100
AcDbEntity
  8
001
 62
    40
370
    50
100
AcDbVertex
100
AcDb2dVertex
 10
65.790061
 20
63.972527
 30
0.0
  0
SEQEND
  5
2B8
330
2B7
100
AcDbEntity
  8
001
370
    50
  0
POLYLINE
  5
2C4
330
258
100
AcDbEntity
  8
001
 62
    40
370
    50
100
AcDb2dPolyline
 66
     1
 10
0.0
 20
0.0
 30
0.0
  0
VERTEX
  5
2C6
330
2C4
100
AcDbEntity
  8
001
 62
    40
370
    50
100
AcDbVertex
100
AcDb2dVertex
 10
65.411213
 20
63.573623
 30
0.0
  0
VERTEX
  5
2C7
330
2C4
100
AcDbEntity
  8
001
 62
    40
370
    50
100
AcDbVertex
100
AcDb2dVertex
 10
65.420162
 20
63.576177
 30
0.0
  0
VERTEX
  5
2C8
330
2C4
100
AcDbEntity
  8
001
 62
    40
370
    50
100
AcDbVertex
100
AcDb2dVertex
 10
65.429095
 20
63.578785
 30
0.0
  0
VERTEX
  5
2C9
330
2C4
100
AcDbEntity
  8
001
 62
    40
370
    50
100
AcDbVertex
100
AcDb2dVertex
 10
65.466949
 20
63.590919
 30
0.0
  0
VERTEX
  5
2CA
330
2C4
100
AcDbEntity
  8
001
 62
    40
370
    50
100
AcDbVertex
100
AcDb2dVertex
 10
65.504501
 20
63.604019
 30
0.0
  0
SEQEND
  5
2C5
330
2C4
100
AcDbEntity
  8
001
370
    50
  0
POLYLINE
  5
2CB
330
258
100
AcDbEntity
  8
001
 62
    40
370
    50
100
AcDb2dPolyline
 66
     1
 10
0.0
 20
0.0
 30
0.0
  0
VERTEX
  5
2CD
330
2CB
100
AcDbEntity
  8
001
 62
    40
370
    50
100
AcDbVertex
100
AcDb2dVertex
 10
65.790061
 20
63.972527
 30
0.0
  0
VERTEX
  5
2CE
330
2CB
100
AcDbEntity
  8
001
 62
    40
370
    50
100
AcDbVertex
100
AcDb2dVertex
 10
65.78904
 20
63.990449
 30
0.0
  0
VERTEX
  5
2CF
330
2CB
100
AcDbEntity
  8
001
 62
    40
370
    50
100
AcDbVertex
100
AcDb2dVertex
 10
65.786951
 20
64.008159
 30
0.0
  0
VERTEX
  5
2D0
330
2CB
100
AcDbEntity
  8
001
 62
    40
370
    50
100
AcDbVertex
100
AcDb2dVertex
 10
65.779417
 20
64.037158
 30
0.0
  0
VERTEX
  5
2D1
330
2CB
100
AcDbEntity
  8
001
 62
    40
370
    50
100
AcDbVertex
100
AcDb2dVertex
 10
65.768858
 20
64.065555
 30
0.0
  0
SEQEND
  5
2CC
330
2CB
100
AcDbEntity
  8
001
370
    50
  0
POLYLINE
  5
2D2
330
258
100
AcDbEntity
  8
001
 62
    40
370
    50
100
AcDb2dPolyline
 66
     1
 10
0.0
 20
0.0
 30
0.0
  0
VERTEX
  5
2D4
330
2D2
100
AcDbEntity
  8
001
 62
    40
370
    50
100
AcDbVertex
100
AcDb2dVertex
 10
63.79398
 20
63.129942
 30
0.0
  0
VERTEX
  5
2D5
330
2D2
100
AcDbEntity
  8
001
 62
    40
370
    50
100
AcDbVertex
100
AcDb2dVertex
 10
63.832417
 20
63.137769
 30
0.0
  0
VERTEX
  5
2D6
330
2D2
100
AcDbEntity
  8
001
 62
    40
370
    50
100
AcDbVertex
100
AcDb2dVertex
 10
63.888363
 20
63.150245
 30
0.0
  0
VERTEX
  5
2D7
330
2D2
100
AcDbEntity
  8
001
 62
    40
370
    50
100
AcDbVertex
100
AcDb2dVertex
 10
63.943999
 20
63.164169
 30
0.0
  0
VERTEX
  5
2D8
330
2D2
100
AcDbEntity
  8
001
 62
    40
370
    50
100
AcDbVertex
100
AcDb2dVertex
 10
63.981889
 20
63.174401
 30
0.0
  0
SEQEND
  5
2D3
330
2D2
100
AcDbEntity
  8
001
370
    50
  0
LINE
  5
2D9
330
258
100
AcDbEntity
  8
001
 62
    40
370
    50
100
AcDbLine
 10
65.790059
 20
63.972679
 30
0.0
 11
65.789643
 21
64.008033
 31
0.0
  0
POLYLINE
  5
2DA
330
258
100
AcDbEntity
  8
001
 62
    40
370
    50
100
AcDb2dPolyline
 66
     1
 10
0.0
 20
0.0
 30
0.0
  0
VERTEX
  5
2DC
330
2DA
100
AcDbEntity
  8
001
 62
    40
370
    50
100
AcDbVertex
100
AcDb2dVertex
 10
63.980092
 20
63.173898
 30
0.0
  0
VERTEX
  5
2DD
330
2DA
100
AcDbEntity
  8
001
 62
    40
370
    50
100
AcDbVertex
100
AcDb2dVertex
 10
64.373117
 20
63.283674
 30
0.0
  0
VERTEX
  5
2DE
330
2DA
100
AcDbEntity
  8
001
 62
    40
370
    50
100
AcDbVertex
100
AcDb2dVertex
 10
64.766142
 20
63.393449
 30
0.0
  0
VERTEX
  5
2DF
330
2DA
100
AcDbEntity
  8
001
 62
    40
370
    50
100
AcDbVertex
100
AcDb2dVertex
 10
65.08851
 20
63.483489
 30
0.0
  0
VERTEX
  5
2E0
330
2DA
100
AcDbEntity
  8
001
 62
    40
370
    50
100
AcDbVertex
100
AcDb2dVertex
 10
65.410879
 20
63.573529
 30
0.0
  0
SEQEND
  5
2DB
330
2DA
100
AcDbEntity
  8
001
370
    50
  0
LINE
  5
2E1
330
258
100
AcDbEntity
  8
001
 62
    40
370
    50
100
AcDbLine
 10
57.189488
 20
61.981432
 30
0.0
 11
56.895558
 21
61.924465
 31
0.0
  0
POLYLINE
  5
2E2
330
258
100
AcDbEntity
  8
001
 62
    40
370
    50
100
AcDb2dPolyline
 66
     1
 10
0.0
 20
0.0
 30
0.0
  0
VERTEX
  5
2E4
330
2E2
100
AcDbEntity
  8
001
 62
    40
370
    50
100
AcDbVertex
100
AcDb2dVertex
 10
57.189488
 20
61.981432
 30
0.0
  0
VERTEX
  5
2E5
330
2E2
100
AcDbEntity
  8
001
 62
    40
370
    50
100
AcDbVertex
100
AcDb2dVertex
 10
57.3166
 20
62.003024
 30
0.0
  0
VERTEX
  5
2E6
330
2E2
100
AcDbEntity
  8
001
 62
    40
370
    50
100
AcDbVertex
100
AcDb2dVertex
 10
57.492664
 20
62.03334
 30
0.0
  0
VERTEX
  5
2E7
330
2E2
100
AcDbEntity
  8
001
 62
    40
370
    50
100
AcDbVertex
100
AcDb2dVertex
 10
57.692121
 20
62.068468
 30
0.0
  0
VERTEX
  5
2E8
330
2E2
100
AcDbEntity
  8
001
 62
    40
370
    50
100
AcDbVertex
100
AcDb2dVertex
 10
57.874304
 20
62.101527
 30
0.0
  0
VERTEX
  5
2E9
330
2E2
100
AcDbEntity
  8
001
 62
    40
370
    50
100
AcDbVertex
100
AcDb2dVertex
 10
58.064117
 20
62.136705
 30
0.0
  0
VERTEX
  5
2EA
330
2E2
100
AcDbEntity
  8
001
 62
    40
370
    50
100
AcDbVertex
100
AcDb2dVertex
 10
58.255403
 20
62.172672
 30
0.0
  0
VERTEX
  5
2EB
330
2E2
100
AcDbEntity
  8
001
 62
    40
370
    50
100
AcDbVertex
100
AcDb2dVertex
 10
58.597883
 20
62.238763
 30
0.0
  0
VERTEX
  5
2EC
330
2E2
100
AcDbEntity
  8
001
 62
    40
370
    50
100
AcDbVertex
100
AcDb2dVertex
 10
58.970031
 20
62.315165
 30
0.0
  0
VERTEX
  5
2ED
330
2E2
100
AcDbEntity
  8
001
 62
    40
370
    50
100
AcDbVertex
100
AcDb2dVertex
 10
59.239798
 20
62.373314
 30
0.0
  0
VERTEX
  5
2EE
330
2E2
100
AcDbEntity
  8
001
 62
    40
370
    50
100
AcDbVertex
100
AcDb2dVertex
 10
59.433417
 20
62.416329
 30
0.0
  0
SEQEND
  5
2E3
330
2E2
100
AcDbEntity
  8
001
370
    50
  0
LINE
  5
2EF
330
258
100
AcDbEntity
  8
001
 62
    40
370
    50
100
AcDbLine
 10
63.257763
 20
63.157528
 30
0.0
 11
59.433417
 21
62.416329
 31
0.0
  0
LINE
  5
2F0
330
258
100
AcDbEntity
  8
001
 62
    40
370
    50
100
AcDbLine
 10
57.57411
 20
61.924465
 30
0.0
 11
63.79398
 21
63.129942
 31
0.0
  0
LINE
  5
2F1
330
258
100
AcDbEntity
  8
001
 62
    40
370
    50
100
AcDbLine
 10
62.193701
 20
72.64315
 30
0.0
 11
62.487631
 21
72.700117
 31
0.0
  0
POLYLINE
  5
2F2
330
258
100
AcDbEntity
  8
001
 62
    40
370
    50
100
AcDb2dPolyline
 66
     1
 10
0.0
 20
0.0
 30
0.0
  0
VERTEX
  5
2F4
330
2F2
100
AcDbEntity
  8
001
 62
    40
370
    50
100
AcDbVertex
100
AcDb2dVertex
 10
62.523082
 20
72.70356
 30
0.0
  0
VERTEX
  5
2F5
330
2F2
100
AcDbEntity
  8
001
 62
    40
370
    50
100
AcDbVertex
100
AcDb2dVertex
 10
62.515877
 20
72.703396
 30
0.0
  0
VERTEX
  5
2F6
330
2F2
100
AcDbEntity
  8
001
 62
    40
370
    50
100
AcDbVertex
100
AcDb2dVertex
 10
62.505376
 20
72.702698
 30
0.0
  0
VERTEX
  5
2F7
330
2F2
100
AcDbEntity
  8
001
 62
    40
370
    50
100
AcDbVertex
100
AcDb2dVertex
 10
62.494816
 20
72.701351
 30
0.0
  0
VERTEX
  5
2F8
330
2F2
100
AcDbEntity
  8
001
 62
    40
370
    50
100
AcDbVertex
100
AcDb2dVertex
 10
62.487631
 20
72.700117
 30
0.0
  0
SEQEND
  5
2F3
330
2F2
100
AcDbEntity
  8
001
370
    50
  0
POLYLINE
  5
2F9
330
258
100
AcDbEntity
  8
001
 62
    40
370
    50
100
AcDb2dPolyline
 66
     1
 10
0.0
 20
0.0
 30
0.0
  0
VERTEX
  5
2FB
330
2F9
100
AcDbEntity
  8
001
 62
    40
370
    50
100
AcDbVertex
100
AcDb2dVertex
 10
59.433417
 20
62.416329
 30
0.0
  0
VERTEX
  5
2FC
330
2F9
100
AcDbEntity
  8
001
 62
    40
370
    50
100
AcDbVertex
100
AcDb2dVertex
 10
59.458691
 20
62.537563
 30
0.0
  0
VERTEX
  5
2FD
330
2F9
100
AcDbEntity
  8
001
 62
    40
370
    50
100
AcDbVertex
100
AcDb2dVertex
 10
59.486322
 20
62.716199
 30
0.0
  0
VERTEX
  5
2FE
330
2F9
100
AcDbEntity
  8
001
 62
    40
370
    50
100
AcDbVertex
100
AcDb2dVertex
 10
59.50688
 20
63.061555
 30
0.0
  0
VERTEX
  5
2FF
330
2F9
100
AcDbEntity
  8
001
 62
    40
370
    50
100
AcDbVertex
100
AcDb2dVertex
 10
59.502011
 20
63.299015
 30
0.0
  0
SEQEND
  5
2FA
330
2F9
100
AcDbEntity
  8
001
370
    50
  0
LINE
  5
300
330
258
100
AcDbEntity
  8
001
 62
    40
370
    50
100
AcDbLine
 10
62.418539
 20
63.864269
 30
0.0
 11
59.502011
 21
63.299015
 31
0.0
  0
LINE
  5
301
330
258
100
AcDbEntity
  8
001
 62
    40
370
    50
100
AcDbLine
 10
59.502011
 20
63.299015
 30
0.0
 11
58.890143
 21
64.973097
 31
0.0
  0
POLYLINE
  5
302
330
258
100
AcDbEntity
  8
001
 62
    40
370
    50
100
AcDb2dPolyline
 66
     1
 10
0.0
 20
0.0
 30
0.0
  0
VERTEX
  5
304
330
302
100
AcDbEntity
  8
001
 62
    40
370
    50
100
AcDbVertex
100
AcDb2dVertex
 10
58.890143
 20
64.973097
 30
0.0
  0
VERTEX
  5
305
330
302
100
AcDbEntity
  8
001
 62
    40
370
    50
100
AcDbVertex
100
AcDb2dVertex
 10
59.012308
 20
64.939059
 30
0.0
  0
VERTEX
  5
306
330
302
100
AcDbEntity
  8
001
 62
    40
370
    50
100
AcDbVertex
100
AcDb2dVertex
 10
59.184079
 20
64.899512
 30
0.0
  0
VERTEX
  5
307
330
302
100
AcDbEntity
  8
001
 62
    40
370
    50
100
AcDbVertex
100
AcDb2dVertex
 10
59.399181
 20
64.868634
 30
0.0
  0
VERTEX
  5
308
330
302
100
AcDbEntity
  8
001
 62
    40
370
    50
100
AcDbVertex
100
AcDb2dVertex
 10
59.596743
 20
64.862291
 30
0.0
  0
VERTEX
  5
309
330
302
100
AcDbEntity
  8
001
 62
    40
370
    50
100
AcDbVertex
100
AcDb2dVertex
 10
59.801166
 20
64.872143
 30
0.0
  0
VERTEX
  5
30A
330
302
100
AcDbEntity
  8
001
 62
    40
370
    50
100
AcDbVertex
100
AcDb2dVertex
 10
60.009407
 20
64.899512
 30
0.0
  0
VERTEX
  5
30B
330
302
100
AcDbEntity
  8
001
 62
    40
370
    50
100
AcDbVertex
100
AcDb2dVertex
 10
60.21332
 20
64.946745
 30
0.0
  0
VERTEX
  5
30C
330
302
100
AcDbEntity
  8
001
 62
    40
370
    50
100
AcDbVertex
100
AcDb2dVertex
 10
60.409532
 20
65.010044
 30
0.0
  0
VERTEX
  5
30D
330
302
100
AcDbEntity
  8
001
 62
    40
370
    50
100
AcDbVertex
100
AcDb2dVertex
 10
60.598497
 20
65.087685
 30
0.0
  0
VERTEX
  5
30E
330
302
100
AcDbEntity
  8
001
 62
    40
370
    50
100
AcDbVertex
100
AcDb2dVertex
 10
60.784961
 20
65.190529
 30
0.0
  0
VERTEX
  5
30F
330
302
100
AcDbEntity
  8
001
 62
    40
370
    50
100
AcDbVertex
100
AcDb2dVertex
 10
61.301088
 20
65.63491
 30
0.0
  0
VERTEX
  5
310
330
302
100
AcDbEntity
  8
001
 62
    40
370
    50
100
AcDbVertex
100
AcDb2dVertex
 10
61.624965
 20
66.035502
 30
0.0
  0
SEQEND
  5
303
330
302
100
AcDbEntity
  8
001
370
    50
  0
POLYLINE
  5
311
330
258
100
AcDbEntity
  8
001
 62
    40
370
    50
100
AcDb2dPolyline
 66
     1
 10
0.0
 20
0.0
 30
0.0
  0
VERTEX
  5
313
330
311
100
AcDbEntity
  8
001
 62
    40
370
    50
100
AcDbVertex
100
AcDb2dVertex
 10
57.568521
 20
68.58908
 30
0.0
  0
VERTEX
  5
314
330
311
100
AcDbEntity
  8
001
 62
    40
370
    50
100
AcDbVertex
100
AcDb2dVertex
 10
57.559839
 20
68.435366
 30
0.0
  0
VERTEX
  5
315
330
311
100
AcDbEntity
  8
001
 62
    40
370
    50
100
AcDbVertex
100
AcDb2dVertex
 10
57.551794
 20
68.281612
 30
0.0
  0
VERTEX
  5
316
330
311
100
AcDbEntity
  8
001
 62
    40
370
    50
100
AcDbVertex
100
AcDb2dVertex
 10
57.544815
 20
68.119033
 30
0.0
  0
VERTEX
  5
317
330
311
100
AcDbEntity
  8
001
 62
    40
370
    50
100
AcDbVertex
100
AcDb2dVertex
 10
57.540749
 20
67.956364
 30
0.0
  0
VERTEX
  5
318
330
311
100
AcDbEntity
  8
001
 62
    40
370
    50
100
AcDbVertex
100
AcDb2dVertex
 10
57.540934
 20
67.792967
 30
0.0
  0
VERTEX
  5
319
330
311
100
AcDbEntity
  8
001
 62
    40
370
    50
100
AcDbVertex
100
AcDb2dVertex
 10
57.54609
 20
67.629647
 30
0.0
  0
VERTEX
  5
31A
330
311
100
AcDbEntity
  8
001
 62
    40
370
    50
100
AcDbVertex
100
AcDb2dVertex
 10
57.557131
 20
67.462088
 30
0.0
  0
VERTEX
  5
31B
330
311
100
AcDbEntity
  8
001
 62
    40
370
    50
100
AcDbVertex
100
AcDb2dVertex
 10
57.574578
 20
67.295069
 30
0.0
  0
VERTEX
  5
31C
330
311
100
AcDbEntity
  8
001
 62
    40
370
    50
100
AcDbVertex
100
AcDb2dVertex
 10
57.599269
 20
67.127694
 30
0.0
  0
VERTEX
  5
31D
330
311
100
AcDbEntity
  8
001
 62
    40
370
    50
100
AcDbVertex
100
AcDb2dVertex
 10
57.631889
 20
66.961705
 30
0.0
  0
VERTEX
  5
31E
330
311
100
AcDbEntity
  8
001
 62
    40
370
    50
100
AcDbVertex
100
AcDb2dVertex
 10
57.668157
 20
66.815446
 30
0.0
  0
VERTEX
  5
31F
330
311
100
AcDbEntity
  8
001
 62
    40
370
    50
100
AcDbVertex
100
AcDb2dVertex
 10
57.711134
 20
66.671007
 30
0.0
  0
VERTEX
  5
320
330
311
100
AcDbEntity
  8
001
 62
    40
370
    50
100
AcDbVertex
100
AcDb2dVertex
 10
57.760593
 20
66.528732
 30
0.0
  0
VERTEX
  5
321
330
311
100
AcDbEntity
  8
001
 62
    40
370
    50
100
AcDbVertex
100
AcDb2dVertex
 10
57.816477
 20
66.388857
 30
0.0
  0
VERTEX
  5
322
330
311
100
AcDbEntity
  8
001
 62
    40
370
    50
100
AcDbVertex
100
AcDb2dVertex
 10
57.877872
 20
66.253557
 30
0.0
  0
VERTEX
  5
323
330
311
100
AcDbEntity
  8
001
 62
    40
370
    50
100
AcDbVertex
100
AcDb2dVertex
 10
57.945542
 20
66.121297
 30
0.0
  0
VERTEX
  5
324
330
311
100
AcDbEntity
  8
001
 62
    40
370
    50
100
AcDbVertex
100
AcDb2dVertex
 10
58.013127
 20
66.002901
 30
0.0
  0
VERTEX
  5
325
330
311
100
AcDbEntity
  8
001
 62
    40
370
    50
100
AcDbVertex
100
AcDb2dVertex
 10
58.085576
 20
65.887411
 30
0.0
  0
VERTEX
  5
326
330
311
100
AcDbEntity
  8
001
 62
    40
370
    50
100
AcDbVertex
100
AcDb2dVertex
 10
58.160921
 20
65.776976
 30
0.0
  0
VERTEX
  5
327
330
311
100
AcDbEntity
  8
001
 62
    40
370
    50
100
AcDbVertex
100
AcDb2dVertex
 10
58.240213
 20
65.669344
 30
0.0
  0
VERTEX
  5
328
330
311
100
AcDbEntity
  8
001
 62
    40
370
    50
100
AcDbVertex
100
AcDb2dVertex
 10
58.32036
 20
65.567969
 30
0.0
  0
VERTEX
  5
329
330
311
100
AcDbEntity
  8
001
 62
    40
370
    50
100
AcDbVertex
100
AcDb2dVertex
 10
58.403713
 20
65.469217
 30
0.0
  0
VERTEX
  5
32A
330
311
100
AcDbEntity
  8
001
 62
    40
370
    50
100
AcDbVertex
100
AcDb2dVertex
 10
58.48538
 20
65.378041
 30
0.0
  0
VERTEX
  5
32B
330
311
100
AcDbEntity
  8
001
 62
    40
370
    50
100
AcDbVertex
100
AcDb2dVertex
 10
58.569286
 20
65.288919
 30
0.0
  0
VERTEX
  5
32C
330
311
100
AcDbEntity
  8
001
 62
    40
370
    50
100
AcDbVertex
100
AcDb2dVertex
 10
58.650738
 20
65.205811
 30
0.0
  0
VERTEX
  5
32D
330
311
100
AcDbEntity
  8
001
 62
    40
370
    50
100
AcDbVertex
100
AcDb2dVertex
 10
58.733465
 20
65.123973
 30
0.0
  0
VERTEX
  5
32E
330
311
100
AcDbEntity
  8
001
 62
    40
370
    50
100
AcDbVertex
100
AcDb2dVertex
 10
58.811603
 20
65.048327
 30
0.0
  0
VERTEX
  5
32F
330
311
100
AcDbEntity
  8
001
 62
    40
370
    50
100
AcDbVertex
100
AcDb2dVertex
 10
58.890143
 20
64.973097
 30
0.0
  0
SEQEND
  5
312
330
311
100
AcDbEntity
  8
001
370
    50
  0
POLYLINE
  5
330
330
258
100
AcDbEntity
  8
001
 62
    40
370
    50
100
AcDb2dPolyline
 66
     1
 10
0.0
 20
0.0
 30
0.0
  0
VERTEX
  5
332
330
330
100
AcDbEntity
  8
001
 62
    40
370
    50
100
AcDbVertex
100
AcDb2dVertex
 10
60.303342
 20
69.651485
 30
0.0
  0
VERTEX
  5
333
330
330
100
AcDbEntity
  8
001
 62
    40
370
    50
100
AcDbVertex
100
AcDb2dVertex
 10
60.181178
 20
69.685523
 30
0.0
  0
VERTEX
  5
334
330
330
100
AcDbEntity
  8
001
 62
    40
370
    50
100
AcDbVertex
100
AcDb2dVertex
 10
60.009407
 20
69.72507
 30
0.0
  0
VERTEX
  5
335
330
330
100
AcDbEntity
  8
001
 62
    40
370
    50
100
AcDbVertex
100
AcDb2dVertex
 10
59.794304
 20
69.755948
 30
0.0
  0
VERTEX
  5
336
330
330
100
AcDbEntity
  8
001
 62
    40
370
    50
100
AcDbVertex
100
AcDb2dVertex
 10
59.596743
 20
69.762291
 30
0.0
  0
VERTEX
  5
337
330
330
100
AcDbEntity
  8
001
 62
    40
370
    50
100
AcDbVertex
100
AcDb2dVertex
 10
59.39232
 20
69.752439
 30
0.0
  0
VERTEX
  5
338
330
330
100
AcDbEntity
  8
001
 62
    40
370
    50
100
AcDbVertex
100
AcDb2dVertex
 10
59.184079
 20
69.72507
 30
0.0
  0
VERTEX
  5
339
330
330
100
AcDbEntity
  8
001
 62
    40
370
    50
100
AcDbVertex
100
AcDb2dVertex
 10
58.980166
 20
69.677837
 30
0.0
  0
VERTEX
  5
33A
330
330
100
AcDbEntity
  8
001
 62
    40
370
    50
100
AcDbVertex
100
AcDb2dVertex
 10
58.783954
 20
69.614538
 30
0.0
  0
VERTEX
  5
33B
330
330
100
AcDbEntity
  8
001
 62
    40
370
    50
100
AcDbVertex
100
AcDb2dVertex
 10
58.594989
 20
69.536897
 30
0.0
  0
VERTEX
  5
33C
330
330
100
AcDbEntity
  8
001
 62
    40
370
    50
100
AcDbVertex
100
AcDb2dVertex
 10
58.408525
 20
69.434053
 30
0.0
  0
VERTEX
  5
33D
330
330
100
AcDbEntity
  8
001
 62
    40
370
    50
100
AcDbVertex
100
AcDb2dVertex
 10
57.892397
 20
68.989672
 30
0.0
  0
VERTEX
  5
33E
330
330
100
AcDbEntity
  8
001
 62
    40
370
    50
100
AcDbVertex
100
AcDb2dVertex
 10
57.568521
 20
68.58908
 30
0.0
  0
SEQEND
  5
331
330
330
100
AcDbEntity
  8
001
370
    50
  0
POLYLINE
  5
33F
330
258
100
AcDbEntity
  8
001
 62
    40
370
    50
100
AcDb2dPolyline
 66
     1
 10
0.0
 20
0.0
 30
0.0
  0
VERTEX
  5
341
330
33F
100
AcDbEntity
  8
001
 62
    40
370
    50
100
AcDbVertex
100
AcDb2dVertex
 10
62.686264
 20
72.574082
 30
0.0
  0
VERTEX
  5
342
330
33F
100
AcDbEntity
  8
001
 62
    40
370
    50
100
AcDbVertex
100
AcDb2dVertex
 10
62.683006
 20
72.585188
 30
0.0
  0
VERTEX
  5
343
330
33F
100
AcDbEntity
  8
001
 62
    40
370
    50
100
AcDbVertex
100
AcDb2dVertex
 10
62.677698
 20
72.600296
 30
0.0
  0
VERTEX
  5
344
330
33F
100
AcDbEntity
  8
001
 62
    40
370
    50
100
AcDbVertex
100
AcDb2dVertex
 10
62.670577
 20
72.615844
 30
0.0
  0
VERTEX
  5
345
330
33F
100
AcDbEntity
  8
001
 62
    40
370
    50
100
AcDbVertex
100
AcDb2dVertex
 10
62.662456
 20
72.629223
 30
0.0
  0
VERTEX
  5
346
330
33F
100
AcDbEntity
  8
001
 62
    40
370
    50
100
AcDbVertex
100
AcDb2dVertex
 10
62.653041
 20
72.642076
 30
0.0
  0
VERTEX
  5
347
330
33F
100
AcDbEntity
  8
001
 62
    40
370
    50
100
AcDbVertex
100
AcDb2dVertex
 10
62.642303
 20
72.654332
 30
0.0
  0
VERTEX
  5
348
330
33F
100
AcDbEntity
  8
001
 62
    40
370
    50
100
AcDbVertex
100
AcDb2dVertex
 10
62.630548
 20
72.66525
 30
0.0
  0
VERTEX
  5
349
330
33F
100
AcDbEntity
  8
001
 62
    40
370
    50
100
AcDbVertex
100
AcDb2dVertex
 10
62.61785
 20
72.67486
 30
0.0
  0
VERTEX
  5
34A
330
33F
100
AcDbEntity
  8
001
 62
    40
370
    50
100
AcDbVertex
100
AcDb2dVertex
 10
62.604308
 20
72.683199
 30
0.0
  0
VERTEX
  5
34B
330
33F
100
AcDbEntity
  8
001
 62
    40
370
    50
100
AcDbVertex
100
AcDb2dVertex
 10
62.58984
 20
72.690183
 30
0.0
  0
VERTEX
  5
34C
330
33F
100
AcDbEntity
  8
001
 62
    40
370
    50
100
AcDbVertex
100
AcDb2dVertex
 10
62.574407
 20
72.695758
 30
0.0
  0
VERTEX
  5
34D
330
33F
100
AcDbEntity
  8
001
 62
    40
370
    50
100
AcDbVertex
100
AcDb2dVertex
 10
62.559124
 20
72.699836
 30
0.0
  0
VERTEX
  5
34E
330
33F
100
AcDbEntity
  8
001
 62
    40
370
    50
100
AcDbVertex
100
AcDb2dVertex
 10
62.544143
 20
72.702444
 30
0.0
  0
VERTEX
  5
34F
330
33F
100
AcDbEntity
  8
001
 62
    40
370
    50
100
AcDbVertex
100
AcDb2dVertex
 10
62.526636
 20
72.703525
 30
0.0
  0
VERTEX
  5
350
330
33F
100
AcDbEntity
  8
001
 62
    40
370
    50
100
AcDbVertex
100
AcDb2dVertex
 10
62.524535
 20
72.703552
 30
0.0
  0
VERTEX
  5
351
330
33F
100
AcDbEntity
  8
001
 62
    40
370
    50
100
AcDbVertex
100
AcDb2dVertex
 10
62.523082
 20
72.70356
 30
0.0
  0
SEQEND
  5
340
330
33F
100
AcDbEntity
  8
001
370
    50
  0
LINE
  5
352
330
258
100
AcDbEntity
  8
001
 62
    40
370
    50
100
AcDbLine
 10
63.202025
 20
72.70356
 30
0.0
 11
62.523082
 21
72.70356
 31
0.0
  0
POLYLINE
  5
353
330
258
100
AcDbEntity
  8
001
 62
    40
370
    50
100
AcDb2dPolyline
 66
     1
 10
0.0
 20
0.0
 30
0.0
  0
VERTEX
  5
355
330
353
100
AcDbEntity
  8
001
 62
    40
370
    50
100
AcDbVertex
100
AcDb2dVertex
 10
63.383559
 20
72.574082
 30
0.0
  0
VERTEX
  5
356
330
353
100
AcDbEntity
  8
001
 62
    40
370
    50
100
AcDbVertex
100
AcDb2dVertex
 10
63.378357
 20
72.58644
 30
0.0
  0
VERTEX
  5
357
330
353
100
AcDbEntity
  8
001
 62
    40
370
    50
100
AcDbVertex
100
AcDb2dVertex
 10
63.370029
 20
72.60356
 30
0.0
  0
VERTEX
  5
358
330
353
100
AcDbEntity
  8
001
 62
    40
370
    50
100
AcDbVertex
100
AcDb2dVertex
 10
63.338478
 20
72.647383
 30
0.0
  0
VERTEX
  5
359
330
353
100
AcDbEntity
  8
001
 62
    40
370
    50
100
AcDbVertex
100
AcDb2dVertex
 10
63.299022
 20
72.676765
 30
0.0
  0
VERTEX
  5
35A
330
353
100
AcDbEntity
  8
001
 62
    40
370
    50
100
AcDbVertex
100
AcDb2dVertex
 10
63.283848
 20
72.684697
 30
0.0
  0
VERTEX
  5
35B
330
353
100
AcDbEntity
  8
001
 62
    40
370
    50
100
AcDbVertex
100
AcDb2dVertex
 10
63.268375
 20
72.691499
 30
0.0
  0
VERTEX
  5
35C
330
353
100
AcDbEntity
  8
001
 62
    40
370
    50
100
AcDbVertex
100
AcDb2dVertex
 10
63.252963
 20
72.696772
 30
0.0
  0
VERTEX
  5
35D
330
353
100
AcDbEntity
  8
001
 62
    40
370
    50
100
AcDbVertex
100
AcDb2dVertex
 10
63.235711
 20
72.700522
 30
0.0
  0
VERTEX
  5
35E
330
353
100
AcDbEntity
  8
001
 62
    40
370
    50
100
AcDbVertex
100
AcDb2dVertex
 10
63.216249
 20
72.702792
 30
0.0
  0
VERTEX
  5
35F
330
353
100
AcDbEntity
  8
001
 62
    40
370
    50
100
AcDbVertex
100
AcDb2dVertex
 10
63.202025
 20
72.70356
 30
0.0
  0
SEQEND
  5
354
330
353
100
AcDbEntity
  8
001
370
    50
  0
LINE
  5
360
330
258
100
AcDbEntity
  8
001
 62
    40
370
    50
100
AcDbLine
 10
57.568521
 20
68.58908
 30
0.0
 11
56.774946
 21
70.760313
 31
0.0
  0
LINE
  5
361
330
258
100
AcDbEntity
  8
001
 62
    40
370
    50
100
AcDbLine
 10
56.774946
 20
70.760313
 30
0.0
 11
59.691474
 21
71.325567
 31
0.0
  0
POLYLINE
  5
362
330
258
100
AcDbEntity
  8
001
 62
    40
370
    50
100
AcDb2dPolyline
 66
     1
 10
0.0
 20
0.0
 30
0.0
  0
VERTEX
  5
364
330
362
100
AcDbEntity
  8
001
 62
    40
370
    50
100
AcDbVertex
100
AcDb2dVertex
 10
56.774946
 20
70.760313
 30
0.0
  0
VERTEX
  5
365
330
362
100
AcDbEntity
  8
001
 62
    40
370
    50
100
AcDbVertex
100
AcDb2dVertex
 10
56.649732
 20
70.922474
 30
0.0
  0
VERTEX
  5
366
330
362
100
AcDbEntity
  8
001
 62
    40
370
    50
100
AcDbVertex
100
AcDb2dVertex
 10
56.455141
 20
71.149496
 30
0.0
  0
VERTEX
  5
367
330
362
100
AcDbEntity
  8
001
 62
    40
370
    50
100
AcDbVertex
100
AcDb2dVertex
 10
56.263639
 20
71.342333
 30
0.0
  0
VERTEX
  5
368
330
362
100
AcDbEntity
  8
001
 62
    40
370
    50
100
AcDbVertex
100
AcDb2dVertex
 10
56.125426
 20
71.467054
 30
0.0
  0
SEQEND
  5
363
330
362
100
AcDbEntity
  8
001
370
    50
  0
LINE
  5
369
330
258
100
AcDbEntity
  8
001
 62
    40
370
    50
100
AcDbLine
 10
56.125426
 20
71.467054
 30
0.0
 11
59.949771
 21
72.208253
 31
0.0
  0
POLYLINE
  5
36A
330
258
100
AcDbEntity
  8
001
 62
    40
370
    50
100
AcDb2dPolyline
 66
     1
 10
0.0
 20
0.0
 30
0.0
  0
VERTEX
  5
36C
330
36A
100
AcDbEntity
  8
001
 62
    40
370
    50
100
AcDbVertex
100
AcDb2dVertex
 10
56.350264
 20
62.688172
 30
0.0
  0
VERTEX
  5
36D
330
36A
100
AcDbEntity
  8
001
 62
    40
370
    50
100
AcDbVertex
100
AcDb2dVertex
 10
56.518179
 20
62.525823
 30
0.0
  0
VERTEX
  5
36E
330
36A
100
AcDbEntity
  8
001
 62
    40
370
    50
100
AcDbVertex
100
AcDb2dVertex
 10
56.772862
 20
62.298989
 30
0.0
  0
VERTEX
  5
36F
330
36A
100
AcDbEntity
  8
001
 62
    40
370
    50
100
AcDbVertex
100
AcDb2dVertex
 10
57.016822
 20
62.106084
 30
0.0
  0
VERTEX
  5
370
330
36A
100
AcDbEntity
  8
001
 62
    40
370
    50
100
AcDbVertex
100
AcDb2dVertex
 10
57.189488
 20
61.981432
 30
0.0
  0
SEQEND
  5
36B
330
36A
100
AcDbEntity
  8
001
370
    50
  0
POLYLINE
  5
371
330
258
100
AcDbEntity
  8
001
 62
    40
370
    50
100
AcDb2dPolyline
 66
     1
 10
0.0
 20
0.0
 30
0.0
  0
VERTEX
  5
373
330
371
100
AcDbEntity
  8
001
 62
    40
370
    50
100
AcDbVertex
100
AcDb2dVertex
 10
53.876276
 20
71.020563
 30
0.0
  0
VERTEX
  5
374
330
371
100
AcDbEntity
  8
001
 62
    40
370
    50
100
AcDbVertex
100
AcDb2dVertex
 10
53.810684
 20
70.85768
 30
0.0
  0
VERTEX
  5
375
330
371
100
AcDbEntity
  8
001
 62
    40
370
    50
100
AcDbVertex
100
AcDb2dVertex
 10
53.729036
 20
70.614739
 30
0.0
  0
VERTEX
  5
376
330
371
100
AcDbEntity
  8
001
 62
    40
370
    50
100
AcDbVertex
100
AcDb2dVertex
 10
53.660107
 20
70.340033
 30
0.0
  0
VERTEX
  5
377
330
371
100
AcDbEntity
  8
001
 62
    40
370
    50
100
AcDbVertex
100
AcDb2dVertex
 10
53.623199
 20
70.149471
 30
0.0
  0
SEQEND
  5
372
330
371
100
AcDbEntity
  8
001
370
    50
  0
POLYLINE
  5
378
330
258
100
AcDbEntity
  8
001
 62
    40
370
    50
100
AcDb2dPolyline
 66
     1
 10
0.0
 20
0.0
 30
0.0
  0
VERTEX
  5
37A
330
378
100
AcDbEntity
  8
001
 62
    40
370
    50
100
AcDbVertex
100
AcDb2dVertex
 10
54.083698
 20
71.066545
 30
0.0
  0
VERTEX
  5
37B
330
378
100
AcDbEntity
  8
001
 62
    40
370
    50
100
AcDbVertex
100
AcDb2dVertex
 10
54.031223
 20
71.056618
 30
0.0
  0
VERTEX
  5
37C
330
378
100
AcDbEntity
  8
001
 62
    40
370
    50
100
AcDbVertex
100
AcDb2dVertex
 10
53.978946
 20
71.045797
 30
0.0
  0
VERTEX
  5
37D
330
378
100
AcDbEntity
  8
001
 62
    40
370
    50
100
AcDbVertex
100
AcDb2dVertex
 10
53.927514
 20
71.033618
 30
0.0
  0
VERTEX
  5
37E
330
378
100
AcDbEntity
  8
001
 62
    40
370
    50
100
AcDbVertex
100
AcDb2dVertex
 10
53.876276
 20
71.020563
 30
0.0
  0
SEQEND
  5
379
330
378
100
AcDbEntity
  8
001
370
    50
  0
POLYLINE
  5
37F
330
258
100
AcDbEntity
  8
001
 62
    40
370
    50
100
AcDb2dPolyline
 66
     1
 10
0.0
 20
0.0
 30
0.0
  0
VERTEX
  5
381
330
37F
100
AcDbEntity
  8
001
 62
    40
370
    50
100
AcDbVertex
100
AcDb2dVertex
 10
54.083698
 20
71.066545
 30
0.0
  0
VERTEX
  5
382
330
37F
100
AcDbEntity
  8
001
 62
    40
370
    50
100
AcDbVertex
100
AcDb2dVertex
 10
54.125249
 20
71.073735
 30
0.0
  0
VERTEX
  5
383
330
37F
100
AcDbEntity
  8
001
 62
    40
370
    50
100
AcDbVertex
100
AcDb2dVertex
 10
54.184672
 20
71.084064
 30
0.0
  0
VERTEX
  5
384
330
37F
100
AcDbEntity
  8
001
 62
    40
370
    50
100
AcDbVertex
100
AcDb2dVertex
 10
54.390276
 20
71.120376
 30
0.0
  0
VERTEX
  5
385
330
37F
100
AcDbEntity
  8
001
 62
    40
370
    50
100
AcDbVertex
100
AcDb2dVertex
 10
54.566312
 20
71.152251
 30
0.0
  0
VERTEX
  5
386
330
37F
100
AcDbEntity
  8
001
 62
    40
370
    50
100
AcDbVertex
100
AcDb2dVertex
 10
54.742999
 20
71.184808
 30
0.0
  0
VERTEX
  5
387
330
37F
100
AcDbEntity
  8
001
 62
    40
370
    50
100
AcDbVertex
100
AcDb2dVertex
 10
54.947411
 20
71.223396
 30
0.0
  0
VERTEX
  5
388
330
37F
100
AcDbEntity
  8
001
 62
    40
370
    50
100
AcDbVertex
100
AcDb2dVertex
 10
55.037628
 20
71.240714
 30
0.0
  0
VERTEX
  5
389
330
37F
100
AcDbEntity
  8
001
 62
    40
370
    50
100
AcDbVertex
100
AcDb2dVertex
 10
55.101203
 20
71.252997
 30
0.0
  0
SEQEND
  5
380
330
37F
100
AcDbEntity
  8
001
370
    50
  0
POLYLINE
  5
38A
330
258
100
AcDbEntity
  8
001
 62
    40
370
    50
100
AcDb2dPolyline
 66
     1
 10
0.0
 20
0.0
 30
0.0
  0
VERTEX
  5
38C
330
38A
100
AcDbEntity
  8
001
 62
    40
370
    50
100
AcDbVertex
100
AcDb2dVertex
 10
55.101203
 20
71.252997
 30
0.0
  0
VERTEX
  5
38D
330
38A
100
AcDbEntity
  8
001
 62
    40
370
    50
100
AcDbVertex
100
AcDb2dVertex
 10
55.329242
 20
71.297889
 30
0.0
  0
VERTEX
  5
38E
330
38A
100
AcDbEntity
  8
001
 62
    40
370
    50
100
AcDbVertex
100
AcDb2dVertex
 10
55.662039
 20
71.365889
 30
0.0
  0
VERTEX
  5
38F
330
38A
100
AcDbEntity
  8
001
 62
    40
370
    50
100
AcDbVertex
100
AcDb2dVertex
 10
55.937367
 20
71.425071
 30
0.0
  0
VERTEX
  5
390
330
38A
100
AcDbEntity
  8
001
 62
    40
370
    50
100
AcDbVertex
100
AcDb2dVertex
 10
56.125426
 20
71.467054
 30
0.0
  0
SEQEND
  5
38B
330
38A
100
AcDbEntity
  8
001
370
    50
  0
LINE
  5
391
330
258
100
AcDbEntity
  8
001
 62
    40
370
    50
100
AcDbLine
 10
56.659438
 20
62.0505
 30
0.0
 11
56.350264
 21
62.688172
 31
0.0
  0
POLYLINE
  5
392
330
258
100
AcDbEntity
  8
001
 62
    40
370
    50
100
AcDb2dPolyline
 66
     1
 10
0.0
 20
0.0
 30
0.0
  0
VERTEX
  5
394
330
392
100
AcDbEntity
  8
001
 62
    40
370
    50
100
AcDbVertex
100
AcDb2dVertex
 10
56.859326
 20
61.921022
 30
0.0
  0
VERTEX
  5
395
330
392
100
AcDbEntity
  8
001
 62
    40
370
    50
100
AcDbVertex
100
AcDb2dVertex
 10
56.866769
 20
61.921182
 30
0.0
  0
VERTEX
  5
396
330
392
100
AcDbEntity
  8
001
 62
    40
370
    50
100
AcDbVertex
100
AcDb2dVertex
 10
56.877617
 20
61.921884
 30
0.0
  0
VERTEX
  5
397
330
392
100
AcDbEntity
  8
001
 62
    40
370
    50
100
AcDbVertex
100
AcDb2dVertex
 10
56.888293
 20
61.923228
 30
0.0
  0
VERTEX
  5
398
330
392
100
AcDbEntity
  8
001
 62
    40
370
    50
100
AcDbVertex
100
AcDb2dVertex
 10
56.895558
 20
61.924465
 30
0.0
  0
SEQEND
  5
393
330
392
100
AcDbEntity
  8
001
370
    50
  0
POLYLINE
  5
399
330
258
100
AcDbEntity
  8
001
 62
    40
370
    50
100
AcDb2dPolyline
 66
     1
 10
0.0
 20
0.0
 30
0.0
  0
VERTEX
  5
39B
330
399
100
AcDbEntity
  8
001
 62
    40
370
    50
100
AcDbVertex
100
AcDb2dVertex
 10
57.538268
 20
61.921022
 30
0.0
  0
VERTEX
  5
39C
330
399
100
AcDbEntity
  8
001
 62
    40
370
    50
100
AcDbVertex
100
AcDb2dVertex
 10
57.552027
 20
61.921596
 30
0.0
  0
VERTEX
  5
39D
330
399
100
AcDbEntity
  8
001
 62
    40
370
    50
100
AcDbVertex
100
AcDb2dVertex
 10
57.571955
 20
61.92406
 30
0.0
  0
VERTEX
  5
39E
330
399
100
AcDbEntity
  8
001
 62
    40
370
    50
100
AcDbVertex
100
AcDb2dVertex
 10
57.573235
 20
61.924298
 30
0.0
  0
VERTEX
  5
39F
330
399
100
AcDbEntity
  8
001
 62
    40
370
    50
100
AcDbVertex
100
AcDb2dVertex
 10
57.57411
 20
61.924465
 30
0.0
  0
SEQEND
  5
39A
330
399
100
AcDbEntity
  8
001
370
    50
  0
POLYLINE
  5
3A0
330
258
100
AcDbEntity
  8
001
 62
    40
370
    50
100
AcDb2dPolyline
 66
     1
 10
0.0
 20
0.0
 30
0.0
  0
VERTEX
  5
3A2
330
3A0
100
AcDbEntity
  8
001
 62
    40
370
    50
100
AcDbVertex
100
AcDb2dVertex
 10
56.659438
 20
62.0505
 30
0.0
  0
VERTEX
  5
3A3
330
3A0
100
AcDbEntity
  8
001
 62
    40
370
    50
100
AcDbVertex
100
AcDb2dVertex
 10
56.667134
 20
62.036459
 30
0.0
  0
VERTEX
  5
3A4
330
3A0
100
AcDbEntity
  8
001
 62
    40
370
    50
100
AcDbVertex
100
AcDb2dVertex
 10
56.678787
 20
62.017802
 30
0.0
  0
VERTEX
  5
3A5
330
3A0
100
AcDbEntity
  8
001
 62
    40
370
    50
100
AcDbVertex
100
AcDb2dVertex
 10
56.690277
 20
62.002557
 30
0.0
  0
VERTEX
  5
3A6
330
3A0
100
AcDbEntity
  8
001
 62
    40
370
    50
100
AcDbVertex
100
AcDb2dVertex
 10
56.702268
 20
61.989623
 30
0.0
  0
VERTEX
  5
3A7
330
3A0
100
AcDbEntity
  8
001
 62
    40
370
    50
100
AcDbVertex
100
AcDb2dVertex
 10
56.715627
 20
61.977195
 30
0.0
  0
VERTEX
  5
3A8
330
3A0
100
AcDbEntity
  8
001
 62
    40
370
    50
100
AcDbVertex
100
AcDb2dVertex
 10
56.729844
 20
61.965437
 30
0.0
  0
VERTEX
  5
3A9
330
3A0
100
AcDbEntity
  8
001
 62
    40
370
    50
100
AcDbVertex
100
AcDb2dVertex
 10
56.759069
 20
61.945963
 30
0.0
  0
VERTEX
  5
3AA
330
3A0
100
AcDbEntity
  8
001
 62
    40
370
    50
100
AcDbVertex
100
AcDb2dVertex
 10
56.793829
 20
61.931837
 30
0.0
  0
VERTEX
  5
3AB
330
3A0
100
AcDbEntity
  8
001
 62
    40
370
    50
100
AcDbVertex
100
AcDb2dVertex
 10
56.831469
 20
61.923816
 30
0.0
  0
VERTEX
  5
3AC
330
3A0
100
AcDbEntity
  8
001
 62
    40
370
    50
100
AcDbVertex
100
AcDb2dVertex
 10
56.859326
 20
61.921022
 30
0.0
  0
SEQEND
  5
3A1
330
3A0
100
AcDbEntity
  8
001
370
    50
  0
LINE
  5
3AD
330
258
100
AcDbEntity
  8
001
 62
    40
370
    50
100
AcDbLine
 10
56.859326
 20
61.921022
 30
0.0
 11
57.538268
 21
61.921022
 31
0.0
  0
POLYLINE
  5
3AE
330
258
100
AcDbEntity
  8
001
 62
    40
370
    50
100
AcDb2dPolyline
 66
     1
 10
0.0
 20
0.0
 30
0.0
  0
VERTEX
  5
3B0
330
3AE
100
AcDbEntity
  8
001
 62
    40
370
    50
100
AcDbVertex
100
AcDb2dVertex
 10
53.876276
 20
71.020563
 30
0.0
  0
VERTEX
  5
3B1
330
3AE
100
AcDbEntity
  8
001
 62
    40
370
    50
100
AcDbVertex
100
AcDb2dVertex
 10
53.806709
 20
70.985538
 30
0.0
  0
VERTEX
  5
3B2
330
3AE
100
AcDbEntity
  8
001
 62
    40
370
    50
100
AcDbVertex
100
AcDb2dVertex
 10
53.740289
 20
70.945615
 30
0.0
  0
VERTEX
  5
3B3
330
3AE
100
AcDbEntity
  8
001
 62
    40
370
    50
100
AcDbVertex
100
AcDb2dVertex
 10
53.701686
 20
70.916375
 30
0.0
  0
VERTEX
  5
3B4
330
3AE
100
AcDbEntity
  8
001
 62
    40
370
    50
100
AcDbVertex
100
AcDb2dVertex
 10
53.665442
 20
70.884082
 30
0.0
  0
VERTEX
  5
3B5
330
3AE
100
AcDbEntity
  8
001
 62
    40
370
    50
100
AcDbVertex
100
AcDb2dVertex
 10
53.63184
 20
70.849632
 30
0.0
  0
VERTEX
  5
3B6
330
3AE
100
AcDbEntity
  8
001
 62
    40
370
    50
100
AcDbVertex
100
AcDb2dVertex
 10
53.601035
 20
70.812749
 30
0.0
  0
VERTEX
  5
3B7
330
3AE
100
AcDbEntity
  8
001
 62
    40
370
    50
100
AcDbVertex
100
AcDb2dVertex
 10
53.565753
 20
70.760276
 30
0.0
  0
VERTEX
  5
3B8
330
3AE
100
AcDbEntity
  8
001
 62
    40
370
    50
100
AcDbVertex
100
AcDb2dVertex
 10
53.537793
 20
70.703247
 30
0.0
  0
VERTEX
  5
3B9
330
3AE
100
AcDbEntity
  8
001
 62
    40
370
    50
100
AcDbVertex
100
AcDb2dVertex
 10
53.523779
 20
70.660461
 30
0.0
  0
VERTEX
  5
3BA
330
3AE
100
AcDbEntity
  8
001
 62
    40
370
    50
100
AcDbVertex
100
AcDb2dVertex
 10
53.517587
 20
70.616423
 30
0.0
  0
VERTEX
  5
3BB
330
3AE
100
AcDbEntity
  8
001
 62
    40
370
    50
100
AcDbVertex
100
AcDb2dVertex
 10
53.518813
 20
70.587748
 30
0.0
  0
VERTEX
  5
3BC
330
3AE
100
AcDbEntity
  8
001
 62
    40
370
    50
100
AcDbVertex
100
AcDb2dVertex
 10
53.522391
 20
70.559027
 30
0.0
  0
SEQEND
  5
3AF
330
3AE
100
AcDbEntity
  8
001
370
    50
  0
LINE
  5
3BD
330
258
100
AcDbEntity
  8
001
 62
    40
370
    50
100
AcDbLine
 10
53.623199
 20
70.149471
 30
0.0
 11
53.522391
 21
70.559027
 31
0.0
  0
LINE
  5
3BE
330
258
100
AcDbEntity
  8
001
 62
    40
370
    50
100
AcDbLine
 10
53.517528
 20
70.438589
 30
0.0
 11
56.350264
 21
62.688172
 31
0.0
  0
ENDBLK
  5
25A
330
258
100
AcDbEntity
  8
0
100
AcDbBlockEnd
  0
BLOCK
  5
3C0
330
3BF
100
AcDbEntity
  8
0
100
AcDbBlockBegin
  2
*D3
 70
     1
 10
0.0
 20
0.0
 30
0.0
  3
*D3
  1

  0
LINE
  5
3C2
330
3BF
100
AcDbEntity
  8
001
370
     9
100
AcDbLine
 10
83.517528
 20
61.988426
 30
0.0
 11
83.517528
 21
21.067204
 31
0.0
  0
LINE
  5
3C3
330
3BF
100
AcDbEntity
  8
001
370
     9
100
AcDbLine
 10
53.517528
 20
61.566856
 30
0.0
 11
53.517528
 21
21.067204
 31
0.0
  0
LINE
  5
3C4
330
3BF
100
AcDbEntity
  8
001
370
     9
100
AcDbLine
 10
83.517528
 20
23.817204
 30
0.0
 11
53.517528
 21
23.817204
 31
0.0
  0
POLYLINE
  5
3C5
330
3BF
100
AcDbEntity
  8
001
370
     9
100
AcDb2dPolyline
 66
     1
 10
0.0
 20
0.0
 30
0.0
  0
VERTEX
  5
3C7
330
3C5
100
AcDbEntity
  8
001
370
     9
100
AcDbVertex
100
AcDb2dVertex
 10
82.017528
 20
24.219128
 30
0.0
  0
VERTEX
  5
3C8
330
3C5
100
AcDbEntity
  8
001
370
     9
100
AcDbVertex
100
AcDb2dVertex
 10
83.517528
 20
23.817204
 30
0.0
  0
VERTEX
  5
3C9
330
3C5
100
AcDbEntity
  8
001
370
     9
100
AcDbVertex
100
AcDb2dVertex
 10
82.017528
 20
23.41528
 30
0.0
  0
SEQEND
  5
3C6
330
3C5
100
AcDbEntity
  8
001
370
     9
  0
POLYLINE
  5
3CA
330
3BF
100
AcDbEntity
  8
001
370
     9
100
AcDb2dPolyline
 66
     1
 10
0.0
 20
0.0
 30
0.0
  0
VERTEX
  5
3CC
330
3CA
100
AcDbEntity
  8
001
370
     9
100
AcDbVertex
100
AcDb2dVertex
 10
55.017528
 20
23.41528
 30
0.0
  0
VERTEX
  5
3CD
330
3CA
100
AcDbEntity
  8
001
370
     9
100
AcDbVertex
100
AcDb2dVertex
 10
53.517528
 20
23.817204
 30
0.0
  0
VERTEX
  5
3CE
330
3CA
100
AcDbEntity
  8
001
370
     9
100
AcDbVertex
100
AcDb2dVertex
 10
55.017528
 20
24.219128
 30
0.0
  0
SEQEND
  5
3CB
330
3CA
100
AcDbEntity
  8
001
370
     9
  0
TEXT
  5
3CF
330
3BF
100
AcDbEntity
  8
001
370
    30
100
AcDbText
 10
64.517528
 20
24.817204
 30
0.0
 40
4.0
  1
３０
 41
0.833333
100
AcDbText
  0
POINT
  5
3D0
330
3BF
100
AcDbEntity
  8
001
370
     9
100
AcDbPoint
 10
83.517528
 20
61.988426
 30
0.0
  0
POINT
  5
3D1
330
3BF
100
AcDbEntity
  8
001
370
     9
100
AcDbPoint
 10
53.517528
 20
61.566856
 30
0.0
  0
POINT
  5
3D2
330
3BF
100
AcDbEntity
  8
001
370
     9
100
AcDbPoint
 10
53.517528
 20
23.817204
 30
0.0
  0
ENDBLK
  5
3C1
330
3BF
100
AcDbEntity
  8
0
100
AcDbBlockEnd
  0
BLOCK
  5
3D4
330
3D3
100
AcDbEntity
  8
0
100
AcDbBlockBegin
  2
*D4
 70
     1
 10
0.0
 20
0.0
 30
0.0
  3
*D4
  1

  0
LINE
  5
3D6
330
3D3
100
AcDbEntity
  8
001
370
     9
100
AcDbLine
 10
56.350264
 20
62.688172
 30
0.0
 11
56.350264
 21
32.845982
 31
0.0
  0
LINE
  5
3D7
330
3D3
100
AcDbEntity
  8
001
370
     9
100
AcDbLine
 10
53.517528
 20
61.566856
 30
0.0
 11
53.517528
 21
32.845982
 31
0.0
  0
LINE
  5
3D8
330
3D3
100
AcDbEntity
  8
001
370
     9
100
AcDbLine
 10
56.350264
 20
35.595982
 30
0.0
 11
53.517528
 21
35.595982
 31
0.0
  0
POLYLINE
  5
3D9
330
3D3
100
AcDbEntity
  8
001
370
     9
100
AcDb2dPolyline
 66
     1
 10
0.0
 20
0.0
 30
0.0
  0
VERTEX
  5
3DB
330
3D9
100
AcDbEntity
  8
001
370
     9
100
AcDbVertex
100
AcDb2dVertex
 10
57.850264
 20
35.194058
 30
0.0
  0
VERTEX
  5
3DC
330
3D9
100
AcDbEntity
  8
001
370
     9
100
AcDbVertex
100
AcDb2dVertex
 10
56.350264
 20
35.595982
 30
0.0
  0
VERTEX
  5
3DD
330
3D9
100
AcDbEntity
  8
001
370
     9
100
AcDbVertex
100
AcDb2dVertex
 10
57.850264
 20
35.997906
 30
0.0
  0
SEQEND
  5
3DA
330
3D9
100
AcDbEntity
  8
001
370
     9
  0
POLYLINE
  5
3DE
330
3D3
100
AcDbEntity
  8
001
370
     9
100
AcDb2dPolyline
 66
     1
 10
0.0
 20
0.0
 30
0.0
  0
VERTEX
  5
3E0
330
3DE
100
AcDbEntity
  8
001
370
     9
100
AcDbVertex
100
AcDb2dVertex
 10
52.017528
 20
35.997906
 30
0.0
  0
VERTEX
  5
3E1
330
3DE
100
AcDbEntity
  8
001
370
     9
100
AcDbVertex
100
AcDb2dVertex
 10
53.517528
 20
35.595982
 30
0.0
  0
VERTEX
  5
3E2
330
3DE
100
AcDbEntity
  8
001
370
     9
100
AcDbVertex
100
AcDb2dVertex
 10
52.017528
 20
35.194058
 30
0.0
  0
SEQEND
  5
3DF
330
3DE
100
AcDbEntity
  8
001
370
     9
  0
TEXT
  5
3E3
330
3D3
100
AcDbEntity
  8
001
370
    30
100
AcDbText
 10
30.017528
 20
36.595982
 30
0.0
 40
4.0
  1
（２．８）
 41
0.833333
100
AcDbText
  0
POINT
  5
3E4
330
3D3
100
AcDbEntity
  8
001
370
     9
100
AcDbPoint
 10
56.350264
 20
62.688172
 30
0.0
  0
POINT
  5
3E5
330
3D3
100
AcDbEntity
  8
001
370
     9
100
AcDbPoint
 10
53.517528
 20
61.566856
 30
0.0
  0
POINT
  5
3E6
330
3D3
100
AcDbEntity
  8
001
370
     9
100
AcDbPoint
 10
53.517528
 20
35.595982
 30
0.0
  0
LINE
  5
3E7
330
3D3
100
AcDbEntity
  8
001
370
     9
100
AcDbLine
 10
56.350264
 20
35.595982
 30
0.0
 11
58.850264
 21
35.595982
 31
0.0
  0
LINE
  5
3E8
330
3D3
100
AcDbEntity
  8
001
370
     9
100
AcDbLine
 10
53.517528
 20
35.595982
 30
0.0
 11
27.017528
 21
35.595982
 31
0.0
  0
ENDBLK
  5
3D5
330
3D3
100
AcDbEntity
  8
0
100
AcDbBlockEnd
  0
BLOCK
  5
3EA
330
3E9
100
AcDbEntity
  8
0
100
AcDbBlockBegin
  2
*D5
 70
     1
 10
0.0
 20
0.0
 30
0.0
  3
*D5
  1

  0
LINE
  5
3EC
330
3E9
100
AcDbEntity
  8
001
370
     9
100
AcDbLine
 10
56.350264
 20
62.688172
 30
0.0
 11
68.64795
 21
29.041482
 31
0.0
  0
LINE
  5
3ED
330
3E9
100
AcDbEntity
  8
001
370
     9
100
AcDbLine
 10
53.517528
 20
61.566856
 30
0.0
 11
53.517528
 21
26.363085
 31
0.0
  0
ARC
  5
3EE
330
3E9
100
AcDbEntity
  8
001
370
     9
100
AcDbCircle
 10
53.517528
 20
70.438589
 30
0.0
 40
41.32550400605004
100
AcDbArc
 50
270.0
 51
290.077088
  0
POLYLINE
  5
3EF
330
3E9
100
AcDbEntity
  8
001
370
     9
100
AcDb2dPolyline
 66
     1
 10
0.0
 20
0.0
 30
0.0
  0
VERTEX
  5
3F1
330
3EF
100
AcDbEntity
  8
001
370
     9
100
AcDbVertex
100
AcDb2dVertex
 10
69.247991
 20
31.789845
 30
0.0
  0
VERTEX
  5
3F2
330
3EF
100
AcDbEntity
  8
001
370
     9
100
AcDbVertex
100
AcDb2dVertex
 10
67.703918
 20
31.624369
 30
0.0
  0
VERTEX
  5
3F3
330
3EF
100
AcDbEntity
  8
001
370
     9
100
AcDbVertex
100
AcDb2dVertex
 10
68.958387
 20
32.539711
 30
0.0
  0
SEQEND
  5
3F0
330
3EF
100
AcDbEntity
  8
001
370
     9
  0
POLYLINE
  5
3F4
330
3E9
100
AcDbEntity
  8
001
370
     9
100
AcDb2dPolyline
 66
     1
 10
0.0
 20
0.0
 30
0.0
  0
VERTEX
  5
3F6
330
3F4
100
AcDbEntity
  8
001
370
     9
100
AcDbVertex
100
AcDb2dVertex
 10
52.025069
 20
29.542164
 30
0.0
  0
VERTEX
  5
3F7
330
3F4
100
AcDbEntity
  8
001
370
     9
100
AcDbVertex
100
AcDb2dVertex
 10
53.517528
 20
29.113085
 30
0.0
  0
VERTEX
  5
3F8
330
3F4
100
AcDbEntity
  8
001
370
     9
100
AcDbVertex
100
AcDb2dVertex
 10
52.010481
 20
28.738449
 30
0.0
  0
SEQEND
  5
3F5
330
3F4
100
AcDbEntity
  8
001
370
     9
  0
TEXT
  5
3F9
330
3E9
100
AcDbEntity
  8
001
370
    30
100
AcDbText
 10
70.30603
 20
33.286301
 30
0.0
 40
4.0
  1
２０%%d
 50
32.780328
 41
0.978261
100
AcDbText
  0
POINT
  5
3FA
330
3E9
100
AcDbEntity
  8
001
370
     9
100
AcDbPoint
 10
56.350264
 20
62.688172
 30
0.0
  0
POINT
  5
3FB
330
3E9
100
AcDbEntity
  8
001
370
     9
100
AcDbPoint
 10
53.517528
 20
70.438589
 30
0.0
  0
POINT
  5
3FC
330
3E9
100
AcDbEntity
  8
001
370
     9
100
AcDbPoint
 10
53.517528
 20
70.438589
 30
0.0
  0
POINT
  5
3FD
330
3E9
100
AcDbEntity
  8
001
370
     9
100
AcDbPoint
 10
53.517528
 20
61.566856
 30
0.0
  0
ARC
  5
3FE
330
3E9
100
AcDbEntity
  8
001
370
     9
100
AcDbCircle
 10
53.517528
 20
70.438589
 30
0.0
 40
41.32550400605004
100
AcDbArc
 50
266.533873
 51
270.0
  0
ARC
  5
3FF
330
3E9
100
AcDbEntity
  8
001
370
     9
100
AcDbCircle
 10
53.517528
 20
70.438589
 30
0.0
 40
41.32550400605004
100
AcDbArc
 50
290.077088
 51
311.099032
  0
ENDBLK
  5
3EB
330
3E9
100
AcDbEntity
  8
0
100
AcDbBlockEnd
  0
BLOCK
  5
401
330
400
100
AcDbEntity
  8
0
100
AcDbBlockBegin
  2
*D6
 70
     1
 10
0.0
 20
0.0
 30
0.0
  3
*D6
  1

  0
LINE
  5
403
330
400
100
AcDbEntity
  8
001
370
     9
100
AcDbLine
 10
178.517528
 20
66.988426
 30
0.0
 11
178.517528
 21
21.067204
 31
0.0
  0
LINE
  5
404
330
400
100
AcDbEntity
  8
001
370
     9
100
AcDbLine
 10
83.517528
 20
61.988426
 30
0.0
 11
83.517528
 21
21.067204
 31
0.0
  0
LINE
  5
405
330
400
100
AcDbEntity
  8
001
370
     9
100
AcDbLine
 10
178.517528
 20
23.817204
 30
0.0
 11
83.517528
 21
23.817204
 31
0.0
  0
POLYLINE
  5
406
330
400
100
AcDbEntity
  8
001
370
     9
100
AcDb2dPolyline
 66
     1
 10
0.0
 20
0.0
 30
0.0
  0
VERTEX
  5
408
330
406
100
AcDbEntity
  8
001
370
     9
100
AcDbVertex
100
AcDb2dVertex
 10
177.017528
 20
24.219128
 30
0.0
  0
VERTEX
  5
409
330
406
100
AcDbEntity
  8
001
370
     9
100
AcDbVertex
100
AcDb2dVertex
 10
178.517528
 20
23.817204
 30
0.0
  0
VERTEX
  5
40A
330
406
100
AcDbEntity
  8
001
370
     9
100
AcDbVertex
100
AcDb2dVertex
 10
177.017528
 20
23.41528
 30
0.0
  0
SEQEND
  5
407
330
406
100
AcDbEntity
  8
001
370
     9
  0
POLYLINE
  5
40B
330
400
100
AcDbEntity
  8
001
370
     9
100
AcDb2dPolyline
 66
     1
 10
0.0
 20
0.0
 30
0.0
  0
VERTEX
  5
40D
330
40B
100
AcDbEntity
  8
001
370
     9
100
AcDbVertex
100
AcDb2dVertex
 10
85.017528
 20
23.41528
 30
0.0
  0
VERTEX
  5
40E
330
40B
100
AcDbEntity
  8
001
370
     9
100
AcDbVertex
100
AcDb2dVertex
 10
83.517528
 20
23.817204
 30
0.0
  0
VERTEX
  5
40F
330
40B
100
AcDbEntity
  8
001
370
     9
100
AcDbVertex
100
AcDb2dVertex
 10
85.017528
 20
24.219128
 30
0.0
  0
SEQEND
  5
40C
330
40B
100
AcDbEntity
  8
001
370
     9
  0
TEXT
  5
410
330
400
100
AcDbEntity
  8
001
370
    30
100
AcDbText
 10
127.017528
 20
24.817204
 30
0.0
 40
4.0
  1
９５
 41
0.833333
100
AcDbText
  0
POINT
  5
411
330
400
100
AcDbEntity
  8
001
370
     9
100
AcDbPoint
 10
178.517528
 20
66.988426
 30
0.0
  0
POINT
  5
412
330
400
100
AcDbEntity
  8
001
370
     9
100
AcDbPoint
 10
83.517528
 20
61.988426
 30
0.0
  0
POINT
  5
413
330
400
100
AcDbEntity
  8
001
370
     9
100
AcDbPoint
 10
83.517528
 20
23.817204
 30
0.0
  0
ENDBLK
  5
402
330
400
100
AcDbEntity
  8
0
100
AcDbBlockEnd
  0
BLOCK
  5
415
330
414
100
AcDbEntity
  8
0
100
AcDbBlockBegin
  2
*D7
 70
     1
 10
0.0
 20
0.0
 30
0.0
  3
*D7
  1

  0
LINE
  5
417
330
414
100
AcDbEntity
  8
001
370
     9
100
AcDbLine
 10
53.517528
 20
61.566856
 30
0.0
 11
53.517528
 21
9.975002
 31
0.0
  0
LINE
  5
418
330
414
100
AcDbEntity
  8
001
370
     9
100
AcDbLine
 10
178.517528
 20
66.988426
 30
0.0
 11
178.517528
 21
9.975002
 31
0.0
  0
LINE
  5
419
330
414
100
AcDbEntity
  8
001
370
     9
100
AcDbLine
 10
53.517528
 20
12.725002
 30
0.0
 11
178.517528
 21
12.725002
 31
0.0
  0
POLYLINE
  5
41A
330
414
100
AcDbEntity
  8
001
370
     9
100
AcDb2dPolyline
 66
     1
 10
0.0
 20
0.0
 30
0.0
  0
VERTEX
  5
41C
330
41A
100
AcDbEntity
  8
001
370
     9
100
AcDbVertex
100
AcDb2dVertex
 10
55.017528
 20
12.323079
 30
0.0
  0
VERTEX
  5
41D
330
41A
100
AcDbEntity
  8
001
370
     9
100
AcDbVertex
100
AcDb2dVertex
 10
53.517528
 20
12.725002
 30
0.0
  0
VERTEX
  5
41E
330
41A
100
AcDbEntity
  8
001
370
     9
100
AcDbVertex
100
AcDb2dVertex
 10
55.017528
 20
13.126926
 30
0.0
  0
SEQEND
  5
41B
330
41A
100
AcDbEntity
  8
001
370
     9
  0
POLYLINE
  5
41F
330
414
100
AcDbEntity
  8
001
370
     9
100
AcDb2dPolyline
 66
     1
 10
0.0
 20
0.0
 30
0.0
  0
VERTEX
  5
421
330
41F
100
AcDbEntity
  8
001
370
     9
100
AcDbVertex
100
AcDb2dVertex
 10
177.017528
 20
13.126926
 30
0.0
  0
VERTEX
  5
422
330
41F
100
AcDbEntity
  8
001
370
     9
100
AcDbVertex
100
AcDb2dVertex
 10
178.517528
 20
12.725002
 30
0.0
  0
VERTEX
  5
423
330
41F
100
AcDbEntity
  8
001
370
     9
100
AcDbVertex
100
AcDb2dVertex
 10
177.017528
 20
12.323079
 30
0.0
  0
SEQEND
  5
420
330
41F
100
AcDbEntity
  8
001
370
     9
  0
TEXT
  5
424
330
414
100
AcDbEntity
  8
001
370
    30
100
AcDbText
 10
110.017528
 20
13.725002
 30
0.0
 40
4.0
  1
１２５
 41
0.833333
100
AcDbText
  0
POINT
  5
425
330
414
100
AcDbEntity
  8
001
370
     9
100
AcDbPoint
 10
53.517528
 20
61.566856
 30
0.0
  0
POINT
  5
426
330
414
100
AcDbEntity
  8
001
370
     9
100
AcDbPoint
 10
178.517528
 20
66.988426
 30
0.0
  0
POINT
  5
427
330
414
100
AcDbEntity
  8
001
370
     9
100
AcDbPoint
 10
178.517528
 20
12.725002
 30
0.0
  0
ENDBLK
  5
416
330
414
100
AcDbEntity
  8
0
100
AcDbBlockEnd
  0
BLOCK
  5
429
330
428
100
AcDbEntity
  8
0
100
AcDbBlockBegin
  2
*D8
 70
     1
 10
0.0
 20
0.0
 30
0.0
  3
*D8
  1

  0
LINE
  5
42B
330
428
100
AcDbEntity
  8
001
370
     9
100
AcDbLine
 10
172.517528
 20
60.988426
 30
0.0
 11
203.349549
 21
60.988426
 31
0.0
  0
LINE
  5
42C
330
428
100
AcDbEntity
  8
001
370
     9
100
AcDbLine
 10
172.517528
 20
80.988426
 30
0.0
 11
203.349549
 21
80.988426
 31
0.0
  0
LINE
  5
42D
330
428
100
AcDbEntity
  8
001
370
     9
100
AcDbLine
 10
200.599549
 20
60.988426
 30
0.0
 11
200.599549
 21
80.988426
 31
0.0
  0
POLYLINE
  5
42E
330
428
100
AcDbEntity
  8
001
370
     9
100
AcDb2dPolyline
 66
     1
 10
0.0
 20
0.0
 30
0.0
  0
VERTEX
  5
430
330
42E
100
AcDbEntity
  8
001
370
     9
100
AcDbVertex
100
AcDb2dVertex
 10
201.001473
 20
62.488426
 30
0.0
  0
VERTEX
  5
431
330
42E
100
AcDbEntity
  8
001
370
     9
100
AcDbVertex
100
AcDb2dVertex
 10
200.599549
 20
60.988426
 30
0.0
  0
VERTEX
  5
432
330
42E
100
AcDbEntity
  8
001
370
     9
100
AcDbVertex
100
AcDb2dVertex
 10
200.197626
 20
62.488426
 30
0.0
  0
SEQEND
  5
42F
330
42E
100
AcDbEntity
  8
001
370
     9
  0
POLYLINE
  5
433
330
428
100
AcDbEntity
  8
001
370
     9
100
AcDb2dPolyline
 66
     1
 10
0.0
 20
0.0
 30
0.0
  0
VERTEX
  5
435
330
433
100
AcDbEntity
  8
001
370
     9
100
AcDbVertex
100
AcDb2dVertex
 10
200.197626
 20
79.488426
 30
0.0
  0
VERTEX
  5
436
330
433
100
AcDbEntity
  8
001
370
     9
100
AcDbVertex
100
AcDb2dVertex
 10
200.599549
 20
80.988426
 30
0.0
  0
VERTEX
  5
437
330
433
100
AcDbEntity
  8
001
370
     9
100
AcDbVertex
100
AcDb2dVertex
 10
201.001473
 20
79.488426
 30
0.0
  0
SEQEND
  5
434
330
433
100
AcDbEntity
  8
001
370
     9
  0
TEXT
  5
438
330
428
100
AcDbEntity
  8
001
370
    30
100
AcDbText
 10
199.599549
 20
45.488426
 30
0.0
 40
4.0
  1
%%c２０
 50
90.000003
 41
0.882353
100
AcDbText
  0
POINT
  5
439
330
428
100
AcDbEntity
  8
001
370
     9
100
AcDbPoint
 10
172.517528
 20
60.988426
 30
0.0
  0
POINT
  5
43A
330
428
100
AcDbEntity
  8
001
370
     9
100
AcDbPoint
 10
172.517528
 20
80.988426
 30
0.0
  0
POINT
  5
43B
330
428
100
AcDbEntity
  8
001
370
     9
100
AcDbPoint
 10
200.599549
 20
80.988426
 30
0.0
  0
LINE
  5
43C
330
428
100
AcDbEntity
  8
001
370
     9
100
AcDbLine
 10
200.599549
 20
60.988426
 30
0.0
 11
200.599549
 21
42.488426
 31
0.0
  0
ENDBLK
  5
42A
330
428
100
AcDbEntity
  8
0
100
AcDbBlockEnd
  0
ENDSEC
  0
SECTION
  2
ENTITIES
  0
INSERT
  5
43D
330
1F
100
AcDbEntity
  8
001
  6
ByBlock
 62
     0
370
    -2
100
AcDbBlockReference
  2
M-1-1
 10
0.0
 20
0.0
 30
0.0
  0
INSERT
  5
43E
330
1F
100
AcDbEntity
  8
001
  6
ByBlock
 62
     0
370
    -2
100
AcDbBlockReference
  2
C32GUX-2
 10
0.0
 20
0.0
 30
0.0
  0
DIMENSION
  5
43F
330
1F
100
AcDbEntity
  8
001
370
     9
100
AcDbDimension
  2
*D3
 10
53.517528
 20
23.817204
 30
0.0
 11
68.517528
 21
26.817204
 31
0.0
 70
   160
 71
     5
 42
-1.0
  3
Standard
100
AcDbAlignedDimension
 13
83.517528
 23
61.988426
 33
0.0
 14
53.517528
 24
61.566856
 34
0.0
 50
180.0
100
AcDbRotatedDimension
  0
DIMENSION
  5
440
330
1F
100
AcDbEntity
  8
001
370
     9
100
AcDbDimension
  2
*D4
 10
53.517528
 20
35.595982
 30
0.0
 11
40.017528
 21
38.595982
 31
0.0
 70
   160
 71
     5
 42
-1.0
  3
Standard
100
AcDbAlignedDimension
 13
56.350264
 23
62.688172
 33
0.0
 14
53.517528
 24
61.566856
 34
0.0
 50
180.0
100
AcDbRotatedDimension
  0
DIMENSION
  5
441
330
1F
100
AcDbEntity
  8
001
370
     9
100
AcDbDimension
  2
*D5
 10
53.517528
 20
70.438589
 30
0.0
 11
74.267706
 21
38.216323
 31
0.0
 70
    34
 71
     5
 42
-1.0
  3
Standard
100
AcDb2LineAngularDimension
 13
56.350264
 23
62.688172
 33
0.0
 14
53.517528
 24
70.438589
 34
0.0
 15
53.517528
 25
61.566856
 35
0.0
 16
60.721003
 26
29.745749
 36
0.0
  0
TEXT
  5
442
330
1F
100
AcDbEntity
  8
001
370
    30
100
AcDbText
 10
47.348891
 20
72.238544
 30
0.0
 40
4.0
  1
%%c１．１
 50
90.000003
 41
0.869565
100
AcDbText
  0
POLYLINE
  5
443
330
1F
100
AcDbEntity
  8
001
370
     9
100
AcDb2dPolyline
 66
     1
 10
0.0
 20
0.0
 30
0.0
  0
VERTEX
  5
445
330
443
100
AcDbEntity
  8
001
370
     9
100
AcDbVertex
100
AcDb2dVertex
 10
48.750815
 20
71.938589
 30
0.0
  0
VERTEX
  5
446
330
443
100
AcDbEntity
  8
001
370
     9
100
AcDbVertex
100
AcDb2dVertex
 10
48.348891
 20
70.438589
 30
0.0
  0
VERTEX
  5
447
330
443
100
AcDbEntity
  8
001
370
     9
100
AcDbVertex
100
AcDb2dVertex
 10
47.946967
 20
71.938589
 30
0.0
  0
SEQEND
  5
444
330
443
100
AcDbEntity
  8
001
370
     9
  0
LINE
  5
448
330
1F
100
AcDbEntity
  8
001
370
     9
100
AcDbLine
 10
48.348891
 20
70.438589
 30
0.0
 11
48.348891
 21
91.238544
 31
0.0
  0
POLYLINE
  5
449
330
1F
100
AcDbEntity
  8
001
370
     9
100
AcDb2dPolyline
 66
     1
 10
0.0
 20
0.0
 30
0.0
  0
VERTEX
  5
44B
330
449
100
AcDbEntity
  8
001
370
     9
100
AcDbVertex
100
AcDb2dVertex
 10
53.517528
 20
70.438589
 30
0.0
  0
VERTEX
  5
44C
330
449
100
AcDbEntity
  8
001
370
     9
100
AcDbVertex
100
AcDb2dVertex
 10
48.348891
 20
70.438589
 30
0.0
  0
VERTEX
  5
44D
330
449
100
AcDbEntity
  8
001
370
     9
100
AcDbVertex
100
AcDb2dVertex
 10
45.598891
 20
70.438589
 30
0.0
  0
SEQEND
  5
44A
330
449
100
AcDbEntity
  8
001
370
     9
  0
DIMENSION
  5
44E
330
1F
100
AcDbEntity
  8
001
370
     9
100
AcDbDimension
  2
*D6
 10
83.517528
 20
23.817204
 30
0.0
 11
131.017528
 21
26.817204
 31
0.0
 70
   160
 71
     5
 42
-1.0
  3
Standard
100
AcDbAlignedDimension
 13
178.517528
 23
66.988426
 33
0.0
 14
83.517528
 24
61.988426
 34
0.0
 50
180.0
100
AcDbRotatedDimension
  0
DIMENSION
  5
44F
330
1F
100
AcDbEntity
  8
001
370
     9
100
AcDbDimension
  2
*D7
 10
178.517528
 20
12.725002
 30
0.0
 11
116.017528
 21
15.725002
 31
0.0
 70
   160
 71
     5
 42
-1.0
  3
Standard
100
AcDbAlignedDimension
 13
53.517528
 23
61.566856
 33
0.0
 14
178.517528
 24
66.988426
 34
0.0
100
AcDbRotatedDimension
  0
DIMENSION
  5
450
330
1F
100
AcDbEntity
  8
001
370
     9
100
AcDbDimension
  2
*D8
 10
200.599549
 20
80.988426
 30
0.0
 11
197.599549
 21
51.488426
 31
0.0
 70
   160
 71
     5
 42
-1.0
  3
Standard
100
AcDbAlignedDimension
 13
172.517528
 23
60.988426
 33
0.0
 14
172.517528
 24
80.988426
 34
0.0
 50
90.0
100
AcDbRotatedDimension
  0
TEXT
  5
451
330
1F
100
AcDbEntity
  8
001
370
    30
100
AcDbText
 10
37.823954
 20
66.943305
 30
0.0
 40
4.0
  1
%%c１８．１６
 50
90.000003
 41
0.857143
100
AcDbText
  0
POLYLINE
  5
452
330
1F
100
AcDbEntity
  8
001
370
     9
100
AcDb2dPolyline
 66
     1
 10
0.0
 20
0.0
 30
0.0
  0
VERTEX
  5
454
330
452
100
AcDbEntity
  8
001
370
     9
100
AcDbVertex
100
AcDb2dVertex
 10
39.225878
 20
63.421022
 30
0.0
  0
VERTEX
  5
455
330
452
100
AcDbEntity
  8
001
370
     9
100
AcDbVertex
100
AcDb2dVertex
 10
38.823954
 20
61.921022
 30
0.0
  0
VERTEX
  5
456
330
452
100
AcDbEntity
  8
001
370
     9
100
AcDbVertex
100
AcDb2dVertex
 10
38.42203
 20
63.421022
 30
0.0
  0
SEQEND
  5
453
330
452
100
AcDbEntity
  8
001
370
     9
  0
LINE
  5
457
330
1F
100
AcDbEntity
  8
001
370
     9
100
AcDbLine
 10
38.823954
 20
80.082408
 30
0.0
 11
38.823954
 21
61.921022
 31
0.0
  0
POLYLINE
  5
458
330
1F
100
AcDbEntity
  8
001
370
     9
100
AcDb2dPolyline
 66
     1
 10
0.0
 20
0.0
 30
0.0
  0
VERTEX
  5
45A
330
458
100
AcDbEntity
  8
001
370
     9
100
AcDbVertex
100
AcDb2dVertex
 10
56.859326
 20
61.921022
 30
0.0
  0
VERTEX
  5
45B
330
458
100
AcDbEntity
  8
001
370
     9
100
AcDbVertex
100
AcDb2dVertex
 10
38.823954
 20
61.921022
 30
0.0
  0
VERTEX
  5
45C
330
458
100
AcDbEntity
  8
001
370
     9
100
AcDbVertex
100
AcDb2dVertex
 10
36.073954
 20
61.921022
 30
0.0
  0
SEQEND
  5
459
330
458
100
AcDbEntity
  8
001
370
     9
  0
TEXT
  5
45D
330
1F
100
AcDbEntity
  8
001
370
    30
100
AcDbText
 10
47.619906
 20
112.918537
 30
0.0
 40
8.0
  1
面取りカッター面面　ＳＮＫ２０１６Ｃ
 41
0.833333
100
AcDbText
  0
LINE
  5
45E
330
1F
100
AcDbEntity
  8
001
 62
   253
370
    50
100
AcDbLine
 10
172.517528
 20
60.988426
 30
0.0
 11
84.517528
 21
60.988426
 31
0.0
  0
LINE
  5
45F
330
1F
100
AcDbEntity
  8
001
 62
   253
370
    50
100
AcDbLine
 10
172.517528
 20
80.988426
 30
0.0
 11
84.517528
 21
80.988426
 31
0.0
  0
LINE
  5
460
330
1F
100
AcDbEntity
  8
001
 62
   253
370
    50
100
AcDbLine
 10
84.517528
 20
60.988426
 30
0.0
 11
84.517528
 21
80.988426
 31
0.0
  0
LINE
  5
461
330
1F
100
AcDbEntity
  8
001
 62
   253
370
    50
100
AcDbLine
 10
84.517528
 20
80.988426
 30
0.0
 11
83.517528
 21
79.988426
 31
0.0
  0
LINE
  5
462
330
1F
100
AcDbEntity
  8
001
 62
   253
370
    50
100
AcDbLine
 10
83.517528
 20
61.988426
 30
0.0
 11
84.517528
 21
60.988426
 31
0.0
  0
LINE
  5
463
330
1F
100
AcDbEntity
  8
001
 62
   253
370
    50
100
AcDbLine
 10
83.517528
 20
61.988426
 30
0.0
 11
83.517528
 21
79.988426
 31
0.0
  0
ARC
  5
464
330
1F
100
AcDbEntity
  8
001
 62
   253
370
    50
100
AcDbCircle
 10
172.517528
 20
74.988426
 30
0.0
 40
5.999999999999999
100
AcDbArc
 50
0.0
 51
90.0
  0
ARC
  5
465
330
1F
100
AcDbEntity
  8
001
 62
   253
370
    50
100
AcDbCircle
 10
172.517528
 20
66.988426
 30
0.0
 40
5.999999999999999
100
AcDbArc
 50
270.0
 51
0.0
  0
LINE
  5
466
330
1F
100
AcDbEntity
  8
001
 62
   253
370
    50
100
AcDbLine
 10
178.517528
 20
74.988426
 30
0.0
 11
178.517528
 21
66.988426
 31
0.0
  0
LINE
  5
467
330
1F
100
AcDbEntity
  8
001
  6
CENTER
 62
   253
370
     9
100
AcDbLine
 10
48.281563
 20
70.988426
 30
0.0
 11
187.372366
 21
70.988426
 31
0.0
  0
LINE
  5
468
330
1F
100
AcDbEntity
  8
001
 62
   253
370
     9
100
AcDbLine
 10
53.517528
 20
61.566856
 30
0.0
 11
53.517528
 21
70.988426
 31
0.0
  0
LINE
  5
469
330
1F
100
AcDbEntity
  8
001
370
    50
100
AcDbLine
 10
178.517528
 20
70.988426
 30
0.0
 11
182.151334
 21
73.086405
 31
0.0
  0
LINE
  5
46A
330
1F
100
AcDbEntity
  8
001
370
    50
100
AcDbLine
 10
178.517528
 20
70.988426
 30
0.0
 11
182.151334
 21
68.890447
 31
0.0
  0
LINE
  5
46B
330
1F
100
AcDbEntity
  8
001
 62
   253
370
    50
100
AcDbLine
 10
66.390828
 20
61.988426
 30
0.0
 11
83.401203
 21
61.988426
 31
0.0
  0
LINE
  5
46C
330
1F
100
AcDbEntity
  8
001
 62
   253
370
    50
100
AcDbLine
 10
83.401203
 20
79.988426
 30
0.0
 11
57.479984
 21
79.988426
 31
0.0
  0
POLYLINE
  5
46D
330
1F
100
AcDbEntity
  8
001
 62
   253
370
    50
100
AcDb2dPolyline
 66
     1
 10
0.0
 20
0.0
 30
0.0
  0
VERTEX
  5
46F
330
46D
100
AcDbEntity
  8
001
 62
   253
370
    50
100
AcDbVertex
100
AcDb2dVertex
 10
58.920859
 20
62.185479
 30
0.0
  0
VERTEX
  5
470
330
46D
100
AcDbEntity
  8
001
 62
   253
370
    50
100
AcDbVertex
100
AcDb2dVertex
 10
59.423344
 20
62.159754
 30
0.0
  0
VERTEX
  5
471
330
46D
100
AcDbEntity
  8
001
 62
   253
370
    50
100
AcDbVertex
100
AcDb2dVertex
 10
60.157878
 20
62.125156
 30
0.0
  0
VERTEX
  5
472
330
46D
100
AcDbEntity
  8
001
 62
   253
370
    50
100
AcDbVertex
100
AcDb2dVertex
 10
62.696297
 20
62.038638
 30
0.0
  0
VERTEX
  5
473
330
46D
100
AcDbEntity
  8
001
 62
   253
370
    50
100
AcDbVertex
100
AcDb2dVertex
 10
64.889754
 20
61.998339
 30
0.0
  0
VERTEX
  5
474
330
46D
100
AcDbEntity
  8
001
 62
   253
370
    50
100
AcDbVertex
100
AcDb2dVertex
 10
66.390828
 20
61.988426
 30
0.0
  0
SEQEND
  5
46E
330
46D
100
AcDbEntity
  8
001
370
    50
  0
LINE
  5
475
330
1F
100
AcDbEntity
  8
001
 62
   253
370
    50
100
AcDbLine
 10
66.332156
 20
62.523707
 30
0.0
 11
63.717468
 21
69.677541
 31
0.0
  0
LINE
  5
476
330
1F
100
AcDbEntity
  8
001
 62
   253
370
    50
100
AcDbLine
 10
57.479984
 20
79.988426
 30
0.0
 11
55.101203
 21
74.423695
 31
0.0
  0
POLYLINE
  5
477
330
1F
100
AcDbEntity
  8
001
 62
   253
370
    50
100
AcDb2dPolyline
 66
     1
 10
0.0
 20
0.0
 30
0.0
  0
VERTEX
  5
479
330
477
100
AcDbEntity
  8
001
 62
   253
370
    50
100
AcDbVertex
100
AcDb2dVertex
 10
63.717468
 20
69.677541
 30
0.0
  0
VERTEX
  5
47A
330
477
100
AcDbEntity
  8
001
 62
   253
370
    50
100
AcDbVertex
100
AcDb2dVertex
 10
63.719097
 20
69.680435
 30
0.0
  0
VERTEX
  5
47B
330
477
100
AcDbEntity
  8
001
 62
   253
370
    50
100
AcDbVertex
100
AcDb2dVertex
 10
63.721472
 20
69.684664
 30
0.0
  0
VERTEX
  5
47C
330
477
100
AcDbEntity
  8
001
 62
   253
370
    50
100
AcDbVertex
100
AcDb2dVertex
 10
63.915572
 20
70.107662
 30
0.0
  0
VERTEX
  5
47D
330
477
100
AcDbEntity
  8
001
 62
   253
370
    50
100
AcDbVertex
100
AcDb2dVertex
 10
64.009511
 20
70.500543
 30
0.0
  0
VERTEX
  5
47E
330
477
100
AcDbEntity
  8
001
 62
   253
370
    50
100
AcDbVertex
100
AcDb2dVertex
 10
64.035633
 20
70.714219
 30
0.0
  0
VERTEX
  5
47F
330
477
100
AcDbEntity
  8
001
 62
   253
370
    50
100
AcDbVertex
100
AcDb2dVertex
 10
64.046352
 20
70.934664
 30
0.0
  0
VERTEX
  5
480
330
477
100
AcDbEntity
  8
001
 62
   253
370
    50
100
AcDbVertex
100
AcDb2dVertex
 10
64.037583
 20
71.153214
 30
0.0
  0
VERTEX
  5
481
330
477
100
AcDbEntity
  8
001
 62
   253
370
    50
100
AcDbVertex
100
AcDb2dVertex
 10
64.009511
 20
71.368784
 30
0.0
  0
VERTEX
  5
482
330
477
100
AcDbEntity
  8
001
 62
   253
370
    50
100
AcDbVertex
100
AcDb2dVertex
 10
63.900136
 20
71.78789
 30
0.0
  0
VERTEX
  5
483
330
477
100
AcDbEntity
  8
001
 62
   253
370
    50
100
AcDbVertex
100
AcDb2dVertex
 10
63.721472
 20
72.184664
 30
0.0
  0
VERTEX
  5
484
330
477
100
AcDbEntity
  8
001
 62
   253
370
    50
100
AcDbVertex
100
AcDb2dVertex
 10
63.338956
 20
72.700494
 30
0.0
  0
VERTEX
  5
485
330
477
100
AcDbEntity
  8
001
 62
   253
370
    50
100
AcDbVertex
100
AcDb2dVertex
 10
62.833884
 20
73.099727
 30
0.0
  0
VERTEX
  5
486
330
477
100
AcDbEntity
  8
001
 62
   253
370
    50
100
AcDbVertex
100
AcDb2dVertex
 10
62.643596
 20
73.200516
 30
0.0
  0
VERTEX
  5
487
330
477
100
AcDbEntity
  8
001
 62
   253
370
    50
100
AcDbVertex
100
AcDb2dVertex
 10
62.450793
 20
73.283895
 30
0.0
  0
VERTEX
  5
488
330
477
100
AcDbEntity
  8
001
 62
   253
370
    50
100
AcDbVertex
100
AcDb2dVertex
 10
62.25831
 20
73.349384
 30
0.0
  0
VERTEX
  5
489
330
477
100
AcDbEntity
  8
001
 62
   253
370
    50
100
AcDbVertex
100
AcDb2dVertex
 10
62.042502
 20
73.396683
 30
0.0
  0
VERTEX
  5
48A
330
477
100
AcDbEntity
  8
001
 62
   253
370
    50
100
AcDbVertex
100
AcDb2dVertex
 10
62.0113
 20
73.401454
 30
0.0
  0
VERTEX
  5
48B
330
477
100
AcDbEntity
  8
001
 62
   253
370
    50
100
AcDbVertex
100
AcDb2dVertex
 10
61.979471
 20
73.405906
 30
0.0
  0
SEQEND
  5
478
330
477
100
AcDbEntity
  8
001
370
    50
  0
POLYLINE
  5
48C
330
1F
100
AcDbEntity
  8
001
 62
   253
370
    50
100
AcDb2dPolyline
 66
     1
 10
0.0
 20
0.0
 30
0.0
  0
VERTEX
  5
48E
330
48C
100
AcDbEntity
  8
001
 62
   253
370
    50
100
AcDbVertex
100
AcDb2dVertex
 10
61.979471
 20
73.405906
 30
0.0
  0
VERTEX
  5
48F
330
48C
100
AcDbEntity
  8
001
 62
   253
370
    50
100
AcDbVertex
100
AcDb2dVertex
 10
61.955759
 20
73.40199
 30
0.0
  0
VERTEX
  5
490
330
48C
100
AcDbEntity
  8
001
 62
   253
370
    50
100
AcDbVertex
100
AcDb2dVertex
 10
61.925093
 20
73.396683
 30
0.0
  0
VERTEX
  5
491
330
48C
100
AcDbEntity
  8
001
 62
   253
370
    50
100
AcDbVertex
100
AcDb2dVertex
 10
61.703046
 20
73.346191
 30
0.0
  0
VERTEX
  5
492
330
48C
100
AcDbEntity
  8
001
 62
   253
370
    50
100
AcDbVertex
100
AcDb2dVertex
 10
61.516802
 20
73.283895
 30
0.0
  0
VERTEX
  5
493
330
48C
100
AcDbEntity
  8
001
 62
   253
370
    50
100
AcDbVertex
100
AcDb2dVertex
 10
61.328223
 20
73.205385
 30
0.0
  0
VERTEX
  5
494
330
48C
100
AcDbEntity
  8
001
 62
   253
370
    50
100
AcDbVertex
100
AcDb2dVertex
 10
61.133711
 20
73.099727
 30
0.0
  0
VERTEX
  5
495
330
48C
100
AcDbEntity
  8
001
 62
   253
370
    50
100
AcDbVertex
100
AcDb2dVertex
 10
60.616349
 20
72.660752
 30
0.0
  0
VERTEX
  5
496
330
48C
100
AcDbEntity
  8
001
 62
   253
370
    50
100
AcDbVertex
100
AcDb2dVertex
 10
60.294578
 20
72.267449
 30
0.0
  0
SEQEND
  5
48D
330
48C
100
AcDbEntity
  8
001
370
    50
  0
LINE
  5
497
330
1F
100
AcDbEntity
  8
001
370
    50
100
AcDbLine
 10
55.101203
 20
74.423695
 30
0.0
 11
55.101203
 21
71.268549
 31
0.0
  0
LINE
  5
498
330
1F
100
AcDbEntity
  8
001
 62
   253
370
    50
100
AcDbLine
 10
67.994393
 20
79.299281
 30
0.0
 11
67.994393
 21
62.694572
 31
0.0
  0
POLYLINE
  5
499
330
1F
100
AcDbEntity
  8
001
 62
   253
370
    50
100
AcDb2dPolyline
 66
     1
 10
0.0
 20
0.0
 30
0.0
  0
VERTEX
  5
49B
330
499
100
AcDbEntity
  8
001
 62
   253
370
    50
100
AcDbVertex
100
AcDb2dVertex
 10
67.994393
 20
62.694572
 30
0.0
  0
VERTEX
  5
49C
330
499
100
AcDbEntity
  8
001
 62
   253
370
    50
100
AcDbVertex
100
AcDb2dVertex
 10
68.253256
 20
62.895994
 30
0.0
  0
VERTEX
  5
49D
330
499
100
AcDbEntity
  8
001
 62
   253
370
    50
100
AcDbVertex
100
AcDb2dVertex
 10
68.608833
 20
63.202698
 30
0.0
  0
VERTEX
  5
49E
330
499
100
AcDbEntity
  8
001
 62
   253
370
    50
100
AcDbVertex
100
AcDb2dVertex
 10
69.886021
 20
64.795416
 30
0.0
  0
VERTEX
  5
49F
330
499
100
AcDbEntity
  8
001
 62
   253
370
    50
100
AcDbVertex
100
AcDb2dVertex
 10
70.582263
 20
66.496926
 30
0.0
  0
VERTEX
  5
4A0
330
499
100
AcDbEntity
  8
001
 62
   253
370
    50
100
AcDbVertex
100
AcDb2dVertex
 10
70.969569
 20
67.938436
 30
0.0
  0
VERTEX
  5
4A1
330
499
100
AcDbEntity
  8
001
 62
   253
370
    50
100
AcDbVertex
100
AcDb2dVertex
 10
71.222679
 20
69.434093
 30
0.0
  0
VERTEX
  5
4A2
330
499
100
AcDbEntity
  8
001
 62
   253
370
    50
100
AcDbVertex
100
AcDb2dVertex
 10
71.285426
 20
70.215873
 30
0.0
  0
VERTEX
  5
4A3
330
499
100
AcDbEntity
  8
001
 62
   253
370
    50
100
AcDbVertex
100
AcDb2dVertex
 10
71.304588
 20
70.996926
 30
0.0
  0
VERTEX
  5
4A4
330
499
100
AcDbEntity
  8
001
 62
   253
370
    50
100
AcDbVertex
100
AcDb2dVertex
 10
71.285426
 20
71.777979
 30
0.0
  0
VERTEX
  5
4A5
330
499
100
AcDbEntity
  8
001
 62
   253
370
    50
100
AcDbVertex
100
AcDb2dVertex
 10
71.222679
 20
72.55976
 30
0.0
  0
VERTEX
  5
4A6
330
499
100
AcDbEntity
  8
001
 62
   253
370
    50
100
AcDbVertex
100
AcDb2dVertex
 10
70.969569
 20
74.055416
 30
0.0
  0
VERTEX
  5
4A7
330
499
100
AcDbEntity
  8
001
 62
   253
370
    50
100
AcDbVertex
100
AcDb2dVertex
 10
70.582263
 20
75.496926
 30
0.0
  0
VERTEX
  5
4A8
330
499
100
AcDbEntity
  8
001
 62
   253
370
    50
100
AcDbVertex
100
AcDb2dVertex
 10
69.886021
 20
77.198436
 30
0.0
  0
VERTEX
  5
4A9
330
499
100
AcDbEntity
  8
001
 62
   253
370
    50
100
AcDbVertex
100
AcDb2dVertex
 10
68.608833
 20
78.791155
 30
0.0
  0
VERTEX
  5
4AA
330
499
100
AcDbEntity
  8
001
 62
   253
370
    50
100
AcDbVertex
100
AcDb2dVertex
 10
68.253256
 20
79.097858
 30
0.0
  0
VERTEX
  5
4AB
330
499
100
AcDbEntity
  8
001
 62
   253
370
    50
100
AcDbVertex
100
AcDb2dVertex
 10
67.994393
 20
79.299281
 30
0.0
  0
SEQEND
  5
49A
330
499
100
AcDbEntity
  8
001
370
    50
  0
POLYLINE
  5
4AC
330
1F
100
AcDbEntity
  8
001
 62
   253
370
    50
100
AcDb2dPolyline
 66
     1
 10
0.0
 20
0.0
 30
0.0
  0
VERTEX
  5
4AE
330
4AC
100
AcDbEntity
  8
001
 62
   253
370
    50
100
AcDbVertex
100
AcDb2dVertex
 10
67.994393
 20
79.299281
 30
0.0
  0
VERTEX
  5
4AF
330
4AC
100
AcDbEntity
  8
001
 62
   253
370
    50
100
AcDbVertex
100
AcDb2dVertex
 10
66.161849
 20
79.472347
 30
0.0
  0
VERTEX
  5
4B0
330
4AC
100
AcDbEntity
  8
001
 62
   253
370
    50
100
AcDbVertex
100
AcDb2dVertex
 10
63.479905
 20
79.681428
 30
0.0
  0
VERTEX
  5
4B1
330
4AC
100
AcDbEntity
  8
001
 62
   253
370
    50
100
AcDbVertex
100
AcDb2dVertex
 10
60.370929
 20
79.860196
 30
0.0
  0
VERTEX
  5
4B2
330
4AC
100
AcDbEntity
  8
001
 62
   253
370
    50
100
AcDbVertex
100
AcDb2dVertex
 10
58.654698
 20
79.924855
 30
0.0
  0
VERTEX
  5
4B3
330
4AC
100
AcDbEntity
  8
001
 62
   253
370
    50
100
AcDbVertex
100
AcDb2dVertex
 10
57.479984
 20
79.957831
 30
0.0
  0
SEQEND
  5
4AD
330
4AC
100
AcDbEntity
  8
001
370
    50
  0
POLYLINE
  5
4B4
330
1F
100
AcDbEntity
  8
001
 62
   253
370
    50
100
AcDb2dPolyline
 66
     1
 10
0.0
 20
0.0
 30
0.0
  0
VERTEX
  5
4B6
330
4B4
100
AcDbEntity
  8
001
 62
   253
370
    50
100
AcDbVertex
100
AcDb2dVertex
 10
66.332156
 20
62.532207
 30
0.0
  0
VERTEX
  5
4B7
330
4B4
100
AcDbEntity
  8
001
 62
   253
370
    50
100
AcDbVertex
100
AcDb2dVertex
 10
66.446937
 20
62.433027
 30
0.0
  0
VERTEX
  5
4B8
330
4B4
100
AcDbEntity
  8
001
 62
   253
370
    50
100
AcDbVertex
100
AcDb2dVertex
 10
66.607607
 20
62.300532
 30
0.0
  0
VERTEX
  5
4B9
330
4B4
100
AcDbEntity
  8
001
 62
   253
370
    50
100
AcDbVertex
100
AcDb2dVertex
 10
66.834929
 20
62.136182
 30
0.0
  0
VERTEX
  5
4BA
330
4B4
100
AcDbEntity
  8
001
 62
   253
370
    50
100
AcDbVertex
100
AcDb2dVertex
 10
67.100115
 20
62.030148
 30
0.0
  0
VERTEX
  5
4BB
330
4B4
100
AcDbEntity
  8
001
 62
   253
370
    50
100
AcDbVertex
100
AcDb2dVertex
 10
67.188403
 20
62.010032
 30
0.0
  0
VERTEX
  5
4BC
330
4B4
100
AcDbEntity
  8
001
 62
   253
370
    50
100
AcDbVertex
100
AcDb2dVertex
 10
67.251614
 20
61.999515
 30
0.0
  0
SEQEND
  5
4B5
330
4B4
100
AcDbEntity
  8
001
370
    50
  0
POLYLINE
  5
4BD
330
1F
100
AcDbEntity
  8
001
 62
   253
370
    50
100
AcDb2dPolyline
 66
     1
 10
0.0
 20
0.0
 30
0.0
  0
VERTEX
  5
4BF
330
4BD
100
AcDbEntity
  8
001
 62
   253
370
    50
100
AcDbVertex
100
AcDb2dVertex
 10
66.332156
 20
62.532207
 30
0.0
  0
VERTEX
  5
4C0
330
4BD
100
AcDbEntity
  8
001
 62
   253
370
    50
100
AcDbVertex
100
AcDb2dVertex
 10
66.671494
 20
62.563488
 30
0.0
  0
VERTEX
  5
4C1
330
4BD
100
AcDbEntity
  8
001
 62
   253
370
    50
100
AcDbVertex
100
AcDb2dVertex
 10
67.167298
 20
62.6108
 30
0.0
  0
VERTEX
  5
4C2
330
4BD
100
AcDbEntity
  8
001
 62
   253
370
    50
100
AcDbVertex
100
AcDb2dVertex
 10
67.658451
 20
62.659894
 30
0.0
  0
VERTEX
  5
4C3
330
4BD
100
AcDbEntity
  8
001
 62
   253
370
    50
100
AcDbVertex
100
AcDb2dVertex
 10
67.994393
 20
62.694572
 30
0.0
  0
SEQEND
  5
4BE
330
4BD
100
AcDbEntity
  8
001
370
    50
  0
POLYLINE
  5
4C4
330
1F
100
AcDbEntity
  8
001
 62
   253
370
    50
100
AcDb2dPolyline
 66
     1
 10
0.0
 20
0.0
 30
0.0
  0
VERTEX
  5
4C6
330
4C4
100
AcDbEntity
  8
001
 62
   253
370
    50
100
AcDbVertex
100
AcDb2dVertex
 10
61.621417
 20
73.443164
 30
0.0
  0
VERTEX
  5
4C7
330
4C4
100
AcDbEntity
  8
001
 62
   253
370
    50
100
AcDbVertex
100
AcDb2dVertex
 10
61.443589
 20
73.433548
 30
0.0
  0
VERTEX
  5
4C8
330
4C4
100
AcDbEntity
  8
001
 62
   253
370
    50
100
AcDbVertex
100
AcDb2dVertex
 10
61.200331
 20
73.405184
 30
0.0
  0
VERTEX
  5
4C9
330
4C4
100
AcDbEntity
  8
001
 62
   253
370
    50
100
AcDbVertex
100
AcDb2dVertex
 10
60.984794
 20
73.358385
 30
0.0
  0
VERTEX
  5
4CA
330
4C4
100
AcDbEntity
  8
001
 62
   253
370
    50
100
AcDbVertex
100
AcDb2dVertex
 10
60.79204
 20
73.292396
 30
0.0
  0
VERTEX
  5
4CB
330
4C4
100
AcDbEntity
  8
001
 62
   253
370
    50
100
AcDbVertex
100
AcDb2dVertex
 10
60.598204
 20
73.207105
 30
0.0
  0
VERTEX
  5
4CC
330
4C4
100
AcDbEntity
  8
001
 62
   253
370
    50
100
AcDbVertex
100
AcDb2dVertex
 10
60.408949
 20
73.108228
 30
0.0
  0
VERTEX
  5
4CD
330
4C4
100
AcDbEntity
  8
001
 62
   253
370
    50
100
AcDbVertex
100
AcDb2dVertex
 10
59.923948
 20
72.746126
 30
0.0
  0
VERTEX
  5
4CE
330
4C4
100
AcDbEntity
  8
001
 62
   253
370
    50
100
AcDbVertex
100
AcDb2dVertex
 10
59.521361
 20
72.193164
 30
0.0
  0
VERTEX
  5
4CF
330
4C4
100
AcDbEntity
  8
001
 62
   253
370
    50
100
AcDbVertex
100
AcDb2dVertex
 10
59.506413
 20
72.165989
 30
0.0
  0
VERTEX
  5
4D0
330
4C4
100
AcDbEntity
  8
001
 62
   253
370
    50
100
AcDbVertex
100
AcDb2dVertex
 10
59.496266
 20
72.147241
 30
0.0
  0
SEQEND
  5
4C5
330
4C4
100
AcDbEntity
  8
001
370
    50
  0
POLYLINE
  5
4D1
330
1F
100
AcDbEntity
  8
001
 62
   253
370
    50
100
AcDb2dPolyline
 66
     1
 10
0.0
 20
0.0
 30
0.0
  0
VERTEX
  5
4D3
330
4D1
100
AcDbEntity
  8
001
 62
   253
370
    50
100
AcDbVertex
100
AcDb2dVertex
 10
61.983798
 20
73.415091
 30
0.0
  0
VERTEX
  5
4D4
330
4D1
100
AcDbEntity
  8
001
 62
   253
370
    50
100
AcDbVertex
100
AcDb2dVertex
 10
61.959736
 20
73.411159
 30
0.0
  0
VERTEX
  5
4D5
330
4D1
100
AcDbEntity
  8
001
 62
   253
370
    50
100
AcDbVertex
100
AcDb2dVertex
 10
61.925093
 20
73.405184
 30
0.0
  0
VERTEX
  5
4D6
330
4D1
100
AcDbEntity
  8
001
 62
   253
370
    50
100
AcDbVertex
100
AcDb2dVertex
 10
61.703026
 20
73.354684
 30
0.0
  0
VERTEX
  5
4D7
330
4D1
100
AcDbEntity
  8
001
 62
   253
370
    50
100
AcDbVertex
100
AcDb2dVertex
 10
61.516802
 20
73.292396
 30
0.0
  0
VERTEX
  5
4D8
330
4D1
100
AcDbEntity
  8
001
 62
   253
370
    50
100
AcDbVertex
100
AcDb2dVertex
 10
61.328318
 20
73.213921
 30
0.0
  0
VERTEX
  5
4D9
330
4D1
100
AcDbEntity
  8
001
 62
   253
370
    50
100
AcDbVertex
100
AcDb2dVertex
 10
61.133711
 20
73.108228
 30
0.0
  0
VERTEX
  5
4DA
330
4D1
100
AcDbEntity
  8
001
 62
   253
370
    50
100
AcDbVertex
100
AcDb2dVertex
 10
60.628967
 20
72.68409
 30
0.0
  0
VERTEX
  5
4DB
330
4D1
100
AcDbEntity
  8
001
 62
   253
370
    50
100
AcDbVertex
100
AcDb2dVertex
 10
60.312936
 20
72.305521
 30
0.0
  0
SEQEND
  5
4D2
330
4D1
100
AcDbEntity
  8
001
370
    50
  0
POLYLINE
  5
4DC
330
1F
100
AcDbEntity
  8
001
 62
   253
370
    50
100
AcDb2dPolyline
 66
     1
 10
0.0
 20
0.0
 30
0.0
  0
VERTEX
  5
4DE
330
4DC
100
AcDbEntity
  8
001
 62
   253
370
    50
100
AcDbVertex
100
AcDb2dVertex
 10
63.717468
 20
69.686041
 30
0.0
  0
VERTEX
  5
4DF
330
4DC
100
AcDbEntity
  8
001
 62
   253
370
    50
100
AcDbVertex
100
AcDb2dVertex
 10
63.719097
 20
69.688936
 30
0.0
  0
VERTEX
  5
4E0
330
4DC
100
AcDbEntity
  8
001
 62
   253
370
    50
100
AcDbVertex
100
AcDb2dVertex
 10
63.721472
 20
69.693164
 30
0.0
  0
VERTEX
  5
4E1
330
4DC
100
AcDbEntity
  8
001
 62
   253
370
    50
100
AcDbVertex
100
AcDb2dVertex
 10
63.915572
 20
70.116163
 30
0.0
  0
VERTEX
  5
4E2
330
4DC
100
AcDbEntity
  8
001
 62
   253
370
    50
100
AcDbVertex
100
AcDb2dVertex
 10
64.009511
 20
70.509044
 30
0.0
  0
VERTEX
  5
4E3
330
4DC
100
AcDbEntity
  8
001
 62
   253
370
    50
100
AcDbVertex
100
AcDb2dVertex
 10
64.035633
 20
70.72272
 30
0.0
  0
VERTEX
  5
4E4
330
4DC
100
AcDbEntity
  8
001
 62
   253
370
    50
100
AcDbVertex
100
AcDb2dVertex
 10
64.046352
 20
70.943164
 30
0.0
  0
VERTEX
  5
4E5
330
4DC
100
AcDbEntity
  8
001
 62
   253
370
    50
100
AcDbVertex
100
AcDb2dVertex
 10
64.037583
 20
71.161714
 30
0.0
  0
VERTEX
  5
4E6
330
4DC
100
AcDbEntity
  8
001
 62
   253
370
    50
100
AcDbVertex
100
AcDb2dVertex
 10
64.009511
 20
71.377285
 30
0.0
  0
VERTEX
  5
4E7
330
4DC
100
AcDbEntity
  8
001
 62
   253
370
    50
100
AcDbVertex
100
AcDb2dVertex
 10
63.900136
 20
71.796391
 30
0.0
  0
VERTEX
  5
4E8
330
4DC
100
AcDbEntity
  8
001
 62
   253
370
    50
100
AcDbVertex
100
AcDb2dVertex
 10
63.721472
 20
72.193164
 30
0.0
  0
VERTEX
  5
4E9
330
4DC
100
AcDbEntity
  8
001
 62
   253
370
    50
100
AcDbVertex
100
AcDb2dVertex
 10
63.338956
 20
72.708994
 30
0.0
  0
VERTEX
  5
4EA
330
4DC
100
AcDbEntity
  8
001
 62
   253
370
    50
100
AcDbVertex
100
AcDb2dVertex
 10
62.833884
 20
73.108228
 30
0.0
  0
VERTEX
  5
4EB
330
4DC
100
AcDbEntity
  8
001
 62
   253
370
    50
100
AcDbVertex
100
AcDb2dVertex
 10
62.643596
 20
73.209017
 30
0.0
  0
VERTEX
  5
4EC
330
4DC
100
AcDbEntity
  8
001
 62
   253
370
    50
100
AcDbVertex
100
AcDb2dVertex
 10
62.450793
 20
73.292396
 30
0.0
  0
VERTEX
  5
4ED
330
4DC
100
AcDbEntity
  8
001
 62
   253
370
    50
100
AcDbVertex
100
AcDb2dVertex
 10
62.25831
 20
73.357885
 30
0.0
  0
VERTEX
  5
4EE
330
4DC
100
AcDbEntity
  8
001
 62
   253
370
    50
100
AcDbVertex
100
AcDb2dVertex
 10
62.042502
 20
73.405184
 30
0.0
  0
VERTEX
  5
4EF
330
4DC
100
AcDbEntity
  8
001
 62
   253
370
    50
100
AcDbVertex
100
AcDb2dVertex
 10
61.79919
 20
73.433648
 30
0.0
  0
VERTEX
  5
4F0
330
4DC
100
AcDbEntity
  8
001
 62
   253
370
    50
100
AcDbVertex
100
AcDb2dVertex
 10
61.621417
 20
73.443164
 30
0.0
  0
SEQEND
  5
4DD
330
4DC
100
AcDbEntity
  8
001
370
    50
  0
ENDSEC
  0
SECTION
  2
OBJECTS
  0
DICTIONARY
  5
C
330
0
100
AcDbDictionary
281
     1
  3
ACAD_GROUP
350
D
  3
ACAD_LAYOUT
350
1A
  3
ACAD_MLEADERSTYLE
350
4F4
  3
ACAD_MLINESTYLE
350
17
  3
ACAD_PLOTSETTINGS
350
19
  3
ACAD_PLOTSTYLENAME
350
E
  3
ACAD_SCALELIST
350
3B
  3
ACAD_TABLESTYLE
350
4F3
  3
ACAD_VISUALSTYLE
350
2A
  3
AcDbVariableDictionary
350
4F1
  0
DICTIONARY
  5
D
102
{ACAD_REACTORS
330
C
102
}
330
C
100
AcDbDictionary
281
     1
  0
DICTIONARY
  5
1A
102
{ACAD_REACTORS
330
C
102
}
330
C
100
AcDbDictionary
281
     1
  3
Layout1
350
1E
  3
Layout2
350
26
  3
Model
350
22
  0
DICTIONARY
  5
4F4
102
{ACAD_REACTORS
330
C
102
}
330
C
100
AcDbDictionary
281
     1
  0
DICTIONARY
  5
17
102
{ACAD_REACTORS
330
C
102
}
330
C
100
AcDbDictionary
281
     1
  3
Standard
350
18
  0
DICTIONARY
  5
19
102
{ACAD_REACTORS
330
C
102
}
330
C
100
AcDbDictionary
281
     1
  0
ACDBDICTIONARYWDFLT
  5
E
102
{ACAD_REACTORS
330
C
102
}
330
C
100
AcDbDictionary
281
     1
  3
Normal
350
F
100
AcDbDictionaryWithDefault
340
F
  0
DICTIONARY
  5
3B
102
{ACAD_REACTORS
330
C
102
}
330
C
100
AcDbDictionary
281
     1
  3
A0
350
3C
  3
A1
350
3D
  3
A2
350
3E
  3
A3
350
3F
  3
A4
350
40
  3
A5
350
41
  3
A6
350
42
  3
A7
350
43
  3
A8
350
44
  3
A9
350
45
  3
B0
350
46
  3
B1
350
47
  3
B2
350
48
  3
B3
350
49
  3
B4
350
4A
  3
B5
350
4B
  3
B6
350
4C
  3
B7
350
4D
  3
B8
350
4E
  3
B9
350
4F
  3
C0
350
50
  3
C1
350
51
  3
C2
350
52
  3
C3
350
53
  3
C4
350
54
  3
C5
350
55
  3
C6
350
56
  3
C7
350
57
  3
C8
350
58
  3
C9
350
59
  3
D0
350
5A
  3
D1
350
5B
  3
D2
350
5C
  0
DICTIONARY
  5
4F3
102
{ACAD_REACTORS
330
C
102
}
330
C
100
AcDbDictionary
281
     1
  0
DICTIONARY
  5
2A
102
{ACAD_REACTORS
330
C
102
}
330
C
100
AcDbDictionary
281
     1
  3
2dWireframe
350
2F
  3
3D Hidden
350
31
  3
3dWireframe
350
30
  3
Basic
350
32
  3
Brighten
350
36
  3
ColorChange
350
3A
  3
Conceptual
350
34
  3
Dim
350
35
  3
Facepattern
350
39
  3
Flat
350
2B
  3
FlatWithEdges
350
2C
  3
Gouraud
350
2D
  3
GouraudWithEdges
350
2E
  3
Linepattern
350
38
  3
Realistic
350
33
  3
Thicken
350
37
  0
DICTIONARY
  5
4F1
102
{ACAD_REACTORS
330
C
102
}
330
C
100
AcDbDictionary
281
     1
  3
CANNOSCALE
350
4F2
  3
PSOLHEIGHT
350
4F6
  3
PSOLWIDTH
350
4F5
  0
LAYOUT
  5
1E
102
{ACAD_REACTORS
330
1A
102
}
330
1A
100
AcDbPlotSettings
  1

  2
none_device
  4

  6

 40
0.0
 41
0.0
 42
0.0
 43
0.0
 44
0.0
 45
0.0
 46
0.0
 47
0.0
 48
0.0
 49
0.0
140
0.0
141
0.0
142
1.0
143
1.0
 70
   688
 72
     0
 73
     0
 74
     5
  7

 75
    16
147
1.0
148
0.0
149
0.0
100
AcDbLayout
  1
Layout1
 70
     1
 71
     1
 10
0.0
 20
0.0
 11
12.0
 21
9.0
 12
0.0
 22
0.0
 32
0.0
 14
1.000000E+20
 24
1.000000E+20
 34
0.0
 15
-1.000000E+20
 25
-1.000000E+20
 35
0.0
146
0.0
 13
0.0
 23
0.0
 33
0.0
 16
1.0
 26
0.0
 36
0.0
 17
0.0
 27
1.0
 37
0.0
 76
     0
330
1B
  0
LAYOUT
  5
26
102
{ACAD_REACTORS
330
1A
102
}
330
1A
100
AcDbPlotSettings
  1

  2
none_device
  4

  6

 40
0.0
 41
0.0
 42
0.0
 43
0.0
 44
0.0
 45
0.0
 46
0.0
 47
0.0
 48
0.0
 49
0.0
140
0.0
141
0.0
142
1.0
143
1.0
 70
   688
 72
     0
 73
     0
 74
     5
  7

 75
    16
147
1.0
148
0.0
149
0.0
100
AcDbLayout
  1
Layout2
 70
     1
 71
     2
 10
0.0
 20
0.0
 11
0.0
 21
0.0
 12
0.0
 22
0.0
 32
0.0
 14
0.0
 24
0.0
 34
0.0
 15
0.0
 25
0.0
 35
0.0
146
0.0
 13
0.0
 23
0.0
 33
0.0
 16
1.0
 26
0.0
 36
0.0
 17
0.0
 27
1.0
 37
0.0
 76
     0
330
23
  0
LAYOUT
  5
22
102
{ACAD_REACTORS
330
1A
102
}
330
1A
100
AcDbPlotSettings
  1

  2
none_device
  4

  6

 40
0.0
 41
0.0
 42
0.0
 43
0.0
 44
0.0
 45
0.0
 46
0.0
 47
0.0
 48
0.0
 49
0.0
140
0.0
141
0.0
142
1.0
143
1.0
 70
  1712
 72
     0
 73
     0
 74
     0
  7

 75
     0
147
1.0
148
0.0
149
0.0
100
AcDbLayout
  1
Model
 70
     1
 71
     0
 10
0.0
 20
0.0
 11
12.0
 21
9.0
 12
0.0
 22
0.0
 32
0.0
 14
27.017532
 24
9.974998
 34
0.0
 15
203.349548
 25
120.918541
 35
0.0
146
0.0
 13
0.0
 23
0.0
 33
0.0
 16
1.0
 26
0.0
 36
0.0
 17
0.0
 27
1.0
 37
0.0
 76
     0
330
1F
331
29
  0
MLINESTYLE
  5
18
102
{ACAD_REACTORS
330
17
102
}
330
17
100
AcDbMlineStyle
  2
Standard
 70
     0
  3

 62
   256
 51
90.0
 52
90.0
 71
     2
 49
0.5
 62
   256
  6
BYLAYER
 49
-0.5
 62
   256
  6
BYLAYER
  0
ACDBPLACEHOLDER
  5
F
102
{ACAD_REACTORS
330
E
102
}
330
E
  0
SCALE
  5
3C
102
{ACAD_REACTORS
330
3B
102
}
330
3B
100
AcDbScale
 70
     0
300
1:1
140
1.0
141
1.0
290
     1
  0
SCALE
  5
3D
102
{ACAD_REACTORS
330
3B
102
}
330
3B
100
AcDbScale
 70
     0
300
1:2
140
1.0
141
2.0
290
     0
  0
SCALE
  5
3E
102
{ACAD_REACTORS
330
3B
102
}
330
3B
100
AcDbScale
 70
     0
300
1:4
140
1.0
141
4.0
290
     0
  0
SCALE
  5
3F
102
{ACAD_REACTORS
330
3B
102
}
330
3B
100
AcDbScale
 70
     0
300
1:5
140
1.0
141
5.0
290
     0
  0
SCALE
  5
40
102
{ACAD_REACTORS
330
3B
102
}
330
3B
100
AcDbScale
 70
     0
300
1:8
140
1.0
141
8.0
290
     0
  0
SCALE
  5
41
102
{ACAD_REACTORS
330
3B
102
}
330
3B
100
AcDbScale
 70
     0
300
1:10
140
1.0
141
10.0
290
     0
  0
SCALE
  5
42
102
{ACAD_REACTORS
330
3B
102
}
330
3B
100
AcDbScale
 70
     0
300
1:16
140
1.0
141
16.0
290
     0
  0
SCALE
  5
43
102
{ACAD_REACTORS
330
3B
102
}
330
3B
100
AcDbScale
 70
     0
300
1:20
140
1.0
141
20.0
290
     0
  0
SCALE
  5
44
102
{ACAD_REACTORS
330
3B
102
}
330
3B
100
AcDbScale
 70
     0
300
1:30
140
1.0
141
30.0
290
     0
  0
SCALE
  5
45
102
{ACAD_REACTORS
330
3B
102
}
330
3B
100
AcDbScale
 70
     0
300
1:40
140
1.0
141
40.0
290
     0
  0
SCALE
  5
46
102
{ACAD_REACTORS
330
3B
102
}
330
3B
100
AcDbScale
 70
     0
300
1:50
140
1.0
141
50.0
290
     0
  0
SCALE
  5
47
102
{ACAD_REACTORS
330
3B
102
}
330
3B
100
AcDbScale
 70
     0
300
1:100
140
1.0
141
100.0
290
     0
  0
SCALE
  5
48
102
{ACAD_REACTORS
330
3B
102
}
330
3B
100
AcDbScale
 70
     0
300
2:1
140
2.0
141
1.0
290
     0
  0
SCALE
  5
49
102
{ACAD_REACTORS
330
3B
102
}
330
3B
100
AcDbScale
 70
     0
300
4:1
140
4.0
141
1.0
290
     0
  0
SCALE
  5
4A
102
{ACAD_REACTORS
330
3B
102
}
330
3B
100
AcDbScale
 70
     0
300
8:1
140
8.0
141
1.0
290
     0
  0
SCALE
  5
4B
102
{ACAD_REACTORS
330
3B
102
}
330
3B
100
AcDbScale
 70
     0
300
10:1
140
10.0
141
1.0
290
     0
  0
SCALE
  5
4C
102
{ACAD_REACTORS
330
3B
102
}
330
3B
100
AcDbScale
 70
     0
300
100:1
140
100.0
141
1.0
290
     0
  0
SCALE
  5
4D
102
{ACAD_REACTORS
330
3B
102
}
330
3B
100
AcDbScale
 70
     0
300
1/128" = 1'-0"
140
0.007812
141
12.0
290
     0
  0
SCALE
  5
4E
102
{ACAD_REACTORS
330
3B
102
}
330
3B
100
AcDbScale
 70
     0
300
1/64" = 1'-0"
140
0.015625
141
12.0
290
     0
  0
SCALE
  5
4F
102
{ACAD_REACTORS
330
3B
102
}
330
3B
100
AcDbScale
 70
     0
300
1/32" = 1'-0"
140
0.03125
141
12.0
290
     0
  0
SCALE
  5
50
102
{ACAD_REACTORS
330
3B
102
}
330
3B
100
AcDbScale
 70
     0
300
1/16" = 1'-0"
140
0.0625
141
12.0
290
     0
  0
SCALE
  5
51
102
{ACAD_REACTORS
330
3B
102
}
330
3B
100
AcDbScale
 70
     0
300
3/32" = 1'-0"
140
0.09375
141
12.0
290
     0
  0
SCALE
  5
52
102
{ACAD_REACTORS
330
3B
102
}
330
3B
100
AcDbScale
 70
     0
300
1/8" = 1'-0"
140
0.125
141
12.0
290
     0
  0
SCALE
  5
53
102
{ACAD_REACTORS
330
3B
102
}
330
3B
100
AcDbScale
 70
     0
300
3/16" = 1'-0"
140
0.1875
141
12.0
290
     0
  0
SCALE
  5
54
102
{ACAD_REACTORS
330
3B
102
}
330
3B
100
AcDbScale
 70
     0
300
1/4" = 1'-0"
140
0.25
141
12.0
290
     0
  0
SCALE
  5
55
102
{ACAD_REACTORS
330
3B
102
}
330
3B
100
AcDbScale
 70
     0
300
3/8" = 1'-0"
140
0.375
141
12.0
290
     0
  0
SCALE
  5
56
102
{ACAD_REACTORS
330
3B
102
}
330
3B
100
AcDbScale
 70
     0
300
1/2" = 1'-0"
140
0.5
141
12.0
290
     0
  0
SCALE
  5
57
102
{ACAD_REACTORS
330
3B
102
}
330
3B
100
AcDbScale
 70
     0
300
3/4" = 1'-0"
140
0.75
141
12.0
290
     0
  0
SCALE
  5
58
102
{ACAD_REACTORS
330
3B
102
}
330
3B
100
AcDbScale
 70
     0
300
1" = 1'-0"
140
1.0
141
12.0
290
     0
  0
SCALE
  5
59
102
{ACAD_REACTORS
330
3B
102
}
330
3B
100
AcDbScale
 70
     0
300
1-1/2" = 1'-0"
140
1.5
141
12.0
290
     0
  0
SCALE
  5
5A
102
{ACAD_REACTORS
330
3B
102
}
330
3B
100
AcDbScale
 70
     0
300
3" = 1'-0"
140
3.0
141
12.0
290
     0
  0
SCALE
  5
5B
102
{ACAD_REACTORS
330
3B
102
}
330
3B
100
AcDbScale
 70
     0
300
6" = 1'-0"
140
6.0
141
12.0
290
     0
  0
SCALE
  5
5C
102
{ACAD_REACTORS
330
3B
102
}
330
3B
100
AcDbScale
 70
     0
300
1'-0" = 1'-0"
140
12.0
141
12.0
290
     0
  0
VISUALSTYLE
  5
2F
102
{ACAD_REACTORS
330
2A
102
}
330
2A
100
AcDbVisualStyle
  2
2dWireframe
 70
     4
 71
     0
 72
     2
 73
     0
 90
        0
 40
-0.6
 41
-30.0
 62
     5
 63
     7
 74
     1
 91
        4
 64
     7
 65
   257
 75
     1
175
     1
 42
1.0
 92
        0
 66
   257
 43
1.0
 76
     1
 77
     6
 78
     2
 67
     7
 79
     5
170
     0
171
     0
290
     0
174
     0
 93
        1
 44
0.0
173
     0
291
     0
 45
0.0
1001
ACAD
1000
AcDbSavedByObjectVersion
1070
     0
  0
VISUALSTYLE
  5
31
102
{ACAD_REACTORS
330
2A
102
}
330
2A
100
AcDbVisualStyle
  2
3D Hidden
 70
     6
 71
     1
 72
     2
 73
     2
 90
        0
 40
-0.6
 41
-30.0
 62
     5
 63
     7
 74
     2
 91
        2
 64
     7
 65
   257
 75
     2
175
     1
 42
40.0
 92
        0
 66
   257
 43
1.0
 76
     1
 77
     6
 78
     2
 67
     7
 79
     3
170
     0
171
     0
290
     0
174
     0
 93
        1
 44
0.0
173
     0
291
     0
 45
0.0
1001
ACAD
1000
AcDbSavedByObjectVersion
1070
     0
  0
VISUALSTYLE
  5
30
102
{ACAD_REACTORS
330
2A
102
}
330
2A
100
AcDbVisualStyle
  2
3dWireframe
 70
     5
 71
     0
 72
     2
 73
     0
 90
        0
 40
-0.6
 41
-30.0
 62
     5
 63
     7
 74
     1
 91
        4
 64
     7
 65
   257
 75
     1
175
     1
 42
1.0
 92
        0
 66
   257
 43
1.0
 76
     1
 77
     6
 78
     2
 67
     7
 79
     5
170
     0
171
     0
290
     0
174
     0
 93
        1
 44
0.0
173
     0
291
     0
 45
0.0
1001
ACAD
1000
AcDbSavedByObjectVersion
1070
     0
  0
VISUALSTYLE
  5
32
102
{ACAD_REACTORS
330
2A
102
}
330
2A
100
AcDbVisualStyle
  2
Basic
 70
     7
 71
     1
 72
     0
 73
     1
 90
        0
 40
-0.6
 41
-30.0
 62
     5
 63
     7
 74
     0
 91
        4
 64
     7
 65
   257
 75
     1
175
     1
 42
1.0
 92
        8
 66
     7
 43
1.0
 76
     1
 77
     6
 78
     2
 67
     7
 79
     5
170
     0
171
     0
290
     0
174
     0
 93
        1
 44
0.0
173
     0
291
     1
 45
0.0
1001
ACAD
1000
AcDbSavedByObjectVersion
1070
     0
  0
VISUALSTYLE
  5
36
102
{ACAD_REACTORS
330
2A
102
}
330
2A
100
AcDbVisualStyle
  2
Brighten
 70
    12
 71
     2
 72
     2
 73
     0
 90
        0
 40
-0.6
 41
-30.0
 62
     5
 63
     7
 74
     1
 91
        4
 64
     7
 65
   257
 75
     1
175
     1
 42
1.0
 92
        8
 66
     7
 43
1.0
 76
     1
 77
     6
 78
     2
 67
     7
 79
     5
170
     0
171
     0
290
     0
174
     0
 93
        1
 44
50.0
173
     0
291
     1
 45
0.0
1001
ACAD
1000
AcDbSavedByObjectVersion
1070
     0
  0
VISUALSTYLE
  5
3A
102
{ACAD_REACTORS
330
2A
102
}
330
2A
100
AcDbVisualStyle
  2
ColorChange
 70
    16
 71
     2
 72
     2
 73
     3
 90
        0
 40
-0.6
 41
-30.0
 62
     5
 63
     8
 74
     1
 91
        4
 64
     7
 65
   257
 75
     1
175
     1
 42
1.0
 92
        8
 66
     8
 43
1.0
 76
     1
 77
     6
 78
     2
 67
     7
 79
     5
170
     0
171
     0
290
     0
174
     0
 93
        1
 44
0.0
173
     0
291
     1
 45
0.0
1001
ACAD
1000
AcDbSavedByObjectVersion
1070
     0
  0
VISUALSTYLE
  5
34
102
{ACAD_REACTORS
330
2A
102
}
330
2A
100
AcDbVisualStyle
  2
Conceptual
 70
     9
 71
     3
 72
     2
 73
     0
 90
        0
 40
-0.6
 41
-30.0
 62
     5
 63
     7
 74
     2
 91
        2
 64
     7
 65
   257
 75
     1
175
     1
 42
40.0
 92
        8
 66
     7
 43
1.0
 76
     1
 77
     6
 78
     2
 67
     7
 79
     3
170
     0
171
     0
290
     0
174
     0
 93
        1
 44
0.0
173
     0
291
     0
 45
0.0
1001
ACAD
1000
AcDbSavedByObjectVersion
1070
     0
  0
VISUALSTYLE
  5
35
102
{ACAD_REACTORS
330
2A
102
}
330
2A
100
AcDbVisualStyle
  2
Dim
 70
    11
 71
     2
 72
     2
 73
     0
 90
        0
 40
-0.6
 41
-30.0
 62
     5
 63
     7
 74
     1
 91
        4
 64
     7
 65
   257
 75
     1
175
     1
 42
1.0
 92
        8
 66
     7
 43
1.0
 76
     1
 77
     6
 78
     2
 67
     7
 79
     5
170
     0
171
     0
290
     0
174
     0
 93
        1
 44
-50.0
173
     0
291
     1
 45
0.0
1001
ACAD
1000
AcDbSavedByObjectVersion
1070
     0
  0
VISUALSTYLE
  5
39
102
{ACAD_REACTORS
330
2A
102
}
330
2A
100
AcDbVisualStyle
  2
Facepattern
 70
    15
 71
     2
 72
     2
 73
     0
 90
        0
 40
-0.6
 41
-30.0
 62
     5
 63
     7
 74
     1
 91
        4
 64
     7
 65
   257
 75
     1
175
     1
 42
1.0
 92
        8
 66
     7
 43
1.0
 76
     1
 77
     6
 78
     2
 67
     7
 79
     5
170
     0
171
     0
290
     0
174
     0
 93
        1
 44
0.0
173
     0
291
     1
 45
0.0
1001
ACAD
1000
AcDbSavedByObjectVersion
1070
     0
  0
VISUALSTYLE
  5
2B
102
{ACAD_REACTORS
330
2A
102
}
330
2A
100
AcDbVisualStyle
  2
Flat
 70
     0
 71
     2
 72
     1
 73
     1
 90
        2
 40
-0.6
 41
30.0
 62
     5
 63
     7
 74
     0
 91
        4
 64
     7
 65
   257
 75
     1
175
     1
 42
1.0
 92
        8
 66
     7
 43
1.0
 76
     1
 77
     6
 78
     2
 67
     7
 79
     5
170
     0
171
     0
290
     0
174
     0
 93
       13
 44
0.0
173
     0
291
     1
 45
0.0
1001
ACAD
1000
AcDbSavedByObjectVersion
1070
     0
  0
VISUALSTYLE
  5
2C
102
{ACAD_REACTORS
330
2A
102
}
330
2A
100
AcDbVisualStyle
  2
FlatWithEdges
 70
     1
 71
     2
 72
     1
 73
     1
 90
        2
 40
-0.6
 41
30.0
 62
     5
 63
     7
 74
     1
 91
        4
 64
     7
 65
   257
 75
     1
175
     1
 42
1.0
 92
        0
 66
   257
 43
1.0
 76
     1
 77
     6
 78
     2
 67
     7
 79
     5
170
     0
171
     0
290
     0
174
     0
 93
       13
 44
0.0
173
     0
291
     1
 45
0.0
1001
ACAD
1000
AcDbSavedByObjectVersion
1070
     0
  0
VISUALSTYLE
  5
2D
102
{ACAD_REACTORS
330
2A
102
}
330
2A
100
AcDbVisualStyle
  2
Gouraud
 70
     2
 71
     2
 72
     2
 73
     1
 90
        2
 40
-0.6
 41
30.0
 62
     5
 63
     7
 74
     0
 91
        4
 64
     7
 65
   257
 75
     1
175
     1
 42
1.0
 92
        0
 66
     7
 43
1.0
 76
     1
 77
     6
 78
     2
 67
     7
 79
     5
170
     0
171
     0
290
     0
174
     0
 93
       13
 44
0.0
173
     0
291
     1
 45
0.0
1001
ACAD
1000
AcDbSavedByObjectVersion
1070
     0
  0
VISUALSTYLE
  5
2E
102
{ACAD_REACTORS
330
2A
102
}
330
2A
100
AcDbVisualStyle
  2
GouraudWithEdges
 70
     3
 71
     2
 72
     2
 73
     1
 90
        2
 40
-0.6
 41
30.0
 62
     5
 63
     7
 74
     1
 91
        4
 64
     7
 65
   257
 75
     1
175
     1
 42
1.0
 92
        0
 66
   257
 43
1.0
 76
     1
 77
     6
 78
     2
 67
     7
 79
     5
170
     0
171
     0
290
     0
174
     0
 93
       13
 44
0.0
173
     0
291
     1
 45
0.0
1001
ACAD
1000
AcDbSavedByObjectVersion
1070
     0
  0
VISUALSTYLE
  5
38
102
{ACAD_REACTORS
330
2A
102
}
330
2A
100
AcDbVisualStyle
  2
Linepattern
 70
    14
 71
     2
 72
     2
 73
     0
 90
        0
 40
-0.6
 41
-30.0
 62
     5
 63
     7
 74
     1
 91
        4
 64
     7
 65
   257
 75
     7
175
     7
 42
1.0
 92
        8
 66
     7
 43
1.0
 76
     1
 77
     6
 78
     2
 67
     7
 79
     5
170
     0
171
     0
290
     0
174
     0
 93
        1
 44
0.0
173
     0
291
     1
 45
0.0
1001
ACAD
1000
AcDbSavedByObjectVersion
1070
     0
  0
VISUALSTYLE
  5
33
102
{ACAD_REACTORS
330
2A
102
}
330
2A
100
AcDbVisualStyle
  2
Realistic
 70
     8
 71
     2
 72
     2
 73
     0
 90
        0
 40
-0.6
 41
-30.0
 62
     5
 63
     7
 74
     1
 91
        0
 64
     7
 65
   257
 75
     1
175
     1
 42
1.0
 92
        8
 66
     8
 43
1.0
 76
     1
 77
     6
 78
     2
 67
     7
 79
     5
170
     0
171
     0
290
     0
174
     0
 93
       13
 44
0.0
173
     0
291
     0
 45
0.0
1001
ACAD
1000
AcDbSavedByObjectVersion
1070
     0
  0
VISUALSTYLE
  5
37
102
{ACAD_REACTORS
330
2A
102
}
330
2A
100
AcDbVisualStyle
  2
Thicken
 70
    13
 71
     2
 72
     2
 73
     0
 90
        0
 40
-0.6
 41
-30.0
 62
     5
 63
     7
 74
     1
 91
        4
 64
     7
 65
   257
 75
     1
175
     1
 42
1.0
 92
       12
 66
     7
 43
1.0
 76
     1
 77
     6
 78
     2
 67
     7
 79
     5
170
     0
171
     0
290
     0
174
     0
 93
        1
 44
0.0
173
     0
291
     1
 45
0.0
1001
ACAD
1000
AcDbSavedByObjectVersion
1070
     0
  0
DICTIONARYVAR
  5
4F2
102
{ACAD_REACTORS
330
4F1
102
}
330
4F1
100
DictionaryVariables
280
     0
  1
1:1
  0
DICTIONARYVAR
  5
4F6
102
{ACAD_REACTORS
330
4F1
102
}
330
4F1
100
DictionaryVariables
280
     0
  1
80.000000
  0
DICTIONARYVAR
  5
4F5
102
{ACAD_REACTORS
330
4F1
102
}
330
4F1
100
DictionaryVariables
280
     0
  1
5.000000
  0
ENDSEC
  0
EOF
