  0
SECTION
  2
HEADER
  9
$ACADVER
  1
AC1015
  9
$ACADMAINTVER
 70
     6
  9
$DWGCODEPAGE
  3
ANSI_932
  9
$INSBASE
 10
0.0
 20
0.0
 30
0.0
  9
$EXTMIN
 10
17.058975
 20
12.608978
 30
0.0
  9
$EXTMAX
 10
205.027939
 20
111.749451
 30
0.0
  9
$LIMMIN
 10
0.0
 20
0.0
  9
$LIMMAX
 10
12.0
 20
9.0
  9
$ORTHOMODE
 70
     0
  9
$REGENMODE
 70
     1
  9
$FILLMODE
 70
     1
  9
$QTEXTMODE
 70
     0
  9
$MIRRTEXT
 70
     1
  9
$LTSCALE
 40
3.132816
  9
$ATTMODE
 70
     1
  9
$TEXTSIZE
 40
3.2
  9
$TRACEWID
 40
1.0
  9
$TEXTSTYLE
  7
Standard
  9
$CLAYER
  8
0
  9
$CELTYPE
  6
ByLayer
  9
$CECOLOR
 62
   256
  9
$CELTSCALE
 40
1.0
  9
$DISPSILH
 70
     0
  9
$DIMSCALE
 40
1.0
  9
$DIMASZ
 40
2.5
  9
$DIMEXO
 40
0.625
  9
$DIMDLI
 40
3.75
  9
$DIMRND
 40
0.0
  9
$DIMDLE
 40
0.0
  9
$DIMEXE
 40
1.25
  9
$DIMTP
 40
0.0
  9
$DIMTM
 40
0.0
  9
$DIMTXT
 40
2.5
  9
$DIMCEN
 40
0.09
  9
$DIMTSZ
 40
0.0
  9
$DIMTOL
 70
     0
  9
$DIMLIM
 70
     0
  9
$DIMTIH
 70
     0
  9
$DIMTOH
 70
     0
  9
$DIMSE1
 70
     0
  9
$DIMSE2
 70
     0
  9
$DIMTAD
 70
     0
  9
$DIMZIN
 70
     8
  9
$DIMBLK
  1

  9
$DIMASO
 70
     1
  9
$DIMSHO
 70
     0
  9
$DIMPOST
  1

  9
$DIMAPOST
  1

  9
$DIMALT
 70
     0
  9
$DIMALTD
 70
     3
  9
$DIMALTF
 40
0.03937
  9
$DIMLFAC
 40
1.0
  9
$DIMTOFL
 70
     1
  9
$DIMTVP
 40
0.0
  9
$DIMTIX
 70
     0
  9
$DIMSOXD
 70
     0
  9
$DIMSAH
 70
     0
  9
$DIMBLK1
  1

  9
$DIMBLK2
  1

  9
$DIMSTYLE
  2
ISO-25
  9
$DIMCLRD
 70
     0
  9
$DIMCLRE
 70
     0
  9
$DIMCLRT
 70
     0
  9
$DIMTFAC
 40
1.0
  9
$DIMGAP
 40
0.625
  9
$DIMJUST
 70
     0
  9
$DIMSD1
 70
     0
  9
$DIMSD2
 70
     0
  9
$DIMTOLJ
 70
     0
  9
$DIMTZIN
 70
     8
  9
$DIMALTZ
 70
     0
  9
$DIMALTTZ
 70
     0
  9
$DIMUPT
 70
     0
  9
$DIMDEC
 70
     2
  9
$DIMTDEC
 70
     2
  9
$DIMALTU
 70
     2
  9
$DIMALTTD
 70
     3
  9
$DIMTXSTY
  7
Standard
  9
$DIMAUNIT
 70
     0
  9
$DIMADEC
 70
     0
  9
$DIMALTRND
 40
0.0
  9
$DIMAZIN
 70
     0
  9
$DIMDSEP
 70
    44
  9
$DIMATFIT
 70
     3
  9
$DIMFRAC
 70
     0
  9
$DIMLDRBLK
  1

  9
$DIMLUNIT
 70
     2
  9
$DIMLWD
 70
    -2
  9
$DIMLWE
 70
    -2
  9
$DIMTMOVE
 70
     0
  9
$LUNITS
 70
     2
  9
$LUPREC
 70
     4
  9
$SKETCHINC
 40
1.0
  9
$FILLETRAD
 40
0.0
  9
$AUNITS
 70
     0
  9
$AUPREC
 70
     0
  9
$MENU
  1
.
  9
$ELEVATION
 40
0.0
  9
$PELEVATION
 40
0.0
  9
$THICKNESS
 40
0.0
  9
$LIMCHECK
 70
     0
  9
$CHAMFERA
 40
10.0
  9
$CHAMFERB
 40
10.0
  9
$CHAMFERC
 40
20.0
  9
$CHAMFERD
 40
0.0
  9
$SKPOLY
 70
     0
  9
$TDCREATE
 40
2454621.718948739
  9
$TDUCREATE
 40
2454621.343948739
  9
$TDUPDATE
 40
2454621.71894875
  9
$TDUUPDATE
 40
2454621.34394875
  9
$TDINDWG
 40
0.0000000116
  9
$TDUSRTIMER
 40
0.0000000116
  9
$USRTIMER
 70
     1
  9
$ANGBASE
 50
0.0
  9
$ANGDIR
 70
     0
  9
$PDMODE
 70
     0
  9
$PDSIZE
 40
0.0
  9
$PLINEWID
 40
0.0
  9
$SPLFRAME
 70
     0
  9
$SPLINETYPE
 70
     6
  9
$SPLINESEGS
 70
     8
  9
$HANDSEED
  5
233
  9
$SURFTAB1
 70
     6
  9
$SURFTAB2
 70
     6
  9
$SURFTYPE
 70
     6
  9
$SURFU
 70
     6
  9
$SURFV
 70
     6
  9
$UCSBASE
  2

  9
$UCSNAME
  2

  9
$UCSORG
 10
0.0
 20
0.0
 30
0.0
  9
$UCSXDIR
 10
1.0
 20
0.0
 30
0.0
  9
$UCSYDIR
 10
0.0
 20
1.0
 30
0.0
  9
$UCSORTHOREF
  2

  9
$UCSORTHOVIEW
 70
     0
  9
$UCSORGTOP
 10
0.0
 20
0.0
 30
0.0
  9
$UCSORGBOTTOM
 10
0.0
 20
0.0
 30
0.0
  9
$UCSORGLEFT
 10
0.0
 20
0.0
 30
0.0
  9
$UCSORGRIGHT
 10
0.0
 20
0.0
 30
0.0
  9
$UCSORGFRONT
 10
0.0
 20
0.0
 30
0.0
  9
$UCSORGBACK
 10
0.0
 20
0.0
 30
0.0
  9
$PUCSBASE
  2

  9
$PUCSNAME
  2

  9
$PUCSORG
 10
0.0
 20
0.0
 30
0.0
  9
$PUCSXDIR
 10
1.0
 20
0.0
 30
0.0
  9
$PUCSYDIR
 10
0.0
 20
1.0
 30
0.0
  9
$PUCSORTHOREF
  2

  9
$PUCSORTHOVIEW
 70
     0
  9
$PUCSORGTOP
 10
0.0
 20
0.0
 30
0.0
  9
$PUCSORGBOTTOM
 10
0.0
 20
0.0
 30
0.0
  9
$PUCSORGLEFT
 10
0.0
 20
0.0
 30
0.0
  9
$PUCSORGRIGHT
 10
0.0
 20
0.0
 30
0.0
  9
$PUCSORGFRONT
 10
0.0
 20
0.0
 30
0.0
  9
$PUCSORGBACK
 10
0.0
 20
0.0
 30
0.0
  9
$USERI1
 70
     0
  9
$USERI2
 70
     0
  9
$USERI3
 70
     0
  9
$USERI4
 70
     0
  9
$USERI5
 70
     0
  9
$USERR1
 40
0.0
  9
$USERR2
 40
0.0
  9
$USERR3
 40
0.0
  9
$USERR4
 40
0.0
  9
$USERR5
 40
0.0
  9
$WORLDVIEW
 70
     1
  9
$SHADEDGE
 70
     3
  9
$SHADEDIF
 70
    70
  9
$TILEMODE
 70
     1
  9
$MAXACTVP
 70
    64
  9
$PINSBASE
 10
0.0
 20
0.0
 30
0.0
  9
$PLIMCHECK
 70
     0
  9
$PEXTMIN
 10
1.000000E+20
 20
1.000000E+20
 30
0.0
  9
$PEXTMAX
 10
-1.000000E+20
 20
-1.000000E+20
 30
0.0
  9
$PLIMMIN
 10
0.0
 20
0.0
  9
$PLIMMAX
 10
12.0
 20
9.0
  9
$UNITMODE
 70
     0
  9
$VISRETAIN
 70
     1
  9
$PLINEGEN
 70
     0
  9
$PSLTSCALE
 70
     1
  9
$TREEDEPTH
 70
  3020
  9
$CMLSTYLE
  2
Standard
  9
$CMLJUST
 70
     0
  9
$CMLSCALE
 40
20.0
  9
$PROXYGRAPHICS
 70
     1
  9
$MEASUREMENT
 70
     1
  9
$CELWEIGHT
370
    -1
  9
$ENDCAPS
280
     0
  9
$JOINSTYLE
280
     0
  9
$LWDISPLAY
290
     0
  9
$INSUNITS
 70
     4
  9
$HYPERLINKBASE
  1

  9
$STYLESHEET
  1

  9
$XEDIT
290
     1
  9
$CEPSNTYPE
380
     0
  9
$PSTYLEMODE
290
     1
  9
$FINGERPRINTGUID
  2
{FBAF580E-0691-4E21-8357-0639CD816998}
  9
$VERSIONGUID
  2
{FAEB1C32-E019-11D5-929B-00C0DF256EC4}
  9
$EXTNAMES
290
     1
  9
$PSVPSCALE
 40
0.0
  9
$OLESTARTUP
290
     0
  0
ENDSEC
  0
SECTION
  2
CLASSES
  0
CLASS
  1
ACDBDICTIONARYWDFLT
  2
AcDbDictionaryWithDefault
  3
ObjectDBX Classes
 90
        0
280
     0
281
     0
  0
CLASS
  1
VISUALSTYLE
  2
AcDbVisualStyle
  3
ObjectDBX Classes
 90
     4095
280
     0
281
     0
  0
CLASS
  1
SCALE
  2
AcDbScale
  3
ObjectDBX Classes
 90
     1153
280
     0
281
     0
  0
CLASS
  1
DICTIONARYVAR
  2
AcDbDictionaryVar
  3
ObjectDBX Classes
 90
        0
280
     0
281
     0
  0
CLASS
  1
ACDBPLACEHOLDER
  2
AcDbPlaceHolder
  3
ObjectDBX Classes
 90
        0
280
     0
281
     0
  0
CLASS
  1
LAYOUT
  2
AcDbLayout
  3
ObjectDBX Classes
 90
        0
280
     0
281
     0
  0
ENDSEC
  0
SECTION
  2
TABLES
  0
TABLE
  2
VPORT
  5
8
330
0
100
AcDbSymbolTable
 70
     1
  0
VPORT
  5
29
330
8
100
AcDbSymbolTableRecord
100
AcDbViewportTableRecord
  2
*Active
 70
     0
 10
0.0
 20
0.0
 11
1.0
 21
1.0
 12
111.043457
 22
62.179214
 13
0.0
 23
0.0
 14
1.0
 24
1.0
 15
0.0
 25
0.0
 16
0.0
 26
0.0
 36
1.0
 17
0.0
 27
0.0
 37
0.0
 40
112.250931
 41
1.691288
 42
50.0
 43
0.0
 44
0.0
 50
0.0
 51
0.0
 71
     0
 72
   100
 73
     1
 74
     3
 75
     0
 76
     0
 77
     0
 78
     0
281
     0
 65
     1
110
0.0
120
0.0
130
0.0
111
1.0
121
0.0
131
0.0
112
0.0
122
1.0
132
0.0
 79
     0
146
0.0
  0
ENDTAB
  0
TABLE
  2
LTYPE
  5
5
330
0
100
AcDbSymbolTable
 70
     5
  0
LTYPE
  5
14
330
5
100
AcDbSymbolTableRecord
100
AcDbLinetypeTableRecord
  2
ByBlock
 70
     0
  3

 72
    65
 73
     0
 40
0.0
  0
LTYPE
  5
15
330
5
100
AcDbSymbolTableRecord
100
AcDbLinetypeTableRecord
  2
ByLayer
 70
     0
  3

 72
    65
 73
     0
 40
0.0
  0
LTYPE
  5
16
330
5
100
AcDbSymbolTableRecord
100
AcDbLinetypeTableRecord
  2
Continuous
 70
     0
  3
Solid line
 72
    65
 73
     0
 40
0.0
  0
LTYPE
  5
5D
330
5
100
AcDbSymbolTableRecord
100
AcDbLinetypeTableRecord
  2
DASHED
 70
     0
  3
DASHED
 72
    83
 73
     2
 40
0.75
 49
0.5
 74
     0
 49
-0.25
 74
     0
  0
LTYPE
  5
5E
330
5
100
AcDbSymbolTableRecord
100
AcDbLinetypeTableRecord
  2
HIDDEN
 70
     0
  3
HIDDEN
 72
    83
 73
     2
 40
0.375
 49
0.25
 74
     0
 49
-0.125
 74
     0
  0
LTYPE
  5
5F
330
5
100
AcDbSymbolTableRecord
100
AcDbLinetypeTableRecord
  2
CENTER
 70
     0
  3
CENTER
 72
    83
 73
     4
 40
2.0
 49
1.25
 74
     0
 49
-0.25
 74
     0
 49
0.25
 74
     0
 49
-0.25
 74
     0
  0
LTYPE
  5
60
330
5
100
AcDbSymbolTableRecord
100
AcDbLinetypeTableRecord
  2
PHANTOM
 70
     0
  3
PHANTOM
 72
    83
 73
     6
 40
2.5
 49
1.25
 74
     0
 49
-0.25
 74
     0
 49
0.25
 74
     0
 49
-0.25
 74
     0
 49
0.25
 74
     0
 49
-0.25
 74
     0
  0
ENDTAB
  0
TABLE
  2
LAYER
  5
2
330
0
100
AcDbSymbolTable
 70
     2
  0
LAYER
  5
10
330
2
100
AcDbSymbolTableRecord
100
AcDbLayerTableRecord
  2
0
 70
     0
 62
     7
  6
Continuous
370
    -3
390
F
  0
LAYER
  5
61
330
2
100
AcDbSymbolTableRecord
100
AcDbLayerTableRecord
  2
001
 70
     0
 62
     7
  6
Continuous
370
    -3
390
F
  0
ENDTAB
  0
TABLE
  2
STYLE
  5
3
330
0
100
AcDbSymbolTable
 70
     2
  0
STYLE
  5
11
330
3
100
AcDbSymbolTableRecord
100
AcDbTextStyleTableRecord
  2
Standard
 70
     0
 40
0.0
 41
1.0
 50
0.0
 71
     0
 42
0.2
  3
TXT
  4
BIGFONT
  0
STYLE
  5
62
330
3
100
AcDbSymbolTableRecord
100
AcDbTextStyleTableRecord
  2
TATEGAKI
 70
     4
 40
1.0
 41
1.0
 50
0.0
 71
     0
 42
0.2
  3
TXT
  4
BIGFONT
  0
ENDTAB
  0
TABLE
  2
VIEW
  5
6
330
0
100
AcDbSymbolTable
 70
     0
  0
ENDTAB
  0
TABLE
  2
UCS
  5
7
330
0
100
AcDbSymbolTable
 70
     0
  0
ENDTAB
  0
TABLE
  2
APPID
  5
9
330
0
100
AcDbSymbolTable
 70
     1
  0
APPID
  5
12
330
9
100
AcDbSymbolTableRecord
100
AcDbRegAppTableRecord
  2
ACAD
 70
     0
  0
ENDTAB
  0
TABLE
  2
DIMSTYLE
  5
A
330
0
100
AcDbSymbolTable
 70
     2
100
AcDbDimStyleTable
  0
DIMSTYLE
105
27
330
A
100
AcDbSymbolTableRecord
100
AcDbDimStyleTableRecord
  2
ISO-25
 70
     0
 41
2.5
 42
0.625
 43
3.75
 44
1.25
 73
     0
 74
     0
 77
     1
 78
     8
140
2.5
141
2.5
143
0.03937
147
0.625
171
     3
172
     1
271
     2
272
     2
274
     3
278
    44
283
     0
284
     8
340
11
  0
DIMSTYLE
105
63
102
{ACAD_REACTORS
330
DE
330
DF
330
F8
330
F9
330
FA
330
FB
102
}
330
A
100
AcDbSymbolTableRecord
100
AcDbDimStyleTableRecord
  2
Standard
 70
     0
 41
1.5
 42
0.0
 44
2.75
 73
     0
 74
     0
 77
     1
 78
     8
 79
     2
140
4.0
146
0.8
147
1.0
172
     1
179
     1
271
     1
340
11
  0
ENDTAB
  0
TABLE
  2
BLOCK_RECORD
  5
1
330
0
100
AcDbSymbolTable
 70
     7
  0
BLOCK_RECORD
  5
1F
330
1
100
AcDbSymbolTableRecord
100
AcDbBlockTableRecord
  2
*Model_Space
340
22
  0
BLOCK_RECORD
  5
1B
330
1
100
AcDbSymbolTableRecord
100
AcDbBlockTableRecord
  2
*Paper_Space
340
1E
  0
BLOCK_RECORD
  5
23
330
1
100
AcDbSymbolTableRecord
100
AcDbBlockTableRecord
  2
*Paper_Space0
340
26
  0
BLOCK_RECORD
  5
64
330
1
100
AcDbSymbolTableRecord
100
AcDbBlockTableRecord
  2
*D1
340
0
  0
BLOCK_RECORD
  5
78
330
1
100
AcDbSymbolTableRecord
100
AcDbBlockTableRecord
  2
*D2
340
0
  0
BLOCK_RECORD
  5
8D
330
1
100
AcDbSymbolTableRecord
100
AcDbBlockTableRecord
  2
*D3
340
0
  0
BLOCK_RECORD
  5
A2
330
1
100
AcDbSymbolTableRecord
100
AcDbBlockTableRecord
  2
*D4
340
0
  0
BLOCK_RECORD
  5
B6
330
1
100
AcDbSymbolTableRecord
100
AcDbBlockTableRecord
  2
*D5
340
0
  0
BLOCK_RECORD
  5
CA
330
1
100
AcDbSymbolTableRecord
100
AcDbBlockTableRecord
  2
*D6
340
0
  0
ENDTAB
  0
ENDSEC
  0
SECTION
  2
BLOCKS
  0
BLOCK
  5
20
330
1F
100
AcDbEntity
  8
0
100
AcDbBlockBegin
  2
*Model_Space
 70
     0
 10
0.0
 20
0.0
 30
0.0
  3
*Model_Space
  1

  0
ENDBLK
  5
21
330
1F
100
AcDbEntity
  8
0
100
AcDbBlockEnd
  0
BLOCK
  5
1C
330
1B
100
AcDbEntity
 67
     1
  8
0
100
AcDbBlockBegin
  2
*Paper_Space
 70
     0
 10
0.0
 20
0.0
 30
0.0
  3
*Paper_Space
  1

  0
ENDBLK
  5
1D
330
1B
100
AcDbEntity
 67
     1
  8
0
100
AcDbBlockEnd
  0
BLOCK
  5
24
330
23
100
AcDbEntity
  8
0
100
AcDbBlockBegin
  2
*Paper_Space0
 70
     0
 10
0.0
 20
0.0
 30
0.0
  3
*Paper_Space0
  1

  0
ENDBLK
  5
25
330
23
100
AcDbEntity
  8
0
100
AcDbBlockEnd
  0
BLOCK
  5
65
330
64
100
AcDbEntity
  8
0
100
AcDbBlockBegin
  2
*D1
 70
     1
 10
0.0
 20
0.0
 30
0.0
  3
*D1
  1

  0
LINE
  5
67
330
64
100
AcDbEntity
  8
001
370
     9
100
AcDbLine
 10
79.525759
 20
55.891
 30
0.0
 11
79.525759
 21
22.244836
 31
0.0
  0
LINE
  5
68
330
64
100
AcDbEntity
  8
001
370
     9
100
AcDbLine
 10
49.525759
 20
40.886489
 30
0.0
 11
49.525759
 21
22.244836
 31
0.0
  0
LINE
  5
69
330
64
100
AcDbEntity
  8
001
370
     9
100
AcDbLine
 10
79.525759
 20
24.994836
 30
0.0
 11
49.525759
 21
24.994836
 31
0.0
  0
POLYLINE
  5
6A
330
64
100
AcDbEntity
  8
001
370
     9
100
AcDb2dPolyline
 66
     1
 10
0.0
 20
0.0
 30
0.0
  0
VERTEX
  5
6C
330
6A
100
AcDbEntity
  8
001
370
     9
100
AcDbVertex
100
AcDb2dVertex
 10
78.025759
 20
25.39676
 30
0.0
  0
VERTEX
  5
6D
330
6A
100
AcDbEntity
  8
001
370
     9
100
AcDbVertex
100
AcDb2dVertex
 10
79.525759
 20
24.994836
 30
0.0
  0
VERTEX
  5
6E
330
6A
100
AcDbEntity
  8
001
370
     9
100
AcDbVertex
100
AcDb2dVertex
 10
78.025759
 20
24.592913
 30
0.0
  0
SEQEND
  5
6B
330
6A
100
AcDbEntity
  8
001
370
     9
  0
POLYLINE
  5
6F
330
64
100
AcDbEntity
  8
001
370
     9
100
AcDb2dPolyline
 66
     1
 10
0.0
 20
0.0
 30
0.0
  0
VERTEX
  5
71
330
6F
100
AcDbEntity
  8
001
370
     9
100
AcDbVertex
100
AcDb2dVertex
 10
51.025759
 20
24.592913
 30
0.0
  0
VERTEX
  5
72
330
6F
100
AcDbEntity
  8
001
370
     9
100
AcDbVertex
100
AcDb2dVertex
 10
49.525759
 20
24.994836
 30
0.0
  0
VERTEX
  5
73
330
6F
100
AcDbEntity
  8
001
370
     9
100
AcDbVertex
100
AcDb2dVertex
 10
51.025759
 20
25.39676
 30
0.0
  0
SEQEND
  5
70
330
6F
100
AcDbEntity
  8
001
370
     9
  0
TEXT
  5
74
330
64
100
AcDbEntity
  8
001
370
    30
100
AcDbText
 10
60.525759
 20
25.994836
 30
0.0
 40
4.0
  1
３０
 41
0.833333
100
AcDbText
  0
POINT
  5
75
330
64
100
AcDbEntity
  8
001
370
     9
100
AcDbPoint
 10
79.525759
 20
55.891
 30
0.0
  0
POINT
  5
76
330
64
100
AcDbEntity
  8
001
370
     9
100
AcDbPoint
 10
49.525759
 20
40.886489
 30
0.0
  0
POINT
  5
77
330
64
100
AcDbEntity
  8
001
370
     9
100
AcDbPoint
 10
49.525759
 20
24.994836
 30
0.0
  0
ENDBLK
  5
66
330
64
100
AcDbEntity
  8
0
100
AcDbBlockEnd
  0
BLOCK
  5
79
330
78
100
AcDbEntity
  8
0
100
AcDbBlockBegin
  2
*D2
 70
     1
 10
0.0
 20
0.0
 30
0.0
  3
*D2
  1

  0
LINE
  5
7B
330
78
100
AcDbEntity
  8
001
370
     9
100
AcDbLine
 10
63.460737
 20
55.393013
 30
0.0
 11
82.230113
 21
46.640709
 31
0.0
  0
LINE
  5
7C
330
78
100
AcDbEntity
  8
001
370
     9
100
AcDbLine
 10
49.525759
 20
40.886489
 30
0.0
 11
49.525759
 21
25.805738
 31
0.0
  0
ARC
  5
7D
330
78
100
AcDbEntity
  8
001
370
     9
100
AcDbCircle
 10
49.525759
 20
61.891
 30
0.0
 40
33.33526209512608
100
AcDbArc
 50
270.0
 51
335.0
  0
POLYLINE
  5
7E
330
78
100
AcDbEntity
  8
001
370
     9
100
AcDb2dPolyline
 66
     1
 10
0.0
 20
0.0
 30
0.0
  0
VERTEX
  5
80
330
7E
100
AcDbEntity
  8
001
370
     9
100
AcDbVertex
100
AcDb2dVertex
 10
78.713063
 20
46.636065
 30
0.0
  0
VERTEX
  5
81
330
7E
100
AcDbEntity
  8
001
370
     9
100
AcDbVertex
100
AcDb2dVertex
 10
79.737766
 20
47.802909
 30
0.0
  0
VERTEX
  5
82
330
7E
100
AcDbEntity
  8
001
370
     9
100
AcDbVertex
100
AcDb2dVertex
 10
79.433769
 20
46.280041
 30
0.0
  0
SEQEND
  5
7F
330
7E
100
AcDbEntity
  8
001
370
     9
  0
POLYLINE
  5
83
330
78
100
AcDbEntity
  8
001
370
     9
100
AcDb2dPolyline
 66
     1
 10
0.0
 20
0.0
 30
0.0
  0
VERTEX
  5
85
330
83
100
AcDbEntity
  8
001
370
     9
100
AcDbVertex
100
AcDb2dVertex
 10
51.034421
 20
28.187661
 30
0.0
  0
VERTEX
  5
86
330
83
100
AcDbEntity
  8
001
370
     9
100
AcDbVertex
100
AcDb2dVertex
 10
49.525759
 20
28.555738
 30
0.0
  0
VERTEX
  5
87
330
83
100
AcDbEntity
  8
001
370
     9
100
AcDbVertex
100
AcDb2dVertex
 10
51.016337
 20
28.991305
 30
0.0
  0
SEQEND
  5
84
330
83
100
AcDbEntity
  8
001
370
     9
  0
TEXT
  5
88
330
78
100
AcDbEntity
  8
001
370
    30
100
AcDbText
 10
61.839134
 20
31.395919
 30
0.0
 40
4.0
  1
６５%%d
 50
32.5
 41
0.978261
100
AcDbText
  0
POINT
  5
89
330
78
100
AcDbEntity
  8
001
370
     9
100
AcDbPoint
 10
63.460737
 20
55.393013
 30
0.0
  0
POINT
  5
8A
330
78
100
AcDbEntity
  8
001
370
     9
100
AcDbPoint
 10
49.525759
 20
61.891
 30
0.0
  0
POINT
  5
8B
330
78
100
AcDbEntity
  8
001
370
     9
100
AcDbPoint
 10
49.525759
 20
61.891
 30
0.0
  0
POINT
  5
8C
330
78
100
AcDbEntity
  8
001
370
     9
100
AcDbPoint
 10
49.525759
 20
40.886489
 30
0.0
  0
ENDBLK
  5
7A
330
78
100
AcDbEntity
  8
0
100
AcDbBlockEnd
  0
BLOCK
  5
8E
330
8D
100
AcDbEntity
  8
0
100
AcDbBlockBegin
  2
*D3
 70
     1
 10
0.0
 20
0.0
 30
0.0
  3
*D3
  1

  0
LINE
  5
90
330
8D
100
AcDbEntity
  8
001
370
     9
100
AcDbLine
 10
63.540111
 20
55.356
 30
0.0
 11
63.540111
 21
38.136489
 31
0.0
  0
LINE
  5
91
330
8D
100
AcDbEntity
  8
001
370
     9
100
AcDbLine
 10
49.525759
 20
61.891
 30
0.0
 11
49.525759
 21
38.136489
 31
0.0
  0
LINE
  5
92
330
8D
100
AcDbEntity
  8
001
370
     9
100
AcDbLine
 10
63.540111
 20
40.886489
 30
0.0
 11
49.525759
 21
40.886489
 31
0.0
  0
POLYLINE
  5
93
330
8D
100
AcDbEntity
  8
001
370
     9
100
AcDb2dPolyline
 66
     1
 10
0.0
 20
0.0
 30
0.0
  0
VERTEX
  5
95
330
93
100
AcDbEntity
  8
001
370
     9
100
AcDbVertex
100
AcDb2dVertex
 10
62.040111
 20
41.288413
 30
0.0
  0
VERTEX
  5
96
330
93
100
AcDbEntity
  8
001
370
     9
100
AcDbVertex
100
AcDb2dVertex
 10
63.540111
 20
40.886489
 30
0.0
  0
VERTEX
  5
97
330
93
100
AcDbEntity
  8
001
370
     9
100
AcDbVertex
100
AcDb2dVertex
 10
62.040111
 20
40.484565
 30
0.0
  0
SEQEND
  5
94
330
93
100
AcDbEntity
  8
001
370
     9
  0
POLYLINE
  5
98
330
8D
100
AcDbEntity
  8
001
370
     9
100
AcDb2dPolyline
 66
     1
 10
0.0
 20
0.0
 30
0.0
  0
VERTEX
  5
9A
330
98
100
AcDbEntity
  8
001
370
     9
100
AcDbVertex
100
AcDb2dVertex
 10
51.025759
 20
40.484565
 30
0.0
  0
VERTEX
  5
9B
330
98
100
AcDbEntity
  8
001
370
     9
100
AcDbVertex
100
AcDb2dVertex
 10
49.525759
 20
40.886489
 30
0.0
  0
VERTEX
  5
9C
330
98
100
AcDbEntity
  8
001
370
     9
100
AcDbVertex
100
AcDb2dVertex
 10
51.025759
 20
41.288413
 30
0.0
  0
SEQEND
  5
99
330
98
100
AcDbEntity
  8
001
370
     9
  0
TEXT
  5
9D
330
8D
100
AcDbEntity
  8
001
370
    30
100
AcDbText
 10
30.025759
 20
41.886489
 30
0.0
 40
4.0
  1
（１４）
 41
0.833333
100
AcDbText
  0
POINT
  5
9E
330
8D
100
AcDbEntity
  8
001
370
     9
100
AcDbPoint
 10
63.540111
 20
55.356
 30
0.0
  0
POINT
  5
9F
330
8D
100
AcDbEntity
  8
001
370
     9
100
AcDbPoint
 10
49.525759
 20
61.891
 30
0.0
  0
POINT
  5
A0
330
8D
100
AcDbEntity
  8
001
370
     9
100
AcDbPoint
 10
49.525759
 20
40.886489
 30
0.0
  0
LINE
  5
A1
330
8D
100
AcDbEntity
  8
001
370
     9
100
AcDbLine
 10
49.525759
 20
40.886489
 30
0.0
 11
27.025759
 21
40.886489
 31
0.0
  0
ENDBLK
  5
8F
330
8D
100
AcDbEntity
  8
0
100
AcDbBlockEnd
  0
BLOCK
  5
A3
330
A2
100
AcDbEntity
  8
0
100
AcDbBlockBegin
  2
*D4
 70
     1
 10
0.0
 20
0.0
 30
0.0
  3
*D4
  1

  0
LINE
  5
A5
330
A2
100
AcDbEntity
  8
001
370
     9
100
AcDbLine
 10
175.525759
 20
81.891
 30
0.0
 11
205.027934
 21
81.891
 31
0.0
  0
LINE
  5
A6
330
A2
100
AcDbEntity
  8
001
370
     9
100
AcDbLine
 10
175.525759
 20
61.891
 30
0.0
 11
205.027934
 21
61.891
 31
0.0
  0
LINE
  5
A7
330
A2
100
AcDbEntity
  8
001
370
     9
100
AcDbLine
 10
202.277934
 20
81.891
 30
0.0
 11
202.277934
 21
61.891
 31
0.0
  0
POLYLINE
  5
A8
330
A2
100
AcDbEntity
  8
001
370
     9
100
AcDb2dPolyline
 66
     1
 10
0.0
 20
0.0
 30
0.0
  0
VERTEX
  5
AA
330
A8
100
AcDbEntity
  8
001
370
     9
100
AcDbVertex
100
AcDb2dVertex
 10
201.87601
 20
80.391
 30
0.0
  0
VERTEX
  5
AB
330
A8
100
AcDbEntity
  8
001
370
     9
100
AcDbVertex
100
AcDb2dVertex
 10
202.277934
 20
81.891
 30
0.0
  0
VERTEX
  5
AC
330
A8
100
AcDbEntity
  8
001
370
     9
100
AcDbVertex
100
AcDb2dVertex
 10
202.679858
 20
80.391
 30
0.0
  0
SEQEND
  5
A9
330
A8
100
AcDbEntity
  8
001
370
     9
  0
POLYLINE
  5
AD
330
A2
100
AcDbEntity
  8
001
370
     9
100
AcDb2dPolyline
 66
     1
 10
0.0
 20
0.0
 30
0.0
  0
VERTEX
  5
AF
330
AD
100
AcDbEntity
  8
001
370
     9
100
AcDbVertex
100
AcDb2dVertex
 10
202.679858
 20
63.391
 30
0.0
  0
VERTEX
  5
B0
330
AD
100
AcDbEntity
  8
001
370
     9
100
AcDbVertex
100
AcDb2dVertex
 10
202.277934
 20
61.891
 30
0.0
  0
VERTEX
  5
B1
330
AD
100
AcDbEntity
  8
001
370
     9
100
AcDbVertex
100
AcDb2dVertex
 10
201.87601
 20
63.391
 30
0.0
  0
SEQEND
  5
AE
330
AD
100
AcDbEntity
  8
001
370
     9
  0
TEXT
  5
B2
330
A2
100
AcDbEntity
  8
001
370
    30
100
AcDbText
 10
201.277934
 20
65.891
 30
0.0
 40
4.0
  1
%%c２０
 50
90.000003
 41
0.882353
100
AcDbText
  0
POINT
  5
B3
330
A2
100
AcDbEntity
  8
001
370
     9
100
AcDbPoint
 10
175.525759
 20
81.891
 30
0.0
  0
POINT
  5
B4
330
A2
100
AcDbEntity
  8
001
370
     9
100
AcDbPoint
 10
175.525759
 20
61.891
 30
0.0
  0
POINT
  5
B5
330
A2
100
AcDbEntity
  8
001
370
     9
100
AcDbPoint
 10
202.277934
 20
61.891
 30
0.0
  0
ENDBLK
  5
A4
330
A2
100
AcDbEntity
  8
0
100
AcDbBlockEnd
  0
BLOCK
  5
B7
330
B6
100
AcDbEntity
  8
0
100
AcDbBlockBegin
  2
*D5
 70
     1
 10
0.0
 20
0.0
 30
0.0
  3
*D5
  1

  0
LINE
  5
B9
330
B6
100
AcDbEntity
  8
001
370
     9
100
AcDbLine
 10
49.525759
 20
40.886489
 30
0.0
 11
49.525759
 21
12.608982
 31
0.0
  0
LINE
  5
BA
330
B6
100
AcDbEntity
  8
001
370
     9
100
AcDbLine
 10
179.525759
 20
65.891
 30
0.0
 11
179.525759
 21
12.608982
 31
0.0
  0
LINE
  5
BB
330
B6
100
AcDbEntity
  8
001
370
     9
100
AcDbLine
 10
49.525759
 20
15.358982
 30
0.0
 11
179.525759
 21
15.358982
 31
0.0
  0
POLYLINE
  5
BC
330
B6
100
AcDbEntity
  8
001
370
     9
100
AcDb2dPolyline
 66
     1
 10
0.0
 20
0.0
 30
0.0
  0
VERTEX
  5
BE
330
BC
100
AcDbEntity
  8
001
370
     9
100
AcDbVertex
100
AcDb2dVertex
 10
51.025759
 20
14.957058
 30
0.0
  0
VERTEX
  5
BF
330
BC
100
AcDbEntity
  8
001
370
     9
100
AcDbVertex
100
AcDb2dVertex
 10
49.525759
 20
15.358982
 30
0.0
  0
VERTEX
  5
C0
330
BC
100
AcDbEntity
  8
001
370
     9
100
AcDbVertex
100
AcDb2dVertex
 10
51.025759
 20
15.760905
 30
0.0
  0
SEQEND
  5
BD
330
BC
100
AcDbEntity
  8
001
370
     9
  0
POLYLINE
  5
C1
330
B6
100
AcDbEntity
  8
001
370
     9
100
AcDb2dPolyline
 66
     1
 10
0.0
 20
0.0
 30
0.0
  0
VERTEX
  5
C3
330
C1
100
AcDbEntity
  8
001
370
     9
100
AcDbVertex
100
AcDb2dVertex
 10
178.025759
 20
15.760905
 30
0.0
  0
VERTEX
  5
C4
330
C1
100
AcDbEntity
  8
001
370
     9
100
AcDbVertex
100
AcDb2dVertex
 10
179.525759
 20
15.358982
 30
0.0
  0
VERTEX
  5
C5
330
C1
100
AcDbEntity
  8
001
370
     9
100
AcDbVertex
100
AcDb2dVertex
 10
178.025759
 20
14.957058
 30
0.0
  0
SEQEND
  5
C2
330
C1
100
AcDbEntity
  8
001
370
     9
  0
TEXT
  5
C6
330
B6
100
AcDbEntity
  8
001
370
    30
100
AcDbText
 10
108.525759
 20
16.358982
 30
0.0
 40
4.0
  1
１３０
 41
0.833333
100
AcDbText
  0
POINT
  5
C7
330
B6
100
AcDbEntity
  8
001
370
     9
100
AcDbPoint
 10
49.525759
 20
40.886489
 30
0.0
  0
POINT
  5
C8
330
B6
100
AcDbEntity
  8
001
370
     9
100
AcDbPoint
 10
179.525759
 20
65.891
 30
0.0
  0
POINT
  5
C9
330
B6
100
AcDbEntity
  8
001
370
     9
100
AcDbPoint
 10
179.525759
 20
15.358982
 30
0.0
  0
ENDBLK
  5
B8
330
B6
100
AcDbEntity
  8
0
100
AcDbBlockEnd
  0
BLOCK
  5
CB
330
CA
100
AcDbEntity
  8
0
100
AcDbBlockBegin
  2
*D6
 70
     1
 10
0.0
 20
0.0
 30
0.0
  3
*D6
  1

  0
LINE
  5
CD
330
CA
100
AcDbEntity
  8
001
370
     9
100
AcDbLine
 10
179.525759
 20
59.891
 30
0.0
 11
179.525759
 21
22.244836
 31
0.0
  0
LINE
  5
CE
330
CA
100
AcDbEntity
  8
001
370
     9
100
AcDbLine
 10
79.525759
 20
57.991
 30
0.0
 11
79.525759
 21
22.244836
 31
0.0
  0
LINE
  5
CF
330
CA
100
AcDbEntity
  8
001
370
     9
100
AcDbLine
 10
179.525759
 20
24.994836
 30
0.0
 11
79.525759
 21
24.994836
 31
0.0
  0
POLYLINE
  5
D0
330
CA
100
AcDbEntity
  8
001
370
     9
100
AcDb2dPolyline
 66
     1
 10
0.0
 20
0.0
 30
0.0
  0
VERTEX
  5
D2
330
D0
100
AcDbEntity
  8
001
370
     9
100
AcDbVertex
100
AcDb2dVertex
 10
178.025759
 20
25.39676
 30
0.0
  0
VERTEX
  5
D3
330
D0
100
AcDbEntity
  8
001
370
     9
100
AcDbVertex
100
AcDb2dVertex
 10
179.525759
 20
24.994836
 30
0.0
  0
VERTEX
  5
D4
330
D0
100
AcDbEntity
  8
001
370
     9
100
AcDbVertex
100
AcDb2dVertex
 10
178.025759
 20
24.592913
 30
0.0
  0
SEQEND
  5
D1
330
D0
100
AcDbEntity
  8
001
370
     9
  0
POLYLINE
  5
D5
330
CA
100
AcDbEntity
  8
001
370
     9
100
AcDb2dPolyline
 66
     1
 10
0.0
 20
0.0
 30
0.0
  0
VERTEX
  5
D7
330
D5
100
AcDbEntity
  8
001
370
     9
100
AcDbVertex
100
AcDb2dVertex
 10
81.025759
 20
24.592913
 30
0.0
  0
VERTEX
  5
D8
330
D5
100
AcDbEntity
  8
001
370
     9
100
AcDbVertex
100
AcDb2dVertex
 10
79.525759
 20
24.994836
 30
0.0
  0
VERTEX
  5
D9
330
D5
100
AcDbEntity
  8
001
370
     9
100
AcDbVertex
100
AcDb2dVertex
 10
81.025759
 20
25.39676
 30
0.0
  0
SEQEND
  5
D6
330
D5
100
AcDbEntity
  8
001
370
     9
  0
TEXT
  5
DA
330
CA
100
AcDbEntity
  8
001
370
    30
100
AcDbText
 10
123.525759
 20
25.994836
 30
0.0
 40
4.0
  1
１００
 41
0.833333
100
AcDbText
  0
POINT
  5
DB
330
CA
100
AcDbEntity
  8
001
370
     9
100
AcDbPoint
 10
179.525759
 20
59.891
 30
0.0
  0
POINT
  5
DC
330
CA
100
AcDbEntity
  8
001
370
     9
100
AcDbPoint
 10
79.525759
 20
57.991
 30
0.0
  0
POINT
  5
DD
330
CA
100
AcDbEntity
  8
001
370
     9
100
AcDbPoint
 10
79.525759
 20
24.994836
 30
0.0
  0
ENDBLK
  5
CC
330
CA
100
AcDbEntity
  8
0
100
AcDbBlockEnd
  0
ENDSEC
  0
SECTION
  2
ENTITIES
  0
DIMENSION
  5
DE
330
1F
100
AcDbEntity
  8
001
370
     9
100
AcDbDimension
  2
*D1
 10
49.525759
 20
24.994836
 30
0.0
 11
64.525759
 21
27.994836
 31
0.0
 70
   160
 71
     5
 42
-1.0
  3
Standard
100
AcDbAlignedDimension
 13
79.525759
 23
55.891
 33
0.0
 14
49.525759
 24
40.886489
 34
0.0
 50
180.0
100
AcDbRotatedDimension
  0
DIMENSION
  5
DF
330
1F
100
AcDbEntity
  8
001
370
     9
100
AcDbDimension
  2
*D2
 10
49.525759
 20
61.891
 30
0.0
 11
65.824883
 21
36.306499
 31
0.0
 70
    34
 71
     5
 42
-1.0
  3
Standard
100
AcDb2LineAngularDimension
 13
63.460737
 23
55.393013
 33
0.0
 14
49.525759
 24
61.891
 34
0.0
 15
49.525759
 25
40.886489
 35
0.0
 16
67.436782
 26
33.776325
 36
0.0
  0
TEXT
  5
E0
330
1F
100
AcDbEntity
  8
001
370
    30
100
AcDbText
 10
32.336107
 20
65.891
 30
0.0
 40
4.0
  1
%%c２０
 50
90.000003
 41
0.882353
100
AcDbText
  0
POLYLINE
  5
E1
330
1F
100
AcDbEntity
  8
001
370
     9
100
AcDb2dPolyline
 66
     1
 10
0.0
 20
0.0
 30
0.0
  0
VERTEX
  5
E3
330
E1
100
AcDbEntity
  8
001
370
     9
100
AcDbVertex
100
AcDb2dVertex
 10
33.738031
 20
63.391
 30
0.0
  0
VERTEX
  5
E4
330
E1
100
AcDbEntity
  8
001
370
     9
100
AcDbVertex
100
AcDb2dVertex
 10
33.336107
 20
61.891
 30
0.0
  0
VERTEX
  5
E5
330
E1
100
AcDbEntity
  8
001
370
     9
100
AcDbVertex
100
AcDb2dVertex
 10
32.934183
 20
63.391
 30
0.0
  0
SEQEND
  5
E2
330
E1
100
AcDbEntity
  8
001
370
     9
  0
LINE
  5
E6
330
1F
100
AcDbEntity
  8
001
370
     9
100
AcDbLine
 10
33.336107
 20
81.891
 30
0.0
 11
33.336107
 21
61.891
 31
0.0
  0
POLYLINE
  5
E7
330
1F
100
AcDbEntity
  8
001
370
     9
100
AcDb2dPolyline
 66
     1
 10
0.0
 20
0.0
 30
0.0
  0
VERTEX
  5
E9
330
E7
100
AcDbEntity
  8
001
370
     9
100
AcDbVertex
100
AcDb2dVertex
 10
49.525759
 20
61.891
 30
0.0
  0
VERTEX
  5
EA
330
E7
100
AcDbEntity
  8
001
370
     9
100
AcDbVertex
100
AcDb2dVertex
 10
33.336107
 20
61.891
 30
0.0
  0
VERTEX
  5
EB
330
E7
100
AcDbEntity
  8
001
370
     9
100
AcDbVertex
100
AcDb2dVertex
 10
30.586107
 20
61.891
 30
0.0
  0
SEQEND
  5
E8
330
E7
100
AcDbEntity
  8
001
370
     9
  0
TEXT
  5
EC
330
1F
100
AcDbEntity
  8
001
370
    30
100
AcDbText
 10
21.058976
 20
55.891
 30
0.0
 40
4.0
  1
（%%c３３．０７）
 50
90.000003
 41
0.851064
100
AcDbText
  0
POLYLINE
  5
ED
330
1F
100
AcDbEntity
  8
001
370
     9
100
AcDb2dPolyline
 66
     1
 10
0.0
 20
0.0
 30
0.0
  0
VERTEX
  5
EF
330
ED
100
AcDbEntity
  8
001
370
     9
100
AcDbVertex
100
AcDb2dVertex
 10
22.4609
 20
56.856
 30
0.0
  0
VERTEX
  5
F0
330
ED
100
AcDbEntity
  8
001
370
     9
100
AcDbVertex
100
AcDb2dVertex
 10
22.058976
 20
55.356
 30
0.0
  0
VERTEX
  5
F1
330
ED
100
AcDbEntity
  8
001
370
     9
100
AcDbVertex
100
AcDb2dVertex
 10
21.657052
 20
56.856
 30
0.0
  0
SEQEND
  5
EE
330
ED
100
AcDbEntity
  8
001
370
     9
  0
LINE
  5
F2
330
1F
100
AcDbEntity
  8
001
370
     9
100
AcDbLine
 10
22.058976
 20
55.356
 30
0.0
 11
22.058976
 21
88.426
 31
0.0
  0
POLYLINE
  5
F3
330
1F
100
AcDbEntity
  8
001
370
     9
100
AcDb2dPolyline
 66
     1
 10
0.0
 20
0.0
 30
0.0
  0
VERTEX
  5
F5
330
F3
100
AcDbEntity
  8
001
370
     9
100
AcDbVertex
100
AcDb2dVertex
 10
63.540111
 20
55.356
 30
0.0
  0
VERTEX
  5
F6
330
F3
100
AcDbEntity
  8
001
370
     9
100
AcDbVertex
100
AcDb2dVertex
 10
22.058976
 20
55.356
 30
0.0
  0
VERTEX
  5
F7
330
F3
100
AcDbEntity
  8
001
370
     9
100
AcDbVertex
100
AcDb2dVertex
 10
19.308976
 20
55.356
 30
0.0
  0
SEQEND
  5
F4
330
F3
100
AcDbEntity
  8
001
370
     9
  0
DIMENSION
  5
F8
330
1F
100
AcDbEntity
  8
001
370
     9
100
AcDbDimension
  2
*D3
 10
49.525759
 20
40.886489
 30
0.0
 11
38.025759
 21
43.886489
 31
0.0
 70
   160
 71
     5
 42
-1.0
  3
Standard
100
AcDbAlignedDimension
 13
63.540111
 23
55.356
 33
0.0
 14
49.525759
 24
61.891
 34
0.0
 50
180.0
100
AcDbRotatedDimension
  0
DIMENSION
  5
F9
330
1F
100
AcDbEntity
  8
001
370
     9
100
AcDbDimension
  2
*D4
 10
202.277934
 20
61.891
 30
0.0
 11
199.277934
 21
71.891
 31
0.0
 70
   160
 71
     5
 42
-1.0
  3
Standard
100
AcDbAlignedDimension
 13
175.525759
 23
81.891
 33
0.0
 14
175.525759
 24
61.891
 34
0.0
 50
270.0
100
AcDbRotatedDimension
  0
DIMENSION
  5
FA
330
1F
100
AcDbEntity
  8
001
370
     9
100
AcDbDimension
  2
*D5
 10
179.525759
 20
15.358982
 30
0.0
 11
114.525759
 21
18.358982
 31
0.0
 70
   160
 71
     5
 42
-1.0
  3
Standard
100
AcDbAlignedDimension
 13
49.525759
 23
40.886489
 33
0.0
 14
179.525759
 24
65.891
 34
0.0
100
AcDbRotatedDimension
  0
DIMENSION
  5
FB
330
1F
100
AcDbEntity
  8
001
370
     9
100
AcDbDimension
  2
*D6
 10
79.525759
 20
24.994836
 30
0.0
 11
129.525759
 21
27.994836
 31
0.0
 70
   160
 71
     5
 42
-1.0
  3
Standard
100
AcDbAlignedDimension
 13
179.525759
 23
59.891
 33
0.0
 14
79.525759
 24
57.991
 34
0.0
 50
180.0
100
AcDbRotatedDimension
  0
LINE
  5
FC
330
1F
100
AcDbEntity
  8
001
370
    50
100
AcDbLine
 10
179.525759
 20
65.891
 30
0.0
 11
179.525759
 21
77.891
 31
0.0
  0
LINE
  5
FD
330
1F
100
AcDbEntity
  8
001
370
    50
100
AcDbLine
 10
79.525759
 20
57.991
 30
0.0
 11
79.525759
 21
85.791
 31
0.0
  0
LINE
  5
FE
330
1F
100
AcDbEntity
  8
001
370
    50
100
AcDbLine
 10
63.959562
 20
87.791
 30
0.0
 11
63.959562
 21
84.435591
 31
0.0
  0
LINE
  5
FF
330
1F
100
AcDbEntity
  8
001
370
    50
100
AcDbLine
 10
77.525759
 20
87.791
 30
0.0
 11
63.959562
 21
87.791
 31
0.0
  0
POLYLINE
  5
100
330
1F
100
AcDbEntity
  8
001
370
    50
100
AcDb2dPolyline
 66
     1
 10
0.0
 20
0.0
 30
0.0
  0
VERTEX
  5
102
330
100
100
AcDbEntity
  8
001
370
    50
100
AcDbVertex
100
AcDb2dVertex
 10
67.75644
 20
60.559165
 30
0.0
  0
VERTEX
  5
103
330
100
100
AcDbEntity
  8
001
370
    50
100
AcDbVertex
100
AcDb2dVertex
 10
67.862808
 20
59.560054
 30
0.0
  0
VERTEX
  5
104
330
100
100
AcDbEntity
  8
001
370
    50
100
AcDbVertex
100
AcDb2dVertex
 10
68.078379
 20
58.108544
 30
0.0
  0
VERTEX
  5
105
330
100
100
AcDbEntity
  8
001
370
    50
100
AcDbVertex
100
AcDb2dVertex
 10
68.276131
 20
57.178498
 30
0.0
  0
VERTEX
  5
106
330
100
100
AcDbEntity
  8
001
370
    50
100
AcDbVertex
100
AcDb2dVertex
 10
68.451678
 20
56.552482
 30
0.0
  0
SEQEND
  5
101
330
100
100
AcDbEntity
  8
001
370
    50
  0
POLYLINE
  5
107
330
1F
100
AcDbEntity
  8
001
370
    50
100
AcDb2dPolyline
 66
     1
 10
0.0
 20
0.0
 30
0.0
  0
VERTEX
  5
109
330
107
100
AcDbEntity
  8
001
370
    50
100
AcDbVertex
100
AcDb2dVertex
 10
67.75644
 20
60.559165
 30
0.0
  0
VERTEX
  5
10A
330
107
100
AcDbEntity
  8
001
370
    50
100
AcDbVertex
100
AcDb2dVertex
 10
68.447269
 20
61.488637
 30
0.0
  0
VERTEX
  5
10B
330
107
100
AcDbEntity
  8
001
370
    50
100
AcDbVertex
100
AcDb2dVertex
 10
69.318459
 20
62.82471
 30
0.0
  0
VERTEX
  5
10C
330
107
100
AcDbEntity
  8
001
370
    50
100
AcDbVertex
100
AcDb2dVertex
 10
70.006902
 20
64.137439
 30
0.0
  0
VERTEX
  5
10D
330
107
100
AcDbEntity
  8
001
370
    50
100
AcDbVertex
100
AcDb2dVertex
 10
70.509406
 20
65.404935
 30
0.0
  0
VERTEX
  5
10E
330
107
100
AcDbEntity
  8
001
370
    50
100
AcDbVertex
100
AcDb2dVertex
 10
70.943167
 20
66.779115
 30
0.0
  0
VERTEX
  5
10F
330
107
100
AcDbEntity
  8
001
370
    50
100
AcDbVertex
100
AcDb2dVertex
 10
71.287943
 20
68.210284
 30
0.0
  0
VERTEX
  5
110
330
107
100
AcDbEntity
  8
001
370
    50
100
AcDbVertex
100
AcDb2dVertex
 10
71.517129
 20
69.67366
 30
0.0
  0
VERTEX
  5
111
330
107
100
AcDbEntity
  8
001
370
    50
100
AcDbVertex
100
AcDb2dVertex
 10
71.62705
 20
71.143386
 30
0.0
  0
VERTEX
  5
112
330
107
100
AcDbEntity
  8
001
370
    50
100
AcDbVertex
100
AcDb2dVertex
 10
71.625883
 20
72.624987
 30
0.0
  0
VERTEX
  5
113
330
107
100
AcDbEntity
  8
001
370
    50
100
AcDbVertex
100
AcDb2dVertex
 10
71.514955
 20
74.102437
 30
0.0
  0
VERTEX
  5
114
330
107
100
AcDbEntity
  8
001
370
    50
100
AcDbVertex
100
AcDb2dVertex
 10
71.294831
 20
75.551426
 30
0.0
  0
VERTEX
  5
115
330
107
100
AcDbEntity
  8
001
370
    50
100
AcDbVertex
100
AcDb2dVertex
 10
70.95555
 20
76.984732
 30
0.0
  0
VERTEX
  5
116
330
107
100
AcDbEntity
  8
001
370
    50
100
AcDbVertex
100
AcDb2dVertex
 10
70.504502
 20
78.369385
 30
0.0
  0
VERTEX
  5
117
330
107
100
AcDbEntity
  8
001
370
    50
100
AcDbVertex
100
AcDb2dVertex
 10
69.968251
 20
79.690229
 30
0.0
  0
VERTEX
  5
118
330
107
100
AcDbEntity
  8
001
370
    50
100
AcDbVertex
100
AcDb2dVertex
 10
69.372932
 20
80.894251
 30
0.0
  0
VERTEX
  5
119
330
107
100
AcDbEntity
  8
001
370
    50
100
AcDbVertex
100
AcDb2dVertex
 10
68.587326
 20
82.125024
 30
0.0
  0
VERTEX
  5
11A
330
107
100
AcDbEntity
  8
001
370
    50
100
AcDbVertex
100
AcDb2dVertex
 10
67.619056
 20
83.356766
 30
0.0
  0
VERTEX
  5
11B
330
107
100
AcDbEntity
  8
001
370
    50
100
AcDbVertex
100
AcDb2dVertex
 10
66.860704
 20
84.204608
 30
0.0
  0
SEQEND
  5
108
330
107
100
AcDbEntity
  8
001
370
    50
  0
POLYLINE
  5
11C
330
1F
100
AcDbEntity
  8
001
370
    50
100
AcDb2dPolyline
 66
     1
 10
0.0
 20
0.0
 30
0.0
  0
VERTEX
  5
11E
330
11C
100
AcDbEntity
  8
001
370
    50
100
AcDbVertex
100
AcDb2dVertex
 10
66.860704
 20
84.204608
 30
0.0
  0
VERTEX
  5
11F
330
11C
100
AcDbEntity
  8
001
370
    50
100
AcDbVertex
100
AcDb2dVertex
 10
66.274172
 20
84.252169
 30
0.0
  0
VERTEX
  5
120
330
11C
100
AcDbEntity
  8
001
370
    50
100
AcDbVertex
100
AcDb2dVertex
 10
65.416872
 20
84.320943
 30
0.0
  0
VERTEX
  5
121
330
11C
100
AcDbEntity
  8
001
370
    50
100
AcDbVertex
100
AcDb2dVertex
 10
64.551618
 20
84.389316
 30
0.0
  0
VERTEX
  5
122
330
11C
100
AcDbEntity
  8
001
370
    50
100
AcDbVertex
100
AcDb2dVertex
 10
63.959562
 20
84.435591
 30
0.0
  0
SEQEND
  5
11D
330
11C
100
AcDbEntity
  8
001
370
    50
  0
LINE
  5
123
330
1F
100
AcDbEntity
  8
001
370
    50
100
AcDbLine
 10
67.75644
 20
63.891
 30
0.0
 11
67.75644
 21
60.559165
 31
0.0
  0
POLYLINE
  5
124
330
1F
100
AcDbEntity
  8
001
370
    50
100
AcDb2dPolyline
 66
     1
 10
0.0
 20
0.0
 30
0.0
  0
VERTEX
  5
126
330
124
100
AcDbEntity
  8
001
370
    50
100
AcDbVertex
100
AcDb2dVertex
 10
67.75644
 20
63.891
 30
0.0
  0
VERTEX
  5
127
330
124
100
AcDbEntity
  8
001
370
    50
100
AcDbVertex
100
AcDb2dVertex
 10
67.713553
 20
64.685715
 30
0.0
  0
VERTEX
  5
128
330
124
100
AcDbEntity
  8
001
370
    50
100
AcDbVertex
100
AcDb2dVertex
 10
67.528644
 20
65.827491
 30
0.0
  0
VERTEX
  5
129
330
124
100
AcDbEntity
  8
001
370
    50
100
AcDbVertex
100
AcDb2dVertex
 10
67.179708
 20
66.914751
 30
0.0
  0
VERTEX
  5
12A
330
124
100
AcDbEntity
  8
001
370
    50
100
AcDbVertex
100
AcDb2dVertex
 10
66.860704
 20
67.632657
 30
0.0
  0
SEQEND
  5
125
330
124
100
AcDbEntity
  8
001
370
    50
  0
LINE
  5
12B
330
1F
100
AcDbEntity
  8
001
370
    50
100
AcDbLine
 10
66.860704
 20
84.204608
 30
0.0
 11
66.860704
 21
67.632657
 31
0.0
  0
POLYLINE
  5
12C
330
1F
100
AcDbEntity
  8
001
370
    50
100
AcDb2dPolyline
 66
     1
 10
0.0
 20
0.0
 30
0.0
  0
VERTEX
  5
12E
330
12C
100
AcDbEntity
  8
001
370
    50
100
AcDbVertex
100
AcDb2dVertex
 10
64.109715
 20
70.394632
 30
0.0
  0
VERTEX
  5
12F
330
12C
100
AcDbEntity
  8
001
370
    50
100
AcDbVertex
100
AcDb2dVertex
 10
64.022055
 20
70.652719
 30
0.0
  0
VERTEX
  5
130
330
12C
100
AcDbEntity
  8
001
370
    50
100
AcDbVertex
100
AcDb2dVertex
 10
63.878838
 20
70.999207
 30
0.0
  0
VERTEX
  5
131
330
12C
100
AcDbEntity
  8
001
370
    50
100
AcDbVertex
100
AcDb2dVertex
 10
63.719071
 20
71.29601
 30
0.0
  0
VERTEX
  5
132
330
12C
100
AcDbEntity
  8
001
370
    50
100
AcDbVertex
100
AcDb2dVertex
 10
63.541086
 20
71.550689
 30
0.0
  0
VERTEX
  5
133
330
12C
100
AcDbEntity
  8
001
370
    50
100
AcDbVertex
100
AcDb2dVertex
 10
63.336379
 20
71.796922
 30
0.0
  0
VERTEX
  5
134
330
12C
100
AcDbEntity
  8
001
370
    50
100
AcDbVertex
100
AcDb2dVertex
 10
63.108019
 20
72.0302
 30
0.0
  0
VERTEX
  5
135
330
12C
100
AcDbEntity
  8
001
370
    50
100
AcDbVertex
100
AcDb2dVertex
 10
62.861034
 20
72.238621
 30
0.0
  0
VERTEX
  5
136
330
12C
100
AcDbEntity
  8
001
370
    50
100
AcDbVertex
100
AcDb2dVertex
 10
62.594463
 20
72.421324
 30
0.0
  0
VERTEX
  5
137
330
12C
100
AcDbEntity
  8
001
370
    50
100
AcDbVertex
100
AcDb2dVertex
 10
62.309339
 20
72.579136
 30
0.0
  0
VERTEX
  5
138
330
12C
100
AcDbEntity
  8
001
370
    50
100
AcDbVertex
100
AcDb2dVertex
 10
62.017997
 20
72.710674
 30
0.0
  0
VERTEX
  5
139
330
12C
100
AcDbEntity
  8
001
370
    50
100
AcDbVertex
100
AcDb2dVertex
 10
61.726021
 20
72.813986
 30
0.0
  0
VERTEX
  5
13A
330
12C
100
AcDbEntity
  8
001
370
    50
100
AcDbVertex
100
AcDb2dVertex
 10
61.398357
 20
72.888343
 30
0.0
  0
VERTEX
  5
13B
330
12C
100
AcDbEntity
  8
001
370
    50
100
AcDbVertex
100
AcDb2dVertex
 10
61.027737
 20
72.933215
 30
0.0
  0
VERTEX
  5
13C
330
12C
100
AcDbEntity
  8
001
370
    50
100
AcDbVertex
100
AcDb2dVertex
 10
60.756753
 20
72.948249
 30
0.0
  0
SEQEND
  5
12D
330
12C
100
AcDbEntity
  8
001
370
    50
  0
POLYLINE
  5
13D
330
1F
100
AcDbEntity
  8
001
370
    50
100
AcDb2dPolyline
 66
     1
 10
0.0
 20
0.0
 30
0.0
  0
VERTEX
  5
13F
330
13D
100
AcDbEntity
  8
001
370
    50
100
AcDbVertex
100
AcDb2dVertex
 10
57.016223
 20
71.391
 30
0.0
  0
VERTEX
  5
140
330
13D
100
AcDbEntity
  8
001
370
    50
100
AcDbVertex
100
AcDb2dVertex
 10
56.402166
 20
71.356011
 30
0.0
  0
VERTEX
  5
141
330
13D
100
AcDbEntity
  8
001
370
    50
100
AcDbVertex
100
AcDb2dVertex
 10
55.56028
 20
71.246889
 30
0.0
  0
VERTEX
  5
142
330
13D
100
AcDbEntity
  8
001
370
    50
100
AcDbVertex
100
AcDb2dVertex
 10
54.812848
 20
71.062191
 30
0.0
  0
VERTEX
  5
143
330
13D
100
AcDbEntity
  8
001
370
    50
100
AcDbVertex
100
AcDb2dVertex
 10
54.160289
 20
70.820096
 30
0.0
  0
VERTEX
  5
144
330
13D
100
AcDbEntity
  8
001
370
    50
100
AcDbVertex
100
AcDb2dVertex
 10
53.528282
 20
70.527387
 30
0.0
  0
VERTEX
  5
145
330
13D
100
AcDbEntity
  8
001
370
    50
100
AcDbVertex
100
AcDb2dVertex
 10
52.870049
 20
70.127022
 30
0.0
  0
VERTEX
  5
146
330
13D
100
AcDbEntity
  8
001
370
    50
100
AcDbVertex
100
AcDb2dVertex
 10
52.197851
 20
69.605847
 30
0.0
  0
VERTEX
  5
147
330
13D
100
AcDbEntity
  8
001
370
    50
100
AcDbVertex
100
AcDb2dVertex
 10
51.739144
 20
69.194301
 30
0.0
  0
SEQEND
  5
13E
330
13D
100
AcDbEntity
  8
001
370
    50
  0
LINE
  5
148
330
1F
100
AcDbEntity
  8
001
370
    50
100
AcDbLine
 10
50.025759
 20
67.472401
 30
0.0
 11
51.739144
 21
69.194301
 31
0.0
  0
POLYLINE
  5
149
330
1F
100
AcDbEntity
  8
001
370
    50
100
AcDb2dPolyline
 66
     1
 10
0.0
 20
0.0
 30
0.0
  0
VERTEX
  5
14B
330
149
100
AcDbEntity
  8
001
370
    50
100
AcDbVertex
100
AcDb2dVertex
 10
50.025759
 20
76.473514
 30
0.0
  0
VERTEX
  5
14C
330
149
100
AcDbEntity
  8
001
370
    50
100
AcDbVertex
100
AcDb2dVertex
 10
50.446966
 20
76.787132
 30
0.0
  0
VERTEX
  5
14D
330
149
100
AcDbEntity
  8
001
370
    50
100
AcDbVertex
100
AcDb2dVertex
 10
50.871649
 20
77.095905
 30
0.0
  0
VERTEX
  5
14E
330
149
100
AcDbEntity
  8
001
370
    50
100
AcDbVertex
100
AcDb2dVertex
 10
51.30236
 20
77.396194
 30
0.0
  0
VERTEX
  5
14F
330
149
100
AcDbEntity
  8
001
370
    50
100
AcDbVertex
100
AcDb2dVertex
 10
51.738087
 20
77.689262
 30
0.0
  0
VERTEX
  5
150
330
149
100
AcDbEntity
  8
001
370
    50
100
AcDbVertex
100
AcDb2dVertex
 10
52.178561
 20
77.97804
 30
0.0
  0
VERTEX
  5
151
330
149
100
AcDbEntity
  8
001
370
    50
100
AcDbVertex
100
AcDb2dVertex
 10
52.622101
 20
78.262037
 30
0.0
  0
VERTEX
  5
152
330
149
100
AcDbEntity
  8
001
370
    50
100
AcDbVertex
100
AcDb2dVertex
 10
53.06857
 20
78.541355
 30
0.0
  0
VERTEX
  5
153
330
149
100
AcDbEntity
  8
001
370
    50
100
AcDbVertex
100
AcDb2dVertex
 10
53.517581
 20
78.816596
 30
0.0
  0
VERTEX
  5
154
330
149
100
AcDbEntity
  8
001
370
    50
100
AcDbVertex
100
AcDb2dVertex
 10
54.425991
 20
79.359295
 30
0.0
  0
VERTEX
  5
155
330
149
100
AcDbEntity
  8
001
370
    50
100
AcDbVertex
100
AcDb2dVertex
 10
55.341963
 20
79.889109
 30
0.0
  0
VERTEX
  5
156
330
149
100
AcDbEntity
  8
001
370
    50
100
AcDbVertex
100
AcDb2dVertex
 10
56.264762
 20
80.407921
 30
0.0
  0
VERTEX
  5
157
330
149
100
AcDbEntity
  8
001
370
    50
100
AcDbVertex
100
AcDb2dVertex
 10
57.19098
 20
80.920658
 30
0.0
  0
SEQEND
  5
14A
330
149
100
AcDbEntity
  8
001
370
    50
  0
POLYLINE
  5
158
330
1F
100
AcDbEntity
  8
001
370
    50
100
AcDb2dPolyline
 66
     1
 10
0.0
 20
0.0
 30
0.0
  0
VERTEX
  5
15A
330
158
100
AcDbEntity
  8
001
370
    50
100
AcDbVertex
100
AcDb2dVertex
 10
57.19098
 20
80.920658
 30
0.0
  0
VERTEX
  5
15B
330
158
100
AcDbEntity
  8
001
370
    50
100
AcDbVertex
100
AcDb2dVertex
 10
57.165711
 20
80.706166
 30
0.0
  0
VERTEX
  5
15C
330
158
100
AcDbEntity
  8
001
370
    50
100
AcDbVertex
100
AcDb2dVertex
 10
57.151318
 20
80.409451
 30
0.0
  0
VERTEX
  5
15D
330
158
100
AcDbEntity
  8
001
370
    50
100
AcDbVertex
100
AcDb2dVertex
 10
57.167394
 20
80.142612
 30
0.0
  0
VERTEX
  5
15E
330
158
100
AcDbEntity
  8
001
370
    50
100
AcDbVertex
100
AcDb2dVertex
 10
57.212323
 20
79.900287
 30
0.0
  0
VERTEX
  5
15F
330
158
100
AcDbEntity
  8
001
370
    50
100
AcDbVertex
100
AcDb2dVertex
 10
57.28058
 20
79.655238
 30
0.0
  0
VERTEX
  5
160
330
158
100
AcDbEntity
  8
001
370
    50
100
AcDbVertex
100
AcDb2dVertex
 10
57.371712
 20
79.412226
 30
0.0
  0
VERTEX
  5
161
330
158
100
AcDbEntity
  8
001
370
    50
100
AcDbVertex
100
AcDb2dVertex
 10
57.486467
 20
79.180957
 30
0.0
  0
VERTEX
  5
162
330
158
100
AcDbEntity
  8
001
370
    50
100
AcDbVertex
100
AcDb2dVertex
 10
57.623518
 20
78.963535
 30
0.0
  0
VERTEX
  5
163
330
158
100
AcDbEntity
  8
001
370
    50
100
AcDbVertex
100
AcDb2dVertex
 10
57.781633
 20
78.759353
 30
0.0
  0
VERTEX
  5
164
330
158
100
AcDbEntity
  8
001
370
    50
100
AcDbVertex
100
AcDb2dVertex
 10
57.958316
 20
78.57101
 30
0.0
  0
VERTEX
  5
165
330
158
100
AcDbEntity
  8
001
370
    50
100
AcDbVertex
100
AcDb2dVertex
 10
58.15238
 20
78.400337
 30
0.0
  0
VERTEX
  5
166
330
158
100
AcDbEntity
  8
001
370
    50
100
AcDbVertex
100
AcDb2dVertex
 10
58.363574
 20
78.249343
 30
0.0
  0
VERTEX
  5
167
330
158
100
AcDbEntity
  8
001
370
    50
100
AcDbVertex
100
AcDb2dVertex
 10
58.591071
 20
78.118914
 30
0.0
  0
VERTEX
  5
168
330
158
100
AcDbEntity
  8
001
370
    50
100
AcDbVertex
100
AcDb2dVertex
 10
58.824123
 20
78.010575
 30
0.0
  0
VERTEX
  5
169
330
158
100
AcDbEntity
  8
001
370
    50
100
AcDbVertex
100
AcDb2dVertex
 10
59.058845
 20
77.925178
 30
0.0
  0
VERTEX
  5
16A
330
158
100
AcDbEntity
  8
001
370
    50
100
AcDbVertex
100
AcDb2dVertex
 10
59.322724
 20
77.863643
 30
0.0
  0
VERTEX
  5
16B
330
158
100
AcDbEntity
  8
001
370
    50
100
AcDbVertex
100
AcDb2dVertex
 10
59.621892
 20
77.826481
 30
0.0
  0
VERTEX
  5
16C
330
158
100
AcDbEntity
  8
001
370
    50
100
AcDbVertex
100
AcDb2dVertex
 10
59.840714
 20
77.814047
 30
0.0
  0
SEQEND
  5
159
330
158
100
AcDbEntity
  8
001
370
    50
  0
POLYLINE
  5
16D
330
1F
100
AcDbEntity
  8
001
370
    50
100
AcDb2dPolyline
 66
     1
 10
0.0
 20
0.0
 30
0.0
  0
VERTEX
  5
16F
330
16D
100
AcDbEntity
  8
001
370
    50
100
AcDbVertex
100
AcDb2dVertex
 10
60.916964
 20
82.892699
 30
0.0
  0
VERTEX
  5
170
330
16D
100
AcDbEntity
  8
001
370
    50
100
AcDbVertex
100
AcDb2dVertex
 10
61.32481
 20
83.102206
 30
0.0
  0
VERTEX
  5
171
330
16D
100
AcDbEntity
  8
001
370
    50
100
AcDbVertex
100
AcDb2dVertex
 10
61.732919
 20
83.311195
 30
0.0
  0
VERTEX
  5
172
330
16D
100
AcDbEntity
  8
001
370
    50
100
AcDbVertex
100
AcDb2dVertex
 10
62.845265
 20
83.87531
 30
0.0
  0
VERTEX
  5
173
330
16D
100
AcDbEntity
  8
001
370
    50
100
AcDbVertex
100
AcDb2dVertex
 10
63.959562
 20
84.435591
 30
0.0
  0
SEQEND
  5
16E
330
16D
100
AcDbEntity
  8
001
370
    50
  0
POLYLINE
  5
174
330
1F
100
AcDbEntity
  8
001
370
    50
100
AcDb2dPolyline
 66
     1
 10
0.0
 20
0.0
 30
0.0
  0
VERTEX
  5
176
330
174
100
AcDbEntity
  8
001
370
    50
100
AcDbVertex
100
AcDb2dVertex
 10
66.860704
 20
67.632657
 30
0.0
  0
VERTEX
  5
177
330
174
100
AcDbEntity
  8
001
370
    50
100
AcDbVertex
100
AcDb2dVertex
 10
66.556211
 20
68.100695
 30
0.0
  0
VERTEX
  5
178
330
174
100
AcDbEntity
  8
001
370
    50
100
AcDbVertex
100
AcDb2dVertex
 10
66.110269
 20
68.711308
 30
0.0
  0
VERTEX
  5
179
330
174
100
AcDbEntity
  8
001
370
    50
100
AcDbVertex
100
AcDb2dVertex
 10
65.677585
 20
69.206829
 30
0.0
  0
VERTEX
  5
17A
330
174
100
AcDbEntity
  8
001
370
    50
100
AcDbVertex
100
AcDb2dVertex
 10
65.183761
 20
69.641515
 30
0.0
  0
VERTEX
  5
17B
330
174
100
AcDbEntity
  8
001
370
    50
100
AcDbVertex
100
AcDb2dVertex
 10
64.575847
 20
70.089006
 30
0.0
  0
VERTEX
  5
17C
330
174
100
AcDbEntity
  8
001
370
    50
100
AcDbVertex
100
AcDb2dVertex
 10
64.109715
 20
70.394632
 30
0.0
  0
SEQEND
  5
175
330
174
100
AcDbEntity
  8
001
370
    50
  0
LINE
  5
17D
330
1F
100
AcDbEntity
  8
001
370
    50
100
AcDbLine
 10
63.959562
 20
87.791
 30
0.0
 11
56.624708
 21
84.448314
 31
0.0
  0
LINE
  5
17E
330
1F
100
AcDbEntity
  8
001
370
    50
100
AcDbLine
 10
56.369546
 20
84.332024
 30
0.0
 11
50.025759
 21
81.419133
 31
0.0
  0
LINE
  5
17F
330
1F
100
AcDbEntity
  8
001
370
    50
100
AcDbLine
 10
56.623668
 20
84.447834
 30
0.0
 11
56.369546
 21
84.332024
 31
0.0
  0
POLYLINE
  5
180
330
1F
100
AcDbEntity
  8
001
370
    50
100
AcDb2dPolyline
 66
     1
 10
0.0
 20
0.0
 30
0.0
  0
VERTEX
  5
182
330
180
100
AcDbEntity
  8
001
370
    50
100
AcDbVertex
100
AcDb2dVertex
 10
60.916964
 20
82.892699
 30
0.0
  0
VERTEX
  5
183
330
180
100
AcDbEntity
  8
001
370
    50
100
AcDbVertex
100
AcDb2dVertex
 10
60.752398
 20
82.949634
 30
0.0
  0
VERTEX
  5
184
330
180
100
AcDbEntity
  8
001
370
    50
100
AcDbVertex
100
AcDb2dVertex
 10
60.586205
 20
83.000994
 30
0.0
  0
VERTEX
  5
185
330
180
100
AcDbEntity
  8
001
370
    50
100
AcDbVertex
100
AcDb2dVertex
 10
60.410684
 20
83.043733
 30
0.0
  0
VERTEX
  5
186
330
180
100
AcDbEntity
  8
001
370
    50
100
AcDbVertex
100
AcDb2dVertex
 10
60.232741
 20
83.075954
 30
0.0
  0
VERTEX
  5
187
330
180
100
AcDbEntity
  8
001
370
    50
100
AcDbVertex
100
AcDb2dVertex
 10
60.044441
 20
83.099575
 30
0.0
  0
VERTEX
  5
188
330
180
100
AcDbEntity
  8
001
370
    50
100
AcDbVertex
100
AcDb2dVertex
 10
59.855215
 20
83.111866
 30
0.0
  0
VERTEX
  5
189
330
180
100
AcDbEntity
  8
001
370
    50
100
AcDbVertex
100
AcDb2dVertex
 10
59.797602
 20
83.11325
 30
0.0
  0
VERTEX
  5
18A
330
180
100
AcDbEntity
  8
001
370
    50
100
AcDbVertex
100
AcDb2dVertex
 10
59.739972
 20
83.114047
 30
0.0
  0
SEQEND
  5
181
330
180
100
AcDbEntity
  8
001
370
    50
  0
POLYLINE
  5
18B
330
1F
100
AcDbEntity
  8
001
370
    50
100
AcDb2dPolyline
 66
     1
 10
0.0
 20
0.0
 30
0.0
  0
VERTEX
  5
18D
330
18B
100
AcDbEntity
  8
001
370
    50
100
AcDbVertex
100
AcDb2dVertex
 10
60.756753
 20
72.948249
 30
0.0
  0
VERTEX
  5
18E
330
18B
100
AcDbEntity
  8
001
370
    50
100
AcDbVertex
100
AcDb2dVertex
 10
60.46937
 20
72.931189
 30
0.0
  0
VERTEX
  5
18F
330
18B
100
AcDbEntity
  8
001
370
    50
100
AcDbVertex
100
AcDb2dVertex
 10
60.076903
 20
72.880916
 30
0.0
  0
VERTEX
  5
190
330
18B
100
AcDbEntity
  8
001
370
    50
100
AcDbVertex
100
AcDb2dVertex
 10
59.731145
 20
72.798183
 30
0.0
  0
VERTEX
  5
191
330
18B
100
AcDbEntity
  8
001
370
    50
100
AcDbVertex
100
AcDb2dVertex
 10
59.423211
 20
72.681506
 30
0.0
  0
VERTEX
  5
192
330
18B
100
AcDbEntity
  8
001
370
    50
100
AcDbVertex
100
AcDb2dVertex
 10
59.115793
 20
72.53119
 30
0.0
  0
VERTEX
  5
193
330
18B
100
AcDbEntity
  8
001
370
    50
100
AcDbVertex
100
AcDb2dVertex
 10
58.820829
 20
72.357693
 30
0.0
  0
VERTEX
  5
194
330
18B
100
AcDbEntity
  8
001
370
    50
100
AcDbVertex
100
AcDb2dVertex
 10
58.553203
 20
72.16493
 30
0.0
  0
VERTEX
  5
195
330
18B
100
AcDbEntity
  8
001
370
    50
100
AcDbVertex
100
AcDb2dVertex
 10
58.292935
 20
71.921936
 30
0.0
  0
VERTEX
  5
196
330
18B
100
AcDbEntity
  8
001
370
    50
100
AcDbVertex
100
AcDb2dVertex
 10
58.033438
 20
71.62172
 30
0.0
  0
VERTEX
  5
197
330
18B
100
AcDbEntity
  8
001
370
    50
100
AcDbVertex
100
AcDb2dVertex
 10
57.859838
 20
71.391
 30
0.0
  0
SEQEND
  5
18C
330
18B
100
AcDbEntity
  8
001
370
    50
  0
POLYLINE
  5
198
330
1F
100
AcDbEntity
  8
001
370
    50
100
AcDb2dPolyline
 66
     1
 10
0.0
 20
0.0
 30
0.0
  0
VERTEX
  5
19A
330
198
100
AcDbEntity
  8
001
370
    50
100
AcDbVertex
100
AcDb2dVertex
 10
63.048266
 20
66.391075
 30
0.0
  0
VERTEX
  5
19B
330
198
100
AcDbEntity
  8
001
370
    50
100
AcDbVertex
100
AcDb2dVertex
 10
63.296073
 20
66.550011
 30
0.0
  0
VERTEX
  5
19C
330
198
100
AcDbEntity
  8
001
370
    50
100
AcDbVertex
100
AcDb2dVertex
 10
63.62069
 20
66.792154
 30
0.0
  0
VERTEX
  5
19D
330
198
100
AcDbEntity
  8
001
370
    50
100
AcDbVertex
100
AcDb2dVertex
 10
63.887082
 20
67.041504
 30
0.0
  0
VERTEX
  5
19E
330
198
100
AcDbEntity
  8
001
370
    50
100
AcDbVertex
100
AcDb2dVertex
 10
64.102061
 20
67.299867
 30
0.0
  0
VERTEX
  5
19F
330
198
100
AcDbEntity
  8
001
370
    50
100
AcDbVertex
100
AcDb2dVertex
 10
64.299085
 20
67.584548
 30
0.0
  0
VERTEX
  5
1A0
330
198
100
AcDbEntity
  8
001
370
    50
100
AcDbVertex
100
AcDb2dVertex
 10
64.473052
 20
67.893831
 30
0.0
  0
VERTEX
  5
1A1
330
198
100
AcDbEntity
  8
001
370
    50
100
AcDbVertex
100
AcDb2dVertex
 10
64.612689
 20
68.220356
 30
0.0
  0
VERTEX
  5
1A2
330
198
100
AcDbEntity
  8
001
370
    50
100
AcDbVertex
100
AcDb2dVertex
 10
64.71877
 20
68.550199
 30
0.0
  0
VERTEX
  5
1A3
330
198
100
AcDbEntity
  8
001
370
    50
100
AcDbVertex
100
AcDb2dVertex
 10
64.793206
 20
68.878723
 30
0.0
  0
VERTEX
  5
1A4
330
198
100
AcDbEntity
  8
001
370
    50
100
AcDbVertex
100
AcDb2dVertex
 10
64.82935
 20
69.242622
 30
0.0
  0
VERTEX
  5
1A5
330
198
100
AcDbEntity
  8
001
370
    50
100
AcDbVertex
100
AcDb2dVertex
 10
64.824544
 20
69.648914
 30
0.0
  0
VERTEX
  5
1A6
330
198
100
AcDbEntity
  8
001
370
    50
100
AcDbVertex
100
AcDb2dVertex
 10
64.800352
 20
69.943299
 30
0.0
  0
SEQEND
  5
199
330
198
100
AcDbEntity
  8
001
370
    50
  0
POLYLINE
  5
1A7
330
1F
100
AcDbEntity
  8
001
370
    50
100
AcDb2dPolyline
 66
     1
 10
0.0
 20
0.0
 30
0.0
  0
VERTEX
  5
1A9
330
1A7
100
AcDbEntity
  8
001
370
    50
100
AcDbVertex
100
AcDb2dVertex
 10
59.840714
 20
77.814047
 30
0.0
  0
VERTEX
  5
1AA
330
1A7
100
AcDbEntity
  8
001
370
    50
100
AcDbVertex
100
AcDb2dVertex
 10
60.046293
 20
77.825016
 30
0.0
  0
VERTEX
  5
1AB
330
1A7
100
AcDbEntity
  8
001
370
    50
100
AcDbVertex
100
AcDb2dVertex
 10
60.327584
 20
77.857815
 30
0.0
  0
VERTEX
  5
1AC
330
1A7
100
AcDbEntity
  8
001
370
    50
100
AcDbVertex
100
AcDb2dVertex
 10
60.576286
 20
77.912168
 30
0.0
  0
VERTEX
  5
1AD
330
1A7
100
AcDbEntity
  8
001
370
    50
100
AcDbVertex
100
AcDb2dVertex
 10
60.798372
 20
77.987671
 30
0.0
  0
VERTEX
  5
1AE
330
1A7
100
AcDbEntity
  8
001
370
    50
100
AcDbVertex
100
AcDb2dVertex
 10
61.019945
 20
78.0836
 30
0.0
  0
VERTEX
  5
1AF
330
1A7
100
AcDbEntity
  8
001
370
    50
100
AcDbVertex
100
AcDb2dVertex
 10
61.237527
 20
78.199326
 30
0.0
  0
VERTEX
  5
1B0
330
1A7
100
AcDbEntity
  8
001
370
    50
100
AcDbVertex
100
AcDb2dVertex
 10
61.441264
 20
78.333657
 30
0.0
  0
VERTEX
  5
1B1
330
1A7
100
AcDbEntity
  8
001
370
    50
100
AcDbVertex
100
AcDb2dVertex
 10
61.630542
 20
78.48579
 30
0.0
  0
VERTEX
  5
1B2
330
1A7
100
AcDbEntity
  8
001
370
    50
100
AcDbVertex
100
AcDb2dVertex
 10
61.805302
 20
78.654092
 30
0.0
  0
VERTEX
  5
1B3
330
1A7
100
AcDbEntity
  8
001
370
    50
100
AcDbVertex
100
AcDb2dVertex
 10
61.964436
 20
78.837599
 30
0.0
  0
VERTEX
  5
1B4
330
1A7
100
AcDbEntity
  8
001
370
    50
100
AcDbVertex
100
AcDb2dVertex
 10
62.105644
 20
79.03433
 30
0.0
  0
VERTEX
  5
1B5
330
1A7
100
AcDbEntity
  8
001
370
    50
100
AcDbVertex
100
AcDb2dVertex
 10
62.228179
 20
79.243134
 30
0.0
  0
VERTEX
  5
1B6
330
1A7
100
AcDbEntity
  8
001
370
    50
100
AcDbVertex
100
AcDb2dVertex
 10
62.330856
 20
79.461815
 30
0.0
  0
VERTEX
  5
1B7
330
1A7
100
AcDbEntity
  8
001
370
    50
100
AcDbVertex
100
AcDb2dVertex
 10
62.41306
 20
79.688997
 30
0.0
  0
VERTEX
  5
1B8
330
1A7
100
AcDbEntity
  8
001
370
    50
100
AcDbVertex
100
AcDb2dVertex
 10
62.473896
 20
79.922424
 30
0.0
  0
VERTEX
  5
1B9
330
1A7
100
AcDbEntity
  8
001
370
    50
100
AcDbVertex
100
AcDb2dVertex
 10
62.512971
 20
80.160461
 30
0.0
  0
VERTEX
  5
1BA
330
1A7
100
AcDbEntity
  8
001
370
    50
100
AcDbVertex
100
AcDb2dVertex
 10
62.529896
 20
80.400944
 30
0.0
  0
VERTEX
  5
1BB
330
1A7
100
AcDbEntity
  8
001
370
    50
100
AcDbVertex
100
AcDb2dVertex
 10
62.524613
 20
80.641954
 30
0.0
  0
VERTEX
  5
1BC
330
1A7
100
AcDbEntity
  8
001
370
    50
100
AcDbVertex
100
AcDb2dVertex
 10
62.497129
 20
80.881518
 30
0.0
  0
VERTEX
  5
1BD
330
1A7
100
AcDbEntity
  8
001
370
    50
100
AcDbVertex
100
AcDb2dVertex
 10
62.4476
 20
81.11757
 30
0.0
  0
VERTEX
  5
1BE
330
1A7
100
AcDbEntity
  8
001
370
    50
100
AcDbVertex
100
AcDb2dVertex
 10
62.376306
 20
81.348416
 30
0.0
  0
VERTEX
  5
1BF
330
1A7
100
AcDbEntity
  8
001
370
    50
100
AcDbVertex
100
AcDb2dVertex
 10
62.284476
 20
81.571599
 30
0.0
  0
VERTEX
  5
1C0
330
1A7
100
AcDbEntity
  8
001
370
    50
100
AcDbVertex
100
AcDb2dVertex
 10
62.172797
 20
81.785618
 30
0.0
  0
VERTEX
  5
1C1
330
1A7
100
AcDbEntity
  8
001
370
    50
100
AcDbVertex
100
AcDb2dVertex
 10
62.04063
 20
81.989043
 30
0.0
  0
VERTEX
  5
1C2
330
1A7
100
AcDbEntity
  8
001
370
    50
100
AcDbVertex
100
AcDb2dVertex
 10
61.888211
 20
82.180885
 30
0.0
  0
VERTEX
  5
1C3
330
1A7
100
AcDbEntity
  8
001
370
    50
100
AcDbVertex
100
AcDb2dVertex
 10
61.724117
 20
82.356114
 30
0.0
  0
VERTEX
  5
1C4
330
1A7
100
AcDbEntity
  8
001
370
    50
100
AcDbVertex
100
AcDb2dVertex
 10
61.551154
 20
82.512907
 30
0.0
  0
VERTEX
  5
1C5
330
1A7
100
AcDbEntity
  8
001
370
    50
100
AcDbVertex
100
AcDb2dVertex
 10
61.345392
 20
82.660686
 30
0.0
  0
VERTEX
  5
1C6
330
1A7
100
AcDbEntity
  8
001
370
    50
100
AcDbVertex
100
AcDb2dVertex
 10
61.100859
 20
82.801653
 30
0.0
  0
VERTEX
  5
1C7
330
1A7
100
AcDbEntity
  8
001
370
    50
100
AcDbVertex
100
AcDb2dVertex
 10
60.916964
 20
82.892699
 30
0.0
  0
SEQEND
  5
1A8
330
1A7
100
AcDbEntity
  8
001
370
    50
  0
POLYLINE
  5
1C8
330
1F
100
AcDbEntity
  8
001
370
    50
100
AcDb2dPolyline
 66
     1
 10
0.0
 20
0.0
 30
0.0
  0
VERTEX
  5
1CA
330
1C8
100
AcDbEntity
  8
001
370
    50
100
AcDbVertex
100
AcDb2dVertex
 10
59.739972
 20
83.114047
 30
0.0
  0
VERTEX
  5
1CB
330
1C8
100
AcDbEntity
  8
001
370
    50
100
AcDbVertex
100
AcDb2dVertex
 10
59.664504
 20
83.112843
 30
0.0
  0
VERTEX
  5
1CC
330
1C8
100
AcDbEntity
  8
001
370
    50
100
AcDbVertex
100
AcDb2dVertex
 10
59.589074
 20
83.110532
 30
0.0
  0
VERTEX
  5
1CD
330
1C8
100
AcDbEntity
  8
001
370
    50
100
AcDbVertex
100
AcDb2dVertex
 10
59.449022
 20
83.100801
 30
0.0
  0
VERTEX
  5
1CE
330
1C8
100
AcDbEntity
  8
001
370
    50
100
AcDbVertex
100
AcDb2dVertex
 10
59.309577
 20
83.084067
 30
0.0
  0
VERTEX
  5
1CF
330
1C8
100
AcDbEntity
  8
001
370
    50
100
AcDbVertex
100
AcDb2dVertex
 10
59.160414
 20
83.058771
 30
0.0
  0
VERTEX
  5
1D0
330
1C8
100
AcDbEntity
  8
001
370
    50
100
AcDbVertex
100
AcDb2dVertex
 10
59.012769
 20
83.025814
 30
0.0
  0
VERTEX
  5
1D1
330
1C8
100
AcDbEntity
  8
001
370
    50
100
AcDbVertex
100
AcDb2dVertex
 10
58.858507
 20
82.98224
 30
0.0
  0
VERTEX
  5
1D2
330
1C8
100
AcDbEntity
  8
001
370
    50
100
AcDbVertex
100
AcDb2dVertex
 10
58.707134
 20
82.929553
 30
0.0
  0
VERTEX
  5
1D3
330
1C8
100
AcDbEntity
  8
001
370
    50
100
AcDbVertex
100
AcDb2dVertex
 10
58.602842
 20
82.886993
 30
0.0
  0
VERTEX
  5
1D4
330
1C8
100
AcDbEntity
  8
001
370
    50
100
AcDbVertex
100
AcDb2dVertex
 10
58.500503
 20
82.839937
 30
0.0
  0
VERTEX
  5
1D5
330
1C8
100
AcDbEntity
  8
001
370
    50
100
AcDbVertex
100
AcDb2dVertex
 10
58.399112
 20
82.787794
 30
0.0
  0
VERTEX
  5
1D6
330
1C8
100
AcDbEntity
  8
001
370
    50
100
AcDbVertex
100
AcDb2dVertex
 10
58.30024
 20
82.731031
 30
0.0
  0
VERTEX
  5
1D7
330
1C8
100
AcDbEntity
  8
001
370
    50
100
AcDbVertex
100
AcDb2dVertex
 10
58.204915
 20
82.670071
 30
0.0
  0
VERTEX
  5
1D8
330
1C8
100
AcDbEntity
  8
001
370
    50
100
AcDbVertex
100
AcDb2dVertex
 10
58.112579
 20
82.60466
 30
0.0
  0
VERTEX
  5
1D9
330
1C8
100
AcDbEntity
  8
001
370
    50
100
AcDbVertex
100
AcDb2dVertex
 10
58.025657
 20
82.536804
 30
0.0
  0
VERTEX
  5
1DA
330
1C8
100
AcDbEntity
  8
001
370
    50
100
AcDbVertex
100
AcDb2dVertex
 10
57.94204
 20
82.464916
 30
0.0
  0
VERTEX
  5
1DB
330
1C8
100
AcDbEntity
  8
001
370
    50
100
AcDbVertex
100
AcDb2dVertex
 10
57.840545
 20
82.36737
 30
0.0
  0
VERTEX
  5
1DC
330
1C8
100
AcDbEntity
  8
001
370
    50
100
AcDbVertex
100
AcDb2dVertex
 10
57.745256
 20
82.263722
 30
0.0
  0
VERTEX
  5
1DD
330
1C8
100
AcDbEntity
  8
001
370
    50
100
AcDbVertex
100
AcDb2dVertex
 10
57.661166
 20
82.160504
 30
0.0
  0
VERTEX
  5
1DE
330
1C8
100
AcDbEntity
  8
001
370
    50
100
AcDbVertex
100
AcDb2dVertex
 10
57.583318
 20
82.052524
 30
0.0
  0
VERTEX
  5
1DF
330
1C8
100
AcDbEntity
  8
001
370
    50
100
AcDbVertex
100
AcDb2dVertex
 10
57.479453
 20
81.883323
 30
0.0
  0
VERTEX
  5
1E0
330
1C8
100
AcDbEntity
  8
001
370
    50
100
AcDbVertex
100
AcDb2dVertex
 10
57.3903
 20
81.705692
 30
0.0
  0
VERTEX
  5
1E1
330
1C8
100
AcDbEntity
  8
001
370
    50
100
AcDbVertex
100
AcDb2dVertex
 10
57.320059
 20
81.531774
 30
0.0
  0
VERTEX
  5
1E2
330
1C8
100
AcDbEntity
  8
001
370
    50
100
AcDbVertex
100
AcDb2dVertex
 10
57.26542
 20
81.352741
 30
0.0
  0
VERTEX
  5
1E3
330
1C8
100
AcDbEntity
  8
001
370
    50
100
AcDbVertex
100
AcDb2dVertex
 10
57.221965
 20
81.138113
 30
0.0
  0
VERTEX
  5
1E4
330
1C8
100
AcDbEntity
  8
001
370
    50
100
AcDbVertex
100
AcDb2dVertex
 10
57.19098
 20
80.920658
 30
0.0
  0
SEQEND
  5
1C9
330
1C8
100
AcDbEntity
  8
001
370
    50
  0
POLYLINE
  5
1E5
330
1F
100
AcDbEntity
  8
001
370
    50
100
AcDb2dPolyline
 66
     1
 10
0.0
 20
0.0
 30
0.0
  0
VERTEX
  5
1E7
330
1E5
100
AcDbEntity
  8
001
370
    50
100
AcDbVertex
100
AcDb2dVertex
 10
57.612142
 20
71.391
 30
0.0
  0
VERTEX
  5
1E8
330
1E5
100
AcDbEntity
  8
001
370
    50
100
AcDbVertex
100
AcDb2dVertex
 10
56.998084
 20
71.356011
 30
0.0
  0
VERTEX
  5
1E9
330
1E5
100
AcDbEntity
  8
001
370
    50
100
AcDbVertex
100
AcDb2dVertex
 10
56.156199
 20
71.246889
 30
0.0
  0
VERTEX
  5
1EA
330
1E5
100
AcDbEntity
  8
001
370
    50
100
AcDbVertex
100
AcDb2dVertex
 10
55.408766
 20
71.062191
 30
0.0
  0
VERTEX
  5
1EB
330
1E5
100
AcDbEntity
  8
001
370
    50
100
AcDbVertex
100
AcDb2dVertex
 10
54.756207
 20
70.820096
 30
0.0
  0
VERTEX
  5
1EC
330
1E5
100
AcDbEntity
  8
001
370
    50
100
AcDbVertex
100
AcDb2dVertex
 10
54.124201
 20
70.527387
 30
0.0
  0
VERTEX
  5
1ED
330
1E5
100
AcDbEntity
  8
001
370
    50
100
AcDbVertex
100
AcDb2dVertex
 10
53.465967
 20
70.127022
 30
0.0
  0
VERTEX
  5
1EE
330
1E5
100
AcDbEntity
  8
001
370
    50
100
AcDbVertex
100
AcDb2dVertex
 10
52.79377
 20
69.605847
 30
0.0
  0
VERTEX
  5
1EF
330
1E5
100
AcDbEntity
  8
001
370
    50
100
AcDbVertex
100
AcDb2dVertex
 10
52.335063
 20
69.194301
 30
0.0
  0
SEQEND
  5
1E6
330
1E5
100
AcDbEntity
  8
001
370
    50
  0
LINE
  5
1F0
330
1F
100
AcDbEntity
  8
001
370
    50
100
AcDbLine
 10
52.335063
 20
69.194301
 30
0.0
 11
50.025759
 21
66.873522
 31
0.0
  0
LINE
  5
1F1
330
1F
100
AcDbEntity
  8
001
370
    50
100
AcDbLine
 10
57.016223
 20
71.391
 30
0.0
 11
58.455757
 21
71.391
 31
0.0
  0
LINE
  5
1F2
330
1F
100
AcDbEntity
  8
001
370
    50
100
AcDbLine
 10
82.525759
 20
81.891
 30
0.0
 11
175.525759
 21
81.891
 31
0.0
  0
LINE
  5
1F3
330
1F
100
AcDbEntity
  8
001
370
    50
100
AcDbLine
 10
82.525759
 20
61.891
 30
0.0
 11
175.525759
 21
61.891
 31
0.0
  0
LINE
  5
1F4
330
1F
100
AcDbEntity
  8
001
370
    50
100
AcDbLine
 10
179.525759
 20
71.891
 30
0.0
 11
183.855886
 21
74.391
 31
0.0
  0
LINE
  5
1F5
330
1F
100
AcDbEntity
  8
001
370
    50
100
AcDbLine
 10
179.525759
 20
71.891
 30
0.0
 11
183.855886
 21
69.391
 31
0.0
  0
LINE
  5
1F6
330
1F
100
AcDbEntity
  8
001
  6
CENTER
370
     9
100
AcDbLine
 10
46.821456
 20
71.891
 30
0.0
 11
183.302934
 21
71.891
 31
0.0
  0
LINE
  5
1F7
330
1F
100
AcDbEntity
  8
001
370
    50
100
AcDbLine
 10
50.025759
 20
71.891
 30
0.0
 11
45.695632
 21
74.391
 31
0.0
  0
LINE
  5
1F8
330
1F
100
AcDbEntity
  8
001
370
    50
100
AcDbLine
 10
50.025759
 20
71.891
 30
0.0
 11
45.695632
 21
69.391
 31
0.0
  0
ARC
  5
1F9
330
1F
100
AcDbEntity
  8
001
370
    50
100
AcDbCircle
 10
175.525759
 20
77.891
 30
0.0
 40
4.0
100
AcDbArc
 50
0.0
 51
90.0
  0
ARC
  5
1FA
330
1F
100
AcDbEntity
  8
001
370
    50
100
AcDbCircle
 10
175.525759
 20
65.891
 30
0.0
 40
4.0
100
AcDbArc
 50
270.0
 51
0.0
  0
LINE
  5
1FB
330
1F
100
AcDbEntity
  8
001
370
    50
100
AcDbLine
 10
62.075471
 20
71.141458
 30
0.0
 11
49.696328
 21
62.473489
 31
0.0
  0
LINE
  5
1FC
330
1F
100
AcDbEntity
  8
001
370
    50
100
AcDbLine
 10
64.021237
 20
55.785479
 30
0.0
 11
62.70338
 21
70.848659
 31
0.0
  0
ARC
  5
1FD
330
1F
100
AcDbEntity
  8
001
370
    50
100
AcDbCircle
 10
49.925759
 20
62.145828
 30
0.0
 40
0.4
100
AcDbArc
 50
125.0
 51
245.0
  0
ARC
  5
1FE
330
1F
100
AcDbEntity
  8
001
370
    50
100
AcDbCircle
 10
62.304902
 20
70.813797
 30
0.0
 40
0.4
100
AcDbArc
 50
5.0
 51
125.0
  0
CIRCLE
  5
1FF
330
1F
100
AcDbEntity
  8
001
370
    50
100
AcDbCircle
 10
58.617557
 20
62.906262
 30
0.0
 40
1.9
  0
LINE
  5
200
330
1F
100
AcDbEntity
  8
001
370
     9
100
AcDbLine
 10
63.540111
 20
55.356
 30
0.0
 11
63.472618
 21
55.387472
 31
0.0
  0
LINE
  5
201
330
1F
100
AcDbEntity
  8
001
370
     9
100
AcDbLine
 10
49.525759
 20
61.891
 30
0.0
 11
49.756711
 21
61.783305
 31
0.0
  0
LINE
  5
202
330
1F
100
AcDbEntity
  8
001
370
    50
100
AcDbLine
 10
63.460737
 20
55.393013
 30
0.0
 11
49.756711
 21
61.783305
 31
0.0
  0
LINE
  5
203
330
1F
100
AcDbEntity
  8
001
370
     9
100
AcDbLine
 10
49.525759
 20
61.891
 30
0.0
 11
49.525759
 21
62.145828
 31
0.0
  0
POLYLINE
  5
204
330
1F
100
AcDbEntity
  8
001
370
    50
100
AcDb2dPolyline
 66
     1
 10
0.0
 20
0.0
 30
0.0
  0
VERTEX
  5
206
330
204
100
AcDbEntity
  8
001
370
    50
100
AcDbVertex
100
AcDb2dVertex
 10
58.455757
 20
71.391
 30
0.0
  0
VERTEX
  5
207
330
204
100
AcDbEntity
  8
001
370
    50
100
AcDbVertex
100
AcDb2dVertex
 10
58.307859
 20
71.137784
 30
0.0
  0
VERTEX
  5
208
330
204
100
AcDbEntity
  8
001
370
    50
100
AcDbVertex
100
AcDb2dVertex
 10
58.12965
 20
70.774389
 30
0.0
  0
VERTEX
  5
209
330
204
100
AcDbEntity
  8
001
370
    50
100
AcDbVertex
100
AcDb2dVertex
 10
58.006687
 20
70.428414
 30
0.0
  0
VERTEX
  5
20A
330
204
100
AcDbEntity
  8
001
370
    50
100
AcDbVertex
100
AcDb2dVertex
 10
57.931837
 20
70.104991
 30
0.0
  0
VERTEX
  5
20B
330
204
100
AcDbEntity
  8
001
370
    50
100
AcDbVertex
100
AcDb2dVertex
 10
57.882791
 20
69.776542
 30
0.0
  0
VERTEX
  5
20C
330
204
100
AcDbEntity
  8
001
370
    50
100
AcDbVertex
100
AcDb2dVertex
 10
57.87019
 20
69.409452
 30
0.0
  0
VERTEX
  5
20D
330
204
100
AcDbEntity
  8
001
370
    50
100
AcDbVertex
100
AcDb2dVertex
 10
57.902559
 20
69.005596
 30
0.0
  0
VERTEX
  5
20E
330
204
100
AcDbEntity
  8
001
370
    50
100
AcDbVertex
100
AcDb2dVertex
 10
57.947165
 20
68.715457
 30
0.0
  0
VERTEX
  5
20F
330
204
100
AcDbEntity
  8
001
370
    50
100
AcDbVertex
100
AcDb2dVertex
 10
57.990239
 20
68.513283
 30
0.0
  0
VERTEX
  5
210
330
204
100
AcDbEntity
  8
001
370
    50
100
AcDbVertex
100
AcDb2dVertex
 10
58.033314
 20
68.311109
 30
0.0
  0
SEQEND
  5
205
330
204
100
AcDbEntity
  8
001
370
    50
  0
LINE
  5
211
330
1F
100
AcDbEntity
  8
001
370
    50
100
AcDbLine
 10
50.025759
 20
62.704158
 30
0.0
 11
50.025759
 21
81.419133
 31
0.0
  0
LINE
  5
212
330
1F
100
AcDbEntity
  8
001
370
    50
100
AcDbLine
 10
77.525759
 20
55.991
 30
0.0
 11
64.003256
 21
55.991
 31
0.0
  0
POLYLINE
  5
213
330
1F
100
AcDbEntity
  8
001
370
    50
100
AcDb2dPolyline
 66
     1
 10
0.0
 20
0.0
 30
0.0
  0
VERTEX
  5
215
330
213
100
AcDbEntity
  8
001
370
    50
100
AcDbVertex
100
AcDb2dVertex
 10
63.964223
 20
56.437157
 30
0.0
  0
VERTEX
  5
216
330
213
100
AcDbEntity
  8
001
370
    50
100
AcDbVertex
100
AcDb2dVertex
 10
63.992632
 20
56.437844
 30
0.0
  0
VERTEX
  5
217
330
213
100
AcDbEntity
  8
001
370
    50
100
AcDbVertex
100
AcDb2dVertex
 10
64.021042
 20
56.438532
 30
0.0
  0
VERTEX
  5
218
330
213
100
AcDbEntity
  8
001
370
    50
100
AcDbVertex
100
AcDb2dVertex
 10
64.922689
 20
56.460662
 30
0.0
  0
VERTEX
  5
219
330
213
100
AcDbEntity
  8
001
370
    50
100
AcDbVertex
100
AcDb2dVertex
 10
66.240459
 20
56.493919
 30
0.0
  0
VERTEX
  5
21A
330
213
100
AcDbEntity
  8
001
370
    50
100
AcDbVertex
100
AcDb2dVertex
 10
67.55338
 20
56.528321
 30
0.0
  0
VERTEX
  5
21B
330
213
100
AcDbEntity
  8
001
370
    50
100
AcDbVertex
100
AcDb2dVertex
 10
68.451678
 20
56.552482
 30
0.0
  0
SEQEND
  5
214
330
213
100
AcDbEntity
  8
001
370
    50
  0
LINE
  5
21C
330
1F
100
AcDbEntity
  8
001
370
     9
100
AcDbLine
 10
63.540111
 20
55.356
 30
0.0
 11
63.629641
 21
55.356
 31
0.0
  0
ARC
  5
21D
330
1F
100
AcDbEntity
  8
001
370
    50
100
AcDbCircle
 10
63.627692
 20
55.751049
 30
0.0
 40
0.3950487965979911
100
AcDbArc
 50
245.0
 51
5.0
  0
ARC
  5
21E
330
1F
100
AcDbEntity
  8
001
370
    50
100
AcDbCircle
 10
49.925759
 20
81.636172
 30
0.0
 40
0.4
100
AcDbArc
 50
115.0
 51
235.0
  0
LINE
  5
21F
330
1F
100
AcDbEntity
  8
001
370
     9
100
AcDbLine
 10
63.540111
 20
88.426
 30
0.0
 11
63.472618
 21
88.394527
 31
0.0
  0
LINE
  5
220
330
1F
100
AcDbEntity
  8
001
370
     9
100
AcDbLine
 10
49.525759
 20
81.891
 30
0.0
 11
49.756711
 21
81.998695
 31
0.0
  0
LINE
  5
221
330
1F
100
AcDbEntity
  8
001
370
    50
100
AcDbLine
 10
63.460737
 20
88.388987
 30
0.0
 11
49.756711
 21
81.998695
 31
0.0
  0
LINE
  5
222
330
1F
100
AcDbEntity
  8
001
370
     9
100
AcDbLine
 10
49.525759
 20
81.891
 30
0.0
 11
49.525759
 21
81.636172
 31
0.0
  0
LINE
  5
223
330
1F
100
AcDbEntity
  8
001
370
     9
100
AcDbLine
 10
63.540111
 20
88.426
 30
0.0
 11
63.629641
 21
88.426
 31
0.0
  0
ARC
  5
224
330
1F
100
AcDbEntity
  8
001
370
    50
100
AcDbCircle
 10
63.627692
 20
88.030951
 30
0.0
 40
0.3950487965979911
100
AcDbArc
 50
355.0
 51
115.0
  0
LINE
  5
225
330
1F
100
AcDbEntity
  8
001
370
    50
100
AcDbLine
 10
64.021237
 20
87.99652
 30
0.0
 11
64.003256
 21
87.791
 31
0.0
  0
LINE
  5
226
330
1F
100
AcDbEntity
  8
001
370
    50
100
AcDbLine
 10
50.025759
 20
81.077841
 30
0.0
 11
49.696328
 21
81.308511
 31
0.0
  0
TEXT
  5
227
330
1F
100
AcDbEntity
  8
001
370
    30
100
AcDbText
 10
32.730291
 20
107.749451
 30
0.0
 40
4.0
  1
ＮＫ６５３３Ｔ－２０（ＮＥＷ）
 41
0.833333
100
AcDbText
  0
ARC
  5
228
330
1F
100
AcDbEntity
  8
001
370
    50
100
AcDbCircle
 10
77.525759
 20
85.791
 30
0.0
 40
2.0
100
AcDbArc
 50
0.0
 51
90.0
  0
ARC
  5
229
330
1F
100
AcDbEntity
  8
001
370
    50
100
AcDbCircle
 10
77.525759
 20
57.991
 30
0.0
 40
2.0
100
AcDbArc
 50
270.0
 51
0.0
  0
LINE
  5
22A
330
1F
100
AcDbEntity
  8
001
370
    50
100
AcDbLine
 10
82.525759
 20
61.891
 30
0.0
 11
82.525759
 21
81.891
 31
0.0
  0
LINE
  5
22B
330
1F
100
AcDbEntity
  8
001
370
    50
100
AcDbLine
 10
82.525759
 20
81.391
 30
0.0
 11
79.525759
 21
81.391
 31
0.0
  0
LINE
  5
22C
330
1F
100
AcDbEntity
  8
001
370
    50
100
AcDbLine
 10
82.525759
 20
62.391
 30
0.0
 11
79.525759
 21
62.391
 31
0.0
  0
ENDSEC
  0
SECTION
  2
OBJECTS
  0
DICTIONARY
  5
C
330
0
100
AcDbDictionary
281
     1
  3
ACAD_GROUP
350
D
  3
ACAD_LAYOUT
350
1A
  3
ACAD_MLEADERSTYLE
350
230
  3
ACAD_MLINESTYLE
350
17
  3
ACAD_PLOTSETTINGS
350
19
  3
ACAD_PLOTSTYLENAME
350
E
  3
ACAD_SCALELIST
350
3B
  3
ACAD_TABLESTYLE
350
22F
  3
ACAD_VISUALSTYLE
350
2A
  3
AcDbVariableDictionary
350
22D
  0
DICTIONARY
  5
D
102
{ACAD_REACTORS
330
C
102
}
330
C
100
AcDbDictionary
281
     1
  0
DICTIONARY
  5
1A
102
{ACAD_REACTORS
330
C
102
}
330
C
100
AcDbDictionary
281
     1
  3
Layout1
350
1E
  3
Layout2
350
26
  3
Model
350
22
  0
DICTIONARY
  5
230
102
{ACAD_REACTORS
330
C
102
}
330
C
100
AcDbDictionary
281
     1
  0
DICTIONARY
  5
17
102
{ACAD_REACTORS
330
C
102
}
330
C
100
AcDbDictionary
281
     1
  3
Standard
350
18
  0
DICTIONARY
  5
19
102
{ACAD_REACTORS
330
C
102
}
330
C
100
AcDbDictionary
281
     1
  0
ACDBDICTIONARYWDFLT
  5
E
102
{ACAD_REACTORS
330
C
102
}
330
C
100
AcDbDictionary
281
     1
  3
Normal
350
F
100
AcDbDictionaryWithDefault
340
F
  0
DICTIONARY
  5
3B
102
{ACAD_REACTORS
330
C
102
}
330
C
100
AcDbDictionary
281
     1
  3
A0
350
3C
  3
A1
350
3D
  3
A2
350
3E
  3
A3
350
3F
  3
A4
350
40
  3
A5
350
41
  3
A6
350
42
  3
A7
350
43
  3
A8
350
44
  3
A9
350
45
  3
B0
350
46
  3
B1
350
47
  3
B2
350
48
  3
B3
350
49
  3
B4
350
4A
  3
B5
350
4B
  3
B6
350
4C
  3
B7
350
4D
  3
B8
350
4E
  3
B9
350
4F
  3
C0
350
50
  3
C1
350
51
  3
C2
350
52
  3
C3
350
53
  3
C4
350
54
  3
C5
350
55
  3
C6
350
56
  3
C7
350
57
  3
C8
350
58
  3
C9
350
59
  3
D0
350
5A
  3
D1
350
5B
  3
D2
350
5C
  0
DICTIONARY
  5
22F
102
{ACAD_REACTORS
330
C
102
}
330
C
100
AcDbDictionary
281
     1
  0
DICTIONARY
  5
2A
102
{ACAD_REACTORS
330
C
102
}
330
C
100
AcDbDictionary
281
     1
  3
2dWireframe
350
2F
  3
3D Hidden
350
31
  3
3dWireframe
350
30
  3
Basic
350
32
  3
Brighten
350
36
  3
ColorChange
350
3A
  3
Conceptual
350
34
  3
Dim
350
35
  3
Facepattern
350
39
  3
Flat
350
2B
  3
FlatWithEdges
350
2C
  3
Gouraud
350
2D
  3
GouraudWithEdges
350
2E
  3
Linepattern
350
38
  3
Realistic
350
33
  3
Thicken
350
37
  0
DICTIONARY
  5
22D
102
{ACAD_REACTORS
330
C
102
}
330
C
100
AcDbDictionary
281
     1
  3
CANNOSCALE
350
22E
  3
PSOLHEIGHT
350
232
  3
PSOLWIDTH
350
231
  0
LAYOUT
  5
1E
102
{ACAD_REACTORS
330
1A
102
}
330
1A
100
AcDbPlotSettings
  1

  2
none_device
  4

  6

 40
0.0
 41
0.0
 42
0.0
 43
0.0
 44
0.0
 45
0.0
 46
0.0
 47
0.0
 48
0.0
 49
0.0
140
0.0
141
0.0
142
1.0
143
1.0
 70
   688
 72
     0
 73
     0
 74
     5
  7

 75
    16
147
1.0
148
0.0
149
0.0
100
AcDbLayout
  1
Layout1
 70
     1
 71
     1
 10
0.0
 20
0.0
 11
12.0
 21
9.0
 12
0.0
 22
0.0
 32
0.0
 14
1.000000E+20
 24
1.000000E+20
 34
0.0
 15
-1.000000E+20
 25
-1.000000E+20
 35
0.0
146
0.0
 13
0.0
 23
0.0
 33
0.0
 16
1.0
 26
0.0
 36
0.0
 17
0.0
 27
1.0
 37
0.0
 76
     0
330
1B
  0
LAYOUT
  5
26
102
{ACAD_REACTORS
330
1A
102
}
330
1A
100
AcDbPlotSettings
  1

  2
none_device
  4

  6

 40
0.0
 41
0.0
 42
0.0
 43
0.0
 44
0.0
 45
0.0
 46
0.0
 47
0.0
 48
0.0
 49
0.0
140
0.0
141
0.0
142
1.0
143
1.0
 70
   688
 72
     0
 73
     0
 74
     5
  7

 75
    16
147
1.0
148
0.0
149
0.0
100
AcDbLayout
  1
Layout2
 70
     1
 71
     2
 10
0.0
 20
0.0
 11
0.0
 21
0.0
 12
0.0
 22
0.0
 32
0.0
 14
0.0
 24
0.0
 34
0.0
 15
0.0
 25
0.0
 35
0.0
146
0.0
 13
0.0
 23
0.0
 33
0.0
 16
1.0
 26
0.0
 36
0.0
 17
0.0
 27
1.0
 37
0.0
 76
     0
330
23
  0
LAYOUT
  5
22
102
{ACAD_REACTORS
330
1A
102
}
330
1A
100
AcDbPlotSettings
  1

  2
none_device
  4

  6

 40
0.0
 41
0.0
 42
0.0
 43
0.0
 44
0.0
 45
0.0
 46
0.0
 47
0.0
 48
0.0
 49
0.0
140
0.0
141
0.0
142
1.0
143
1.0
 70
  1712
 72
     0
 73
     0
 74
     0
  7

 75
     0
147
1.0
148
0.0
149
0.0
100
AcDbLayout
  1
Model
 70
     1
 71
     0
 10
0.0
 20
0.0
 11
12.0
 21
9.0
 12
0.0
 22
0.0
 32
0.0
 14
17.058975
 24
12.608978
 34
0.0
 15
205.027939
 25
111.749451
 35
0.0
146
0.0
 13
0.0
 23
0.0
 33
0.0
 16
1.0
 26
0.0
 36
0.0
 17
0.0
 27
1.0
 37
0.0
 76
     0
330
1F
331
29
  0
MLINESTYLE
  5
18
102
{ACAD_REACTORS
330
17
102
}
330
17
100
AcDbMlineStyle
  2
Standard
 70
     0
  3

 62
   256
 51
90.0
 52
90.0
 71
     2
 49
0.5
 62
   256
  6
BYLAYER
 49
-0.5
 62
   256
  6
BYLAYER
  0
ACDBPLACEHOLDER
  5
F
102
{ACAD_REACTORS
330
E
102
}
330
E
  0
SCALE
  5
3C
102
{ACAD_REACTORS
330
3B
102
}
330
3B
100
AcDbScale
 70
     0
300
1:1
140
1.0
141
1.0
290
     1
  0
SCALE
  5
3D
102
{ACAD_REACTORS
330
3B
102
}
330
3B
100
AcDbScale
 70
     0
300
1:2
140
1.0
141
2.0
290
     0
  0
SCALE
  5
3E
102
{ACAD_REACTORS
330
3B
102
}
330
3B
100
AcDbScale
 70
     0
300
1:4
140
1.0
141
4.0
290
     0
  0
SCALE
  5
3F
102
{ACAD_REACTORS
330
3B
102
}
330
3B
100
AcDbScale
 70
     0
300
1:5
140
1.0
141
5.0
290
     0
  0
SCALE
  5
40
102
{ACAD_REACTORS
330
3B
102
}
330
3B
100
AcDbScale
 70
     0
300
1:8
140
1.0
141
8.0
290
     0
  0
SCALE
  5
41
102
{ACAD_REACTORS
330
3B
102
}
330
3B
100
AcDbScale
 70
     0
300
1:10
140
1.0
141
10.0
290
     0
  0
SCALE
  5
42
102
{ACAD_REACTORS
330
3B
102
}
330
3B
100
AcDbScale
 70
     0
300
1:16
140
1.0
141
16.0
290
     0
  0
SCALE
  5
43
102
{ACAD_REACTORS
330
3B
102
}
330
3B
100
AcDbScale
 70
     0
300
1:20
140
1.0
141
20.0
290
     0
  0
SCALE
  5
44
102
{ACAD_REACTORS
330
3B
102
}
330
3B
100
AcDbScale
 70
     0
300
1:30
140
1.0
141
30.0
290
     0
  0
SCALE
  5
45
102
{ACAD_REACTORS
330
3B
102
}
330
3B
100
AcDbScale
 70
     0
300
1:40
140
1.0
141
40.0
290
     0
  0
SCALE
  5
46
102
{ACAD_REACTORS
330
3B
102
}
330
3B
100
AcDbScale
 70
     0
300
1:50
140
1.0
141
50.0
290
     0
  0
SCALE
  5
47
102
{ACAD_REACTORS
330
3B
102
}
330
3B
100
AcDbScale
 70
     0
300
1:100
140
1.0
141
100.0
290
     0
  0
SCALE
  5
48
102
{ACAD_REACTORS
330
3B
102
}
330
3B
100
AcDbScale
 70
     0
300
2:1
140
2.0
141
1.0
290
     0
  0
SCALE
  5
49
102
{ACAD_REACTORS
330
3B
102
}
330
3B
100
AcDbScale
 70
     0
300
4:1
140
4.0
141
1.0
290
     0
  0
SCALE
  5
4A
102
{ACAD_REACTORS
330
3B
102
}
330
3B
100
AcDbScale
 70
     0
300
8:1
140
8.0
141
1.0
290
     0
  0
SCALE
  5
4B
102
{ACAD_REACTORS
330
3B
102
}
330
3B
100
AcDbScale
 70
     0
300
10:1
140
10.0
141
1.0
290
     0
  0
SCALE
  5
4C
102
{ACAD_REACTORS
330
3B
102
}
330
3B
100
AcDbScale
 70
     0
300
100:1
140
100.0
141
1.0
290
     0
  0
SCALE
  5
4D
102
{ACAD_REACTORS
330
3B
102
}
330
3B
100
AcDbScale
 70
     0
300
1/128" = 1'-0"
140
0.007812
141
12.0
290
     0
  0
SCALE
  5
4E
102
{ACAD_REACTORS
330
3B
102
}
330
3B
100
AcDbScale
 70
     0
300
1/64" = 1'-0"
140
0.015625
141
12.0
290
     0
  0
SCALE
  5
4F
102
{ACAD_REACTORS
330
3B
102
}
330
3B
100
AcDbScale
 70
     0
300
1/32" = 1'-0"
140
0.03125
141
12.0
290
     0
  0
SCALE
  5
50
102
{ACAD_REACTORS
330
3B
102
}
330
3B
100
AcDbScale
 70
     0
300
1/16" = 1'-0"
140
0.0625
141
12.0
290
     0
  0
SCALE
  5
51
102
{ACAD_REACTORS
330
3B
102
}
330
3B
100
AcDbScale
 70
     0
300
3/32" = 1'-0"
140
0.09375
141
12.0
290
     0
  0
SCALE
  5
52
102
{ACAD_REACTORS
330
3B
102
}
330
3B
100
AcDbScale
 70
     0
300
1/8" = 1'-0"
140
0.125
141
12.0
290
     0
  0
SCALE
  5
53
102
{ACAD_REACTORS
330
3B
102
}
330
3B
100
AcDbScale
 70
     0
300
3/16" = 1'-0"
140
0.1875
141
12.0
290
     0
  0
SCALE
  5
54
102
{ACAD_REACTORS
330
3B
102
}
330
3B
100
AcDbScale
 70
     0
300
1/4" = 1'-0"
140
0.25
141
12.0
290
     0
  0
SCALE
  5
55
102
{ACAD_REACTORS
330
3B
102
}
330
3B
100
AcDbScale
 70
     0
300
3/8" = 1'-0"
140
0.375
141
12.0
290
     0
  0
SCALE
  5
56
102
{ACAD_REACTORS
330
3B
102
}
330
3B
100
AcDbScale
 70
     0
300
1/2" = 1'-0"
140
0.5
141
12.0
290
     0
  0
SCALE
  5
57
102
{ACAD_REACTORS
330
3B
102
}
330
3B
100
AcDbScale
 70
     0
300
3/4" = 1'-0"
140
0.75
141
12.0
290
     0
  0
SCALE
  5
58
102
{ACAD_REACTORS
330
3B
102
}
330
3B
100
AcDbScale
 70
     0
300
1" = 1'-0"
140
1.0
141
12.0
290
     0
  0
SCALE
  5
59
102
{ACAD_REACTORS
330
3B
102
}
330
3B
100
AcDbScale
 70
     0
300
1-1/2" = 1'-0"
140
1.5
141
12.0
290
     0
  0
SCALE
  5
5A
102
{ACAD_REACTORS
330
3B
102
}
330
3B
100
AcDbScale
 70
     0
300
3" = 1'-0"
140
3.0
141
12.0
290
     0
  0
SCALE
  5
5B
102
{ACAD_REACTORS
330
3B
102
}
330
3B
100
AcDbScale
 70
     0
300
6" = 1'-0"
140
6.0
141
12.0
290
     0
  0
SCALE
  5
5C
102
{ACAD_REACTORS
330
3B
102
}
330
3B
100
AcDbScale
 70
     0
300
1'-0" = 1'-0"
140
12.0
141
12.0
290
     0
  0
VISUALSTYLE
  5
2F
102
{ACAD_REACTORS
330
2A
102
}
330
2A
100
AcDbVisualStyle
  2
2dWireframe
 70
     4
 71
     0
 72
     2
 73
     0
 90
        0
 40
-0.6
 41
-30.0
 62
     5
 63
     7
 74
     1
 91
        4
 64
     7
 65
   257
 75
     1
175
     1
 42
1.0
 92
        0
 66
   257
 43
1.0
 76
     1
 77
     6
 78
     2
 67
     7
 79
     5
170
     0
171
     0
290
     0
174
     0
 93
        1
 44
0.0
173
     0
291
     0
 45
0.0
1001
ACAD
1000
AcDbSavedByObjectVersion
1070
     0
  0
VISUALSTYLE
  5
31
102
{ACAD_REACTORS
330
2A
102
}
330
2A
100
AcDbVisualStyle
  2
3D Hidden
 70
     6
 71
     1
 72
     2
 73
     2
 90
        0
 40
-0.6
 41
-30.0
 62
     5
 63
     7
 74
     2
 91
        2
 64
     7
 65
   257
 75
     2
175
     1
 42
40.0
 92
        0
 66
   257
 43
1.0
 76
     1
 77
     6
 78
     2
 67
     7
 79
     3
170
     0
171
     0
290
     0
174
     0
 93
        1
 44
0.0
173
     0
291
     0
 45
0.0
1001
ACAD
1000
AcDbSavedByObjectVersion
1070
     0
  0
VISUALSTYLE
  5
30
102
{ACAD_REACTORS
330
2A
102
}
330
2A
100
AcDbVisualStyle
  2
3dWireframe
 70
     5
 71
     0
 72
     2
 73
     0
 90
        0
 40
-0.6
 41
-30.0
 62
     5
 63
     7
 74
     1
 91
        4
 64
     7
 65
   257
 75
     1
175
     1
 42
1.0
 92
        0
 66
   257
 43
1.0
 76
     1
 77
     6
 78
     2
 67
     7
 79
     5
170
     0
171
     0
290
     0
174
     0
 93
        1
 44
0.0
173
     0
291
     0
 45
0.0
1001
ACAD
1000
AcDbSavedByObjectVersion
1070
     0
  0
VISUALSTYLE
  5
32
102
{ACAD_REACTORS
330
2A
102
}
330
2A
100
AcDbVisualStyle
  2
Basic
 70
     7
 71
     1
 72
     0
 73
     1
 90
        0
 40
-0.6
 41
-30.0
 62
     5
 63
     7
 74
     0
 91
        4
 64
     7
 65
   257
 75
     1
175
     1
 42
1.0
 92
        8
 66
     7
 43
1.0
 76
     1
 77
     6
 78
     2
 67
     7
 79
     5
170
     0
171
     0
290
     0
174
     0
 93
        1
 44
0.0
173
     0
291
     1
 45
0.0
1001
ACAD
1000
AcDbSavedByObjectVersion
1070
     0
  0
VISUALSTYLE
  5
36
102
{ACAD_REACTORS
330
2A
102
}
330
2A
100
AcDbVisualStyle
  2
Brighten
 70
    12
 71
     2
 72
     2
 73
     0
 90
        0
 40
-0.6
 41
-30.0
 62
     5
 63
     7
 74
     1
 91
        4
 64
     7
 65
   257
 75
     1
175
     1
 42
1.0
 92
        8
 66
     7
 43
1.0
 76
     1
 77
     6
 78
     2
 67
     7
 79
     5
170
     0
171
     0
290
     0
174
     0
 93
        1
 44
50.0
173
     0
291
     1
 45
0.0
1001
ACAD
1000
AcDbSavedByObjectVersion
1070
     0
  0
VISUALSTYLE
  5
3A
102
{ACAD_REACTORS
330
2A
102
}
330
2A
100
AcDbVisualStyle
  2
ColorChange
 70
    16
 71
     2
 72
     2
 73
     3
 90
        0
 40
-0.6
 41
-30.0
 62
     5
 63
     8
 74
     1
 91
        4
 64
     7
 65
   257
 75
     1
175
     1
 42
1.0
 92
        8
 66
     8
 43
1.0
 76
     1
 77
     6
 78
     2
 67
     7
 79
     5
170
     0
171
     0
290
     0
174
     0
 93
        1
 44
0.0
173
     0
291
     1
 45
0.0
1001
ACAD
1000
AcDbSavedByObjectVersion
1070
     0
  0
VISUALSTYLE
  5
34
102
{ACAD_REACTORS
330
2A
102
}
330
2A
100
AcDbVisualStyle
  2
Conceptual
 70
     9
 71
     3
 72
     2
 73
     0
 90
        0
 40
-0.6
 41
-30.0
 62
     5
 63
     7
 74
     2
 91
        2
 64
     7
 65
   257
 75
     1
175
     1
 42
40.0
 92
        8
 66
     7
 43
1.0
 76
     1
 77
     6
 78
     2
 67
     7
 79
     3
170
     0
171
     0
290
     0
174
     0
 93
        1
 44
0.0
173
     0
291
     0
 45
0.0
1001
ACAD
1000
AcDbSavedByObjectVersion
1070
     0
  0
VISUALSTYLE
  5
35
102
{ACAD_REACTORS
330
2A
102
}
330
2A
100
AcDbVisualStyle
  2
Dim
 70
    11
 71
     2
 72
     2
 73
     0
 90
        0
 40
-0.6
 41
-30.0
 62
     5
 63
     7
 74
     1
 91
        4
 64
     7
 65
   257
 75
     1
175
     1
 42
1.0
 92
        8
 66
     7
 43
1.0
 76
     1
 77
     6
 78
     2
 67
     7
 79
     5
170
     0
171
     0
290
     0
174
     0
 93
        1
 44
-50.0
173
     0
291
     1
 45
0.0
1001
ACAD
1000
AcDbSavedByObjectVersion
1070
     0
  0
VISUALSTYLE
  5
39
102
{ACAD_REACTORS
330
2A
102
}
330
2A
100
AcDbVisualStyle
  2
Facepattern
 70
    15
 71
     2
 72
     2
 73
     0
 90
        0
 40
-0.6
 41
-30.0
 62
     5
 63
     7
 74
     1
 91
        4
 64
     7
 65
   257
 75
     1
175
     1
 42
1.0
 92
        8
 66
     7
 43
1.0
 76
     1
 77
     6
 78
     2
 67
     7
 79
     5
170
     0
171
     0
290
     0
174
     0
 93
        1
 44
0.0
173
     0
291
     1
 45
0.0
1001
ACAD
1000
AcDbSavedByObjectVersion
1070
     0
  0
VISUALSTYLE
  5
2B
102
{ACAD_REACTORS
330
2A
102
}
330
2A
100
AcDbVisualStyle
  2
Flat
 70
     0
 71
     2
 72
     1
 73
     1
 90
        2
 40
-0.6
 41
30.0
 62
     5
 63
     7
 74
     0
 91
        4
 64
     7
 65
   257
 75
     1
175
     1
 42
1.0
 92
        8
 66
     7
 43
1.0
 76
     1
 77
     6
 78
     2
 67
     7
 79
     5
170
     0
171
     0
290
     0
174
     0
 93
       13
 44
0.0
173
     0
291
     1
 45
0.0
1001
ACAD
1000
AcDbSavedByObjectVersion
1070
     0
  0
VISUALSTYLE
  5
2C
102
{ACAD_REACTORS
330
2A
102
}
330
2A
100
AcDbVisualStyle
  2
FlatWithEdges
 70
     1
 71
     2
 72
     1
 73
     1
 90
        2
 40
-0.6
 41
30.0
 62
     5
 63
     7
 74
     1
 91
        4
 64
     7
 65
   257
 75
     1
175
     1
 42
1.0
 92
        0
 66
   257
 43
1.0
 76
     1
 77
     6
 78
     2
 67
     7
 79
     5
170
     0
171
     0
290
     0
174
     0
 93
       13
 44
0.0
173
     0
291
     1
 45
0.0
1001
ACAD
1000
AcDbSavedByObjectVersion
1070
     0
  0
VISUALSTYLE
  5
2D
102
{ACAD_REACTORS
330
2A
102
}
330
2A
100
AcDbVisualStyle
  2
Gouraud
 70
     2
 71
     2
 72
     2
 73
     1
 90
        2
 40
-0.6
 41
30.0
 62
     5
 63
     7
 74
     0
 91
        4
 64
     7
 65
   257
 75
     1
175
     1
 42
1.0
 92
        0
 66
     7
 43
1.0
 76
     1
 77
     6
 78
     2
 67
     7
 79
     5
170
     0
171
     0
290
     0
174
     0
 93
       13
 44
0.0
173
     0
291
     1
 45
0.0
1001
ACAD
1000
AcDbSavedByObjectVersion
1070
     0
  0
VISUALSTYLE
  5
2E
102
{ACAD_REACTORS
330
2A
102
}
330
2A
100
AcDbVisualStyle
  2
GouraudWithEdges
 70
     3
 71
     2
 72
     2
 73
     1
 90
        2
 40
-0.6
 41
30.0
 62
     5
 63
     7
 74
     1
 91
        4
 64
     7
 65
   257
 75
     1
175
     1
 42
1.0
 92
        0
 66
   257
 43
1.0
 76
     1
 77
     6
 78
     2
 67
     7
 79
     5
170
     0
171
     0
290
     0
174
     0
 93
       13
 44
0.0
173
     0
291
     1
 45
0.0
1001
ACAD
1000
AcDbSavedByObjectVersion
1070
     0
  0
VISUALSTYLE
  5
38
102
{ACAD_REACTORS
330
2A
102
}
330
2A
100
AcDbVisualStyle
  2
Linepattern
 70
    14
 71
     2
 72
     2
 73
     0
 90
        0
 40
-0.6
 41
-30.0
 62
     5
 63
     7
 74
     1
 91
        4
 64
     7
 65
   257
 75
     7
175
     7
 42
1.0
 92
        8
 66
     7
 43
1.0
 76
     1
 77
     6
 78
     2
 67
     7
 79
     5
170
     0
171
     0
290
     0
174
     0
 93
        1
 44
0.0
173
     0
291
     1
 45
0.0
1001
ACAD
1000
AcDbSavedByObjectVersion
1070
     0
  0
VISUALSTYLE
  5
33
102
{ACAD_REACTORS
330
2A
102
}
330
2A
100
AcDbVisualStyle
  2
Realistic
 70
     8
 71
     2
 72
     2
 73
     0
 90
        0
 40
-0.6
 41
-30.0
 62
     5
 63
     7
 74
     1
 91
        0
 64
     7
 65
   257
 75
     1
175
     1
 42
1.0
 92
        8
 66
     8
 43
1.0
 76
     1
 77
     6
 78
     2
 67
     7
 79
     5
170
     0
171
     0
290
     0
174
     0
 93
       13
 44
0.0
173
     0
291
     0
 45
0.0
1001
ACAD
1000
AcDbSavedByObjectVersion
1070
     0
  0
VISUALSTYLE
  5
37
102
{ACAD_REACTORS
330
2A
102
}
330
2A
100
AcDbVisualStyle
  2
Thicken
 70
    13
 71
     2
 72
     2
 73
     0
 90
        0
 40
-0.6
 41
-30.0
 62
     5
 63
     7
 74
     1
 91
        4
 64
     7
 65
   257
 75
     1
175
     1
 42
1.0
 92
       12
 66
     7
 43
1.0
 76
     1
 77
     6
 78
     2
 67
     7
 79
     5
170
     0
171
     0
290
     0
174
     0
 93
        1
 44
0.0
173
     0
291
     1
 45
0.0
1001
ACAD
1000
AcDbSavedByObjectVersion
1070
     0
  0
DICTIONARYVAR
  5
22E
102
{ACAD_REACTORS
330
22D
102
}
330
22D
100
DictionaryVariables
280
     0
  1
1:1
  0
DICTIONARYVAR
  5
232
102
{ACAD_REACTORS
330
22D
102
}
330
22D
100
DictionaryVariables
280
     0
  1
80.000000
  0
DICTIONARYVAR
  5
231
102
{ACAD_REACTORS
330
22D
102
}
330
22D
100
DictionaryVariables
280
     0
  1
5.000000
  0
ENDSEC
  0
EOF
