  0
SECTION
  2
HEADER
  9
$ACADVER
  1
AC1015
  9
$ACADMAINTVER
 70
     6
  9
$DWGCODEPAGE
  3
ANSI_932
  9
$INSBASE
 10
0.0
 20
0.0
 30
0.0
  9
$EXTMIN
 10
19.695335
 20
8.444427
 30
0.0
  9
$EXTMAX
 10
251.135406
 20
106.185402
 30
0.0
  9
$LIMMIN
 10
0.0
 20
0.0
  9
$LIMMAX
 10
12.0
 20
9.0
  9
$ORTHOMODE
 70
     0
  9
$REGENMODE
 70
     1
  9
$FILLMODE
 70
     1
  9
$QTEXTMODE
 70
     0
  9
$MIRRTEXT
 70
     1
  9
$LTSCALE
 40
3.857335
  9
$ATTMODE
 70
     1
  9
$TEXTSIZE
 40
3.2
  9
$TRACEWID
 40
1.0
  9
$TEXTSTYLE
  7
Standard
  9
$CLAYER
  8
0
  9
$CELTYPE
  6
ByLayer
  9
$CECOLOR
 62
   256
  9
$CELTSCALE
 40
1.0
  9
$DISPSILH
 70
     0
  9
$DIMSCALE
 40
1.0
  9
$DIMASZ
 40
2.5
  9
$DIMEXO
 40
0.625
  9
$DIMDLI
 40
3.75
  9
$DIMRND
 40
0.0
  9
$DIMDLE
 40
0.0
  9
$DIMEXE
 40
1.25
  9
$DIMTP
 40
0.0
  9
$DIMTM
 40
0.0
  9
$DIMTXT
 40
2.5
  9
$DIMCEN
 40
0.09
  9
$DIMTSZ
 40
0.0
  9
$DIMTOL
 70
     0
  9
$DIMLIM
 70
     0
  9
$DIMTIH
 70
     0
  9
$DIMTOH
 70
     0
  9
$DIMSE1
 70
     0
  9
$DIMSE2
 70
     0
  9
$DIMTAD
 70
     0
  9
$DIMZIN
 70
     8
  9
$DIMBLK
  1

  9
$DIMASO
 70
     1
  9
$DIMSHO
 70
     0
  9
$DIMPOST
  1

  9
$DIMAPOST
  1

  9
$DIMALT
 70
     0
  9
$DIMALTD
 70
     3
  9
$DIMALTF
 40
0.03937
  9
$DIMLFAC
 40
1.0
  9
$DIMTOFL
 70
     1
  9
$DIMTVP
 40
0.0
  9
$DIMTIX
 70
     0
  9
$DIMSOXD
 70
     0
  9
$DIMSAH
 70
     0
  9
$DIMBLK1
  1

  9
$DIMBLK2
  1

  9
$DIMSTYLE
  2
ISO-25
  9
$DIMCLRD
 70
     0
  9
$DIMCLRE
 70
     0
  9
$DIMCLRT
 70
     0
  9
$DIMTFAC
 40
1.0
  9
$DIMGAP
 40
0.625
  9
$DIMJUST
 70
     0
  9
$DIMSD1
 70
     0
  9
$DIMSD2
 70
     0
  9
$DIMTOLJ
 70
     0
  9
$DIMTZIN
 70
     8
  9
$DIMALTZ
 70
     0
  9
$DIMALTTZ
 70
     0
  9
$DIMUPT
 70
     0
  9
$DIMDEC
 70
     2
  9
$DIMTDEC
 70
     2
  9
$DIMALTU
 70
     2
  9
$DIMALTTD
 70
     3
  9
$DIMTXSTY
  7
Standard
  9
$DIMAUNIT
 70
     0
  9
$DIMADEC
 70
     0
  9
$DIMALTRND
 40
0.0
  9
$DIMAZIN
 70
     0
  9
$DIMDSEP
 70
    44
  9
$DIMATFIT
 70
     3
  9
$DIMFRAC
 70
     0
  9
$DIMLDRBLK
  1

  9
$DIMLUNIT
 70
     2
  9
$DIMLWD
 70
    -2
  9
$DIMLWE
 70
    -2
  9
$DIMTMOVE
 70
     0
  9
$LUNITS
 70
     2
  9
$LUPREC
 70
     4
  9
$SKETCHINC
 40
1.0
  9
$FILLETRAD
 40
0.0
  9
$AUNITS
 70
     0
  9
$AUPREC
 70
     0
  9
$MENU
  1
.
  9
$ELEVATION
 40
0.0
  9
$PELEVATION
 40
0.0
  9
$THICKNESS
 40
0.0
  9
$LIMCHECK
 70
     0
  9
$CHAMFERA
 40
10.0
  9
$CHAMFERB
 40
10.0
  9
$CHAMFERC
 40
20.0
  9
$CHAMFERD
 40
0.0
  9
$SKPOLY
 70
     0
  9
$TDCREATE
 40
2454621.617046979
  9
$TDUCREATE
 40
2454621.242046979
  9
$TDUPDATE
 40
2454621.617046991
  9
$TDUUPDATE
 40
2454621.242046991
  9
$TDINDWG
 40
0.0000000116
  9
$TDUSRTIMER
 40
0.0000000116
  9
$USRTIMER
 70
     1
  9
$ANGBASE
 50
0.0
  9
$ANGDIR
 70
     0
  9
$PDMODE
 70
     0
  9
$PDSIZE
 40
0.0
  9
$PLINEWID
 40
0.0
  9
$SPLFRAME
 70
     0
  9
$SPLINETYPE
 70
     6
  9
$SPLINESEGS
 70
     8
  9
$HANDSEED
  5
21F
  9
$SURFTAB1
 70
     6
  9
$SURFTAB2
 70
     6
  9
$SURFTYPE
 70
     6
  9
$SURFU
 70
     6
  9
$SURFV
 70
     6
  9
$UCSBASE
  2

  9
$UCSNAME
  2

  9
$UCSORG
 10
0.0
 20
0.0
 30
0.0
  9
$UCSXDIR
 10
1.0
 20
0.0
 30
0.0
  9
$UCSYDIR
 10
0.0
 20
1.0
 30
0.0
  9
$UCSORTHOREF
  2

  9
$UCSORTHOVIEW
 70
     0
  9
$UCSORGTOP
 10
0.0
 20
0.0
 30
0.0
  9
$UCSORGBOTTOM
 10
0.0
 20
0.0
 30
0.0
  9
$UCSORGLEFT
 10
0.0
 20
0.0
 30
0.0
  9
$UCSORGRIGHT
 10
0.0
 20
0.0
 30
0.0
  9
$UCSORGFRONT
 10
0.0
 20
0.0
 30
0.0
  9
$UCSORGBACK
 10
0.0
 20
0.0
 30
0.0
  9
$PUCSBASE
  2

  9
$PUCSNAME
  2

  9
$PUCSORG
 10
0.0
 20
0.0
 30
0.0
  9
$PUCSXDIR
 10
1.0
 20
0.0
 30
0.0
  9
$PUCSYDIR
 10
0.0
 20
1.0
 30
0.0
  9
$PUCSORTHOREF
  2

  9
$PUCSORTHOVIEW
 70
     0
  9
$PUCSORGTOP
 10
0.0
 20
0.0
 30
0.0
  9
$PUCSORGBOTTOM
 10
0.0
 20
0.0
 30
0.0
  9
$PUCSORGLEFT
 10
0.0
 20
0.0
 30
0.0
  9
$PUCSORGRIGHT
 10
0.0
 20
0.0
 30
0.0
  9
$PUCSORGFRONT
 10
0.0
 20
0.0
 30
0.0
  9
$PUCSORGBACK
 10
0.0
 20
0.0
 30
0.0
  9
$USERI1
 70
     0
  9
$USERI2
 70
     0
  9
$USERI3
 70
     0
  9
$USERI4
 70
     0
  9
$USERI5
 70
     0
  9
$USERR1
 40
0.0
  9
$USERR2
 40
0.0
  9
$USERR3
 40
0.0
  9
$USERR4
 40
0.0
  9
$USERR5
 40
0.0
  9
$WORLDVIEW
 70
     1
  9
$SHADEDGE
 70
     3
  9
$SHADEDIF
 70
    70
  9
$TILEMODE
 70
     1
  9
$MAXACTVP
 70
    64
  9
$PINSBASE
 10
0.0
 20
0.0
 30
0.0
  9
$PLIMCHECK
 70
     0
  9
$PEXTMIN
 10
1.000000E+20
 20
1.000000E+20
 30
0.0
  9
$PEXTMAX
 10
-1.000000E+20
 20
-1.000000E+20
 30
0.0
  9
$PLIMMIN
 10
0.0
 20
0.0
  9
$PLIMMAX
 10
12.0
 20
9.0
  9
$UNITMODE
 70
     0
  9
$VISRETAIN
 70
     1
  9
$PLINEGEN
 70
     0
  9
$PSLTSCALE
 70
     1
  9
$TREEDEPTH
 70
  3020
  9
$CMLSTYLE
  2
Standard
  9
$CMLJUST
 70
     0
  9
$CMLSCALE
 40
20.0
  9
$PROXYGRAPHICS
 70
     1
  9
$MEASUREMENT
 70
     1
  9
$CELWEIGHT
370
    -1
  9
$ENDCAPS
280
     0
  9
$JOINSTYLE
280
     0
  9
$LWDISPLAY
290
     0
  9
$INSUNITS
 70
     4
  9
$HYPERLINKBASE
  1

  9
$STYLESHEET
  1

  9
$XEDIT
290
     1
  9
$CEPSNTYPE
380
     0
  9
$PSTYLEMODE
290
     1
  9
$FINGERPRINTGUID
  2
{26148391-49C6-4638-832B-69078D087FAA}
  9
$VERSIONGUID
  2
{FAEB1C32-E019-11D5-929B-00C0DF256EC4}
  9
$EXTNAMES
290
     1
  9
$PSVPSCALE
 40
0.0
  9
$OLESTARTUP
290
     0
  0
ENDSEC
  0
SECTION
  2
CLASSES
  0
CLASS
  1
ACDBDICTIONARYWDFLT
  2
AcDbDictionaryWithDefault
  3
ObjectDBX Classes
 90
        0
280
     0
281
     0
  0
CLASS
  1
VISUALSTYLE
  2
AcDbVisualStyle
  3
ObjectDBX Classes
 90
     4095
280
     0
281
     0
  0
CLASS
  1
SCALE
  2
AcDbScale
  3
ObjectDBX Classes
 90
     1153
280
     0
281
     0
  0
CLASS
  1
DICTIONARYVAR
  2
AcDbDictionaryVar
  3
ObjectDBX Classes
 90
        0
280
     0
281
     0
  0
CLASS
  1
ACDBPLACEHOLDER
  2
AcDbPlaceHolder
  3
ObjectDBX Classes
 90
        0
280
     0
281
     0
  0
CLASS
  1
LAYOUT
  2
AcDbLayout
  3
ObjectDBX Classes
 90
        0
280
     0
281
     0
  0
ENDSEC
  0
SECTION
  2
TABLES
  0
TABLE
  2
VPORT
  5
8
330
0
100
AcDbSymbolTable
 70
     1
  0
VPORT
  5
29
330
8
100
AcDbSymbolTableRecord
100
AcDbViewportTableRecord
  2
*Active
 70
     0
 10
0.0
 20
0.0
 11
1.0
 21
1.0
 12
135.415371
 22
57.314915
 13
0.0
 23
0.0
 14
1.0
 24
1.0
 15
0.0
 25
0.0
 16
0.0
 26
0.0
 36
1.0
 17
0.0
 27
0.0
 37
0.0
 40
138.210921
 41
1.691288
 42
50.0
 43
0.0
 44
0.0
 50
0.0
 51
0.0
 71
     0
 72
   100
 73
     1
 74
     3
 75
     0
 76
     0
 77
     0
 78
     0
281
     0
 65
     1
110
0.0
120
0.0
130
0.0
111
1.0
121
0.0
131
0.0
112
0.0
122
1.0
132
0.0
 79
     0
146
0.0
  0
ENDTAB
  0
TABLE
  2
LTYPE
  5
5
330
0
100
AcDbSymbolTable
 70
     5
  0
LTYPE
  5
14
330
5
100
AcDbSymbolTableRecord
100
AcDbLinetypeTableRecord
  2
ByBlock
 70
     0
  3

 72
    65
 73
     0
 40
0.0
  0
LTYPE
  5
15
330
5
100
AcDbSymbolTableRecord
100
AcDbLinetypeTableRecord
  2
ByLayer
 70
     0
  3

 72
    65
 73
     0
 40
0.0
  0
LTYPE
  5
16
330
5
100
AcDbSymbolTableRecord
100
AcDbLinetypeTableRecord
  2
Continuous
 70
     0
  3
Solid line
 72
    65
 73
     0
 40
0.0
  0
LTYPE
  5
5D
330
5
100
AcDbSymbolTableRecord
100
AcDbLinetypeTableRecord
  2
DASHED
 70
     0
  3
DASHED
 72
    83
 73
     2
 40
0.75
 49
0.5
 74
     0
 49
-0.25
 74
     0
  0
LTYPE
  5
5E
330
5
100
AcDbSymbolTableRecord
100
AcDbLinetypeTableRecord
  2
HIDDEN
 70
     0
  3
HIDDEN
 72
    83
 73
     2
 40
0.375
 49
0.25
 74
     0
 49
-0.125
 74
     0
  0
LTYPE
  5
5F
330
5
100
AcDbSymbolTableRecord
100
AcDbLinetypeTableRecord
  2
CENTER
 70
     0
  3
CENTER
 72
    83
 73
     4
 40
2.0
 49
1.25
 74
     0
 49
-0.25
 74
     0
 49
0.25
 74
     0
 49
-0.25
 74
     0
  0
LTYPE
  5
60
330
5
100
AcDbSymbolTableRecord
100
AcDbLinetypeTableRecord
  2
PHANTOM
 70
     0
  3
PHANTOM
 72
    83
 73
     6
 40
2.5
 49
1.25
 74
     0
 49
-0.25
 74
     0
 49
0.25
 74
     0
 49
-0.25
 74
     0
 49
0.25
 74
     0
 49
-0.25
 74
     0
  0
ENDTAB
  0
TABLE
  2
LAYER
  5
2
330
0
100
AcDbSymbolTable
 70
     2
  0
LAYER
  5
10
330
2
100
AcDbSymbolTableRecord
100
AcDbLayerTableRecord
  2
0
 70
     0
 62
     7
  6
Continuous
370
    -3
390
F
  0
LAYER
  5
61
330
2
100
AcDbSymbolTableRecord
100
AcDbLayerTableRecord
  2
001
 70
     0
 62
     7
  6
Continuous
370
    -3
390
F
  0
ENDTAB
  0
TABLE
  2
STYLE
  5
3
330
0
100
AcDbSymbolTable
 70
     2
  0
STYLE
  5
11
330
3
100
AcDbSymbolTableRecord
100
AcDbTextStyleTableRecord
  2
Standard
 70
     0
 40
0.0
 41
1.0
 50
0.0
 71
     0
 42
0.2
  3
TXT
  4
BIGFONT
  0
STYLE
  5
62
330
3
100
AcDbSymbolTableRecord
100
AcDbTextStyleTableRecord
  2
TATEGAKI
 70
     4
 40
1.0
 41
1.0
 50
0.0
 71
     0
 42
0.2
  3
TXT
  4
BIGFONT
  0
ENDTAB
  0
TABLE
  2
VIEW
  5
6
330
0
100
AcDbSymbolTable
 70
     0
  0
ENDTAB
  0
TABLE
  2
UCS
  5
7
330
0
100
AcDbSymbolTable
 70
     0
  0
ENDTAB
  0
TABLE
  2
APPID
  5
9
330
0
100
AcDbSymbolTable
 70
     1
  0
APPID
  5
12
330
9
100
AcDbSymbolTableRecord
100
AcDbRegAppTableRecord
  2
ACAD
 70
     0
  0
ENDTAB
  0
TABLE
  2
DIMSTYLE
  5
A
330
0
100
AcDbSymbolTable
 70
     2
100
AcDbDimStyleTable
  0
DIMSTYLE
105
27
330
A
100
AcDbSymbolTableRecord
100
AcDbDimStyleTableRecord
  2
ISO-25
 70
     0
 41
2.5
 42
0.625
 43
3.75
 44
1.25
 73
     0
 74
     0
 77
     1
 78
     8
140
2.5
141
2.5
143
0.03937
147
0.625
171
     3
172
     1
271
     2
272
     2
274
     3
278
    44
283
     0
284
     8
340
11
  0
DIMSTYLE
105
63
102
{ACAD_REACTORS
330
F5
330
F6
330
F7
330
F8
330
F9
330
FA
102
}
330
A
100
AcDbSymbolTableRecord
100
AcDbDimStyleTableRecord
  2
Standard
 70
     0
 41
1.5
 42
0.0
 44
2.75
 73
     0
 74
     0
 77
     1
 78
     8
 79
     2
140
4.0
146
0.8
147
1.0
172
     1
179
     1
271
     1
340
11
  0
ENDTAB
  0
TABLE
  2
BLOCK_RECORD
  5
1
330
0
100
AcDbSymbolTable
 70
     7
  0
BLOCK_RECORD
  5
1F
330
1
100
AcDbSymbolTableRecord
100
AcDbBlockTableRecord
  2
*Model_Space
340
22
  0
BLOCK_RECORD
  5
1B
330
1
100
AcDbSymbolTableRecord
100
AcDbBlockTableRecord
  2
*Paper_Space
340
1E
  0
BLOCK_RECORD
  5
23
330
1
100
AcDbSymbolTableRecord
100
AcDbBlockTableRecord
  2
*Paper_Space0
340
26
  0
BLOCK_RECORD
  5
64
330
1
100
AcDbSymbolTableRecord
100
AcDbBlockTableRecord
  2
*D1
340
0
  0
BLOCK_RECORD
  5
78
330
1
100
AcDbSymbolTableRecord
100
AcDbBlockTableRecord
  2
*D2
340
0
  0
BLOCK_RECORD
  5
8C
330
1
100
AcDbSymbolTableRecord
100
AcDbBlockTableRecord
  2
*D3
340
0
  0
BLOCK_RECORD
  5
A1
330
1
100
AcDbSymbolTableRecord
100
AcDbBlockTableRecord
  2
*D4
340
0
  0
BLOCK_RECORD
  5
B5
330
1
100
AcDbSymbolTableRecord
100
AcDbBlockTableRecord
  2
*D5
340
0
  0
BLOCK_RECORD
  5
C9
330
1
100
AcDbSymbolTableRecord
100
AcDbBlockTableRecord
  2
*D6
340
0
  0
ENDTAB
  0
ENDSEC
  0
SECTION
  2
BLOCKS
  0
BLOCK
  5
20
330
1F
100
AcDbEntity
  8
0
100
AcDbBlockBegin
  2
*Model_Space
 70
     0
 10
0.0
 20
0.0
 30
0.0
  3
*Model_Space
  1

  0
ENDBLK
  5
21
330
1F
100
AcDbEntity
  8
0
100
AcDbBlockEnd
  0
BLOCK
  5
1C
330
1B
100
AcDbEntity
 67
     1
  8
0
100
AcDbBlockBegin
  2
*Paper_Space
 70
     0
 10
0.0
 20
0.0
 30
0.0
  3
*Paper_Space
  1

  0
ENDBLK
  5
1D
330
1B
100
AcDbEntity
 67
     1
  8
0
100
AcDbBlockEnd
  0
BLOCK
  5
24
330
23
100
AcDbEntity
  8
0
100
AcDbBlockBegin
  2
*Paper_Space0
 70
     0
 10
0.0
 20
0.0
 30
0.0
  3
*Paper_Space0
  1

  0
ENDBLK
  5
25
330
23
100
AcDbEntity
  8
0
100
AcDbBlockEnd
  0
BLOCK
  5
65
330
64
100
AcDbEntity
  8
0
100
AcDbBlockBegin
  2
*D1
 70
     1
 10
0.0
 20
0.0
 30
0.0
  3
*D1
  1

  0
LINE
  5
67
330
64
100
AcDbEntity
  8
001
370
     9
100
AcDbLine
 10
54.86387
 20
61.135695
 30
0.0
 11
54.86387
 21
20.406897
 31
0.0
  0
LINE
  5
68
330
64
100
AcDbEntity
  8
001
370
     9
100
AcDbLine
 10
84.86387
 20
52.635695
 30
0.0
 11
84.86387
 21
20.406897
 31
0.0
  0
LINE
  5
69
330
64
100
AcDbEntity
  8
001
370
     9
100
AcDbLine
 10
54.86387
 20
23.156897
 30
0.0
 11
84.86387
 21
23.156897
 31
0.0
  0
POLYLINE
  5
6A
330
64
100
AcDbEntity
  8
001
370
     9
100
AcDb2dPolyline
 66
     1
 10
0.0
 20
0.0
 30
0.0
  0
VERTEX
  5
6C
330
6A
100
AcDbEntity
  8
001
370
     9
100
AcDbVertex
100
AcDb2dVertex
 10
56.36387
 20
22.754973
 30
0.0
  0
VERTEX
  5
6D
330
6A
100
AcDbEntity
  8
001
370
     9
100
AcDbVertex
100
AcDb2dVertex
 10
54.86387
 20
23.156897
 30
0.0
  0
VERTEX
  5
6E
330
6A
100
AcDbEntity
  8
001
370
     9
100
AcDbVertex
100
AcDb2dVertex
 10
56.36387
 20
23.558821
 30
0.0
  0
SEQEND
  5
6B
330
6A
100
AcDbEntity
  8
001
370
     9
  0
POLYLINE
  5
6F
330
64
100
AcDbEntity
  8
001
370
     9
100
AcDb2dPolyline
 66
     1
 10
0.0
 20
0.0
 30
0.0
  0
VERTEX
  5
71
330
6F
100
AcDbEntity
  8
001
370
     9
100
AcDbVertex
100
AcDb2dVertex
 10
83.36387
 20
23.558821
 30
0.0
  0
VERTEX
  5
72
330
6F
100
AcDbEntity
  8
001
370
     9
100
AcDbVertex
100
AcDb2dVertex
 10
84.86387
 20
23.156897
 30
0.0
  0
VERTEX
  5
73
330
6F
100
AcDbEntity
  8
001
370
     9
100
AcDbVertex
100
AcDb2dVertex
 10
83.36387
 20
22.754973
 30
0.0
  0
SEQEND
  5
70
330
6F
100
AcDbEntity
  8
001
370
     9
  0
TEXT
  5
74
330
64
100
AcDbEntity
  8
001
370
    30
100
AcDbText
 10
65.86387
 20
24.156897
 30
0.0
 40
4.0
  1
３０
 41
0.833333
100
AcDbText
  0
POINT
  5
75
330
64
100
AcDbEntity
  8
001
370
     9
100
AcDbPoint
 10
54.86387
 20
61.135695
 30
0.0
  0
POINT
  5
76
330
64
100
AcDbEntity
  8
001
370
     9
100
AcDbPoint
 10
84.86387
 20
52.635695
 30
0.0
  0
POINT
  5
77
330
64
100
AcDbEntity
  8
001
370
     9
100
AcDbPoint
 10
84.86387
 20
23.156897
 30
0.0
  0
ENDBLK
  5
66
330
64
100
AcDbEntity
  8
0
100
AcDbBlockEnd
  0
BLOCK
  5
79
330
78
100
AcDbEntity
  8
0
100
AcDbBlockBegin
  2
*D2
 70
     1
 10
0.0
 20
0.0
 30
0.0
  3
*D2
  1

  0
LINE
  5
7B
330
78
100
AcDbEntity
  8
001
370
     9
100
AcDbLine
 10
67.431492
 20
52.335752
 30
0.0
 11
84.319064
 21
40.510947
 31
0.0
  0
ARC
  5
7C
330
78
100
AcDbEntity
  8
001
370
     9
100
AcDbCircle
 10
54.86387
 20
61.135695
 30
0.0
 40
33.20815228045499
100
AcDbArc
 50
270.0
 51
325.0
  0
POLYLINE
  5
7D
330
78
100
AcDbEntity
  8
001
370
     9
100
AcDb2dPolyline
 66
     1
 10
0.0
 20
0.0
 30
0.0
  0
VERTEX
  5
7F
330
7D
100
AcDbEntity
  8
001
370
     9
100
AcDbVertex
100
AcDb2dVertex
 10
80.854555
 20
41.117207
 30
0.0
  0
VERTEX
  5
80
330
7D
100
AcDbEntity
  8
001
370
     9
100
AcDbVertex
100
AcDb2dVertex
 10
82.066396
 20
42.088282
 30
0.0
  0
VERTEX
  5
81
330
7D
100
AcDbEntity
  8
001
370
     9
100
AcDbVertex
100
AcDb2dVertex
 10
81.502449
 20
40.641386
 30
0.0
  0
SEQEND
  5
7E
330
7D
100
AcDbEntity
  8
001
370
     9
  0
POLYLINE
  5
82
330
78
100
AcDbEntity
  8
001
370
     9
100
AcDb2dPolyline
 66
     1
 10
0.0
 20
0.0
 30
0.0
  0
VERTEX
  5
84
330
82
100
AcDbEntity
  8
001
370
     9
100
AcDbVertex
100
AcDb2dVertex
 10
56.372564
 20
27.559596
 30
0.0
  0
VERTEX
  5
85
330
82
100
AcDbEntity
  8
001
370
     9
100
AcDbVertex
100
AcDb2dVertex
 10
54.86387
 20
27.927543
 30
0.0
  0
VERTEX
  5
86
330
82
100
AcDbEntity
  8
001
370
     9
100
AcDbVertex
100
AcDb2dVertex
 10
56.354411
 20
28.363239
 30
0.0
  0
SEQEND
  5
83
330
82
100
AcDbEntity
  8
001
370
     9
  0
TEXT
  5
87
330
78
100
AcDbEntity
  8
001
370
    30
100
AcDbText
 10
64.413874
 20
29.796224
 30
0.0
 40
4.0
  1
５５%%d
 50
27.5
 41
0.978261
100
AcDbText
  0
POINT
  5
88
330
78
100
AcDbEntity
  8
001
370
     9
100
AcDbPoint
 10
67.431492
 20
52.335752
 30
0.0
  0
POINT
  5
89
330
78
100
AcDbEntity
  8
001
370
     9
100
AcDbPoint
 10
54.86387
 20
61.135695
 30
0.0
  0
POINT
  5
8A
330
78
100
AcDbEntity
  8
001
370
     9
100
AcDbPoint
 10
54.86387
 20
61.135695
 30
0.0
  0
POINT
  5
8B
330
78
100
AcDbEntity
  8
001
370
     9
100
AcDbPoint
 10
54.86387
 20
30.677543
 30
0.0
  0
ENDBLK
  5
7A
330
78
100
AcDbEntity
  8
0
100
AcDbBlockEnd
  0
BLOCK
  5
8D
330
8C
100
AcDbEntity
  8
0
100
AcDbBlockBegin
  2
*D3
 70
     1
 10
0.0
 20
0.0
 30
0.0
  3
*D3
  1

  0
LINE
  5
8F
330
8C
100
AcDbEntity
  8
001
370
     9
100
AcDbLine
 10
67.531542
 20
52.265695
 30
0.0
 11
67.531542
 21
36.606765
 31
0.0
  0
LINE
  5
90
330
8C
100
AcDbEntity
  8
001
370
     9
100
AcDbLine
 10
54.86387
 20
39.356765
 30
0.0
 11
67.531542
 21
39.356765
 31
0.0
  0
POLYLINE
  5
91
330
8C
100
AcDbEntity
  8
001
370
     9
100
AcDb2dPolyline
 66
     1
 10
0.0
 20
0.0
 30
0.0
  0
VERTEX
  5
93
330
91
100
AcDbEntity
  8
001
370
     9
100
AcDbVertex
100
AcDb2dVertex
 10
53.36387
 20
39.758689
 30
0.0
  0
VERTEX
  5
94
330
91
100
AcDbEntity
  8
001
370
     9
100
AcDbVertex
100
AcDb2dVertex
 10
54.86387
 20
39.356765
 30
0.0
  0
VERTEX
  5
95
330
91
100
AcDbEntity
  8
001
370
     9
100
AcDbVertex
100
AcDb2dVertex
 10
53.36387
 20
38.954841
 30
0.0
  0
SEQEND
  5
92
330
91
100
AcDbEntity
  8
001
370
     9
  0
POLYLINE
  5
96
330
8C
100
AcDbEntity
  8
001
370
     9
100
AcDb2dPolyline
 66
     1
 10
0.0
 20
0.0
 30
0.0
  0
VERTEX
  5
98
330
96
100
AcDbEntity
  8
001
370
     9
100
AcDbVertex
100
AcDb2dVertex
 10
69.031542
 20
38.954841
 30
0.0
  0
VERTEX
  5
99
330
96
100
AcDbEntity
  8
001
370
     9
100
AcDbVertex
100
AcDb2dVertex
 10
67.531542
 20
39.356765
 30
0.0
  0
VERTEX
  5
9A
330
96
100
AcDbEntity
  8
001
370
     9
100
AcDbVertex
100
AcDb2dVertex
 10
69.031542
 20
39.758689
 30
0.0
  0
SEQEND
  5
97
330
96
100
AcDbEntity
  8
001
370
     9
  0
TEXT
  5
9B
330
8C
100
AcDbEntity
  8
001
370
    30
100
AcDbText
 10
27.36387
 20
40.356765
 30
0.0
 40
4.0
  1
（１２．７）
 41
0.833333
100
AcDbText
  0
POINT
  5
9C
330
8C
100
AcDbEntity
  8
001
370
     9
100
AcDbPoint
 10
54.86387
 20
23.156897
 30
0.0
  0
POINT
  5
9D
330
8C
100
AcDbEntity
  8
001
370
     9
100
AcDbPoint
 10
67.531542
 20
36.606765
 30
0.0
  0
POINT
  5
9E
330
8C
100
AcDbEntity
  8
001
370
     9
100
AcDbPoint
 10
67.531542
 20
39.356765
 30
0.0
  0
LINE
  5
9F
330
8C
100
AcDbEntity
  8
001
370
     9
100
AcDbLine
 10
54.86387
 20
39.356765
 30
0.0
 11
24.36387
 21
39.356765
 31
0.0
  0
LINE
  5
A0
330
8C
100
AcDbEntity
  8
001
370
     9
100
AcDbLine
 10
67.531542
 20
39.356765
 30
0.0
 11
70.031542
 21
39.356765
 31
0.0
  0
ENDBLK
  5
8E
330
8C
100
AcDbEntity
  8
0
100
AcDbBlockEnd
  0
BLOCK
  5
A2
330
A1
100
AcDbEntity
  8
0
100
AcDbBlockBegin
  2
*D4
 70
     1
 10
0.0
 20
0.0
 30
0.0
  3
*D4
  1

  0
LINE
  5
A4
330
A1
100
AcDbEntity
  8
001
370
     9
100
AcDbLine
 10
84.86387
 20
52.635695
 30
0.0
 11
84.86387
 21
20.406897
 31
0.0
  0
LINE
  5
A5
330
A1
100
AcDbEntity
  8
001
370
     9
100
AcDbLine
 10
224.86387
 20
56.635695
 30
0.0
 11
224.86387
 21
20.406897
 31
0.0
  0
LINE
  5
A6
330
A1
100
AcDbEntity
  8
001
370
     9
100
AcDbLine
 10
84.86387
 20
23.156897
 30
0.0
 11
224.86387
 21
23.156897
 31
0.0
  0
POLYLINE
  5
A7
330
A1
100
AcDbEntity
  8
001
370
     9
100
AcDb2dPolyline
 66
     1
 10
0.0
 20
0.0
 30
0.0
  0
VERTEX
  5
A9
330
A7
100
AcDbEntity
  8
001
370
     9
100
AcDbVertex
100
AcDb2dVertex
 10
86.36387
 20
22.754973
 30
0.0
  0
VERTEX
  5
AA
330
A7
100
AcDbEntity
  8
001
370
     9
100
AcDbVertex
100
AcDb2dVertex
 10
84.86387
 20
23.156897
 30
0.0
  0
VERTEX
  5
AB
330
A7
100
AcDbEntity
  8
001
370
     9
100
AcDbVertex
100
AcDb2dVertex
 10
86.36387
 20
23.558821
 30
0.0
  0
SEQEND
  5
A8
330
A7
100
AcDbEntity
  8
001
370
     9
  0
POLYLINE
  5
AC
330
A1
100
AcDbEntity
  8
001
370
     9
100
AcDb2dPolyline
 66
     1
 10
0.0
 20
0.0
 30
0.0
  0
VERTEX
  5
AE
330
AC
100
AcDbEntity
  8
001
370
     9
100
AcDbVertex
100
AcDb2dVertex
 10
223.36387
 20
23.558821
 30
0.0
  0
VERTEX
  5
AF
330
AC
100
AcDbEntity
  8
001
370
     9
100
AcDbVertex
100
AcDb2dVertex
 10
224.86387
 20
23.156897
 30
0.0
  0
VERTEX
  5
B0
330
AC
100
AcDbEntity
  8
001
370
     9
100
AcDbVertex
100
AcDb2dVertex
 10
223.36387
 20
22.754973
 30
0.0
  0
SEQEND
  5
AD
330
AC
100
AcDbEntity
  8
001
370
     9
  0
TEXT
  5
B1
330
A1
100
AcDbEntity
  8
001
370
    30
100
AcDbText
 10
148.86387
 20
24.156897
 30
0.0
 40
4.0
  1
１４０
 41
0.833333
100
AcDbText
  0
POINT
  5
B2
330
A1
100
AcDbEntity
  8
001
370
     9
100
AcDbPoint
 10
84.86387
 20
52.635695
 30
0.0
  0
POINT
  5
B3
330
A1
100
AcDbEntity
  8
001
370
     9
100
AcDbPoint
 10
224.86387
 20
56.635695
 30
0.0
  0
POINT
  5
B4
330
A1
100
AcDbEntity
  8
001
370
     9
100
AcDbPoint
 10
224.86387
 20
23.156897
 30
0.0
  0
ENDBLK
  5
A3
330
A1
100
AcDbEntity
  8
0
100
AcDbBlockEnd
  0
BLOCK
  5
B6
330
B5
100
AcDbEntity
  8
0
100
AcDbBlockBegin
  2
*D5
 70
     1
 10
0.0
 20
0.0
 30
0.0
  3
*D5
  1

  0
LINE
  5
B8
330
B5
100
AcDbEntity
  8
001
370
     9
100
AcDbLine
 10
54.86387
 20
23.156897
 30
0.0
 11
54.86387
 21
8.444425
 31
0.0
  0
LINE
  5
B9
330
B5
100
AcDbEntity
  8
001
370
     9
100
AcDbLine
 10
224.86387
 20
39.896296
 30
0.0
 11
224.86387
 21
8.444425
 31
0.0
  0
LINE
  5
BA
330
B5
100
AcDbEntity
  8
001
370
     9
100
AcDbLine
 10
54.86387
 20
11.194425
 30
0.0
 11
224.86387
 21
11.194425
 31
0.0
  0
POLYLINE
  5
BB
330
B5
100
AcDbEntity
  8
001
370
     9
100
AcDb2dPolyline
 66
     1
 10
0.0
 20
0.0
 30
0.0
  0
VERTEX
  5
BD
330
BB
100
AcDbEntity
  8
001
370
     9
100
AcDbVertex
100
AcDb2dVertex
 10
56.36387
 20
10.792501
 30
0.0
  0
VERTEX
  5
BE
330
BB
100
AcDbEntity
  8
001
370
     9
100
AcDbVertex
100
AcDb2dVertex
 10
54.86387
 20
11.194425
 30
0.0
  0
VERTEX
  5
BF
330
BB
100
AcDbEntity
  8
001
370
     9
100
AcDbVertex
100
AcDb2dVertex
 10
56.36387
 20
11.596349
 30
0.0
  0
SEQEND
  5
BC
330
BB
100
AcDbEntity
  8
001
370
     9
  0
POLYLINE
  5
C0
330
B5
100
AcDbEntity
  8
001
370
     9
100
AcDb2dPolyline
 66
     1
 10
0.0
 20
0.0
 30
0.0
  0
VERTEX
  5
C2
330
C0
100
AcDbEntity
  8
001
370
     9
100
AcDbVertex
100
AcDb2dVertex
 10
223.36387
 20
11.596349
 30
0.0
  0
VERTEX
  5
C3
330
C0
100
AcDbEntity
  8
001
370
     9
100
AcDbVertex
100
AcDb2dVertex
 10
224.86387
 20
11.194425
 30
0.0
  0
VERTEX
  5
C4
330
C0
100
AcDbEntity
  8
001
370
     9
100
AcDbVertex
100
AcDb2dVertex
 10
223.36387
 20
10.792501
 30
0.0
  0
SEQEND
  5
C1
330
C0
100
AcDbEntity
  8
001
370
     9
  0
TEXT
  5
C5
330
B5
100
AcDbEntity
  8
001
370
    30
100
AcDbText
 10
133.86387
 20
12.194425
 30
0.0
 40
4.0
  1
１７０
 41
0.833333
100
AcDbText
  0
POINT
  5
C6
330
B5
100
AcDbEntity
  8
001
370
     9
100
AcDbPoint
 10
54.86387
 20
23.156897
 30
0.0
  0
POINT
  5
C7
330
B5
100
AcDbEntity
  8
001
370
     9
100
AcDbPoint
 10
224.86387
 20
39.896296
 30
0.0
  0
POINT
  5
C8
330
B5
100
AcDbEntity
  8
001
370
     9
100
AcDbPoint
 10
224.86387
 20
11.194425
 30
0.0
  0
ENDBLK
  5
B7
330
B5
100
AcDbEntity
  8
0
100
AcDbBlockEnd
  0
BLOCK
  5
CA
330
C9
100
AcDbEntity
  8
0
100
AcDbBlockBegin
  2
*D6
 70
     1
 10
0.0
 20
0.0
 30
0.0
  3
*D6
  1

  0
LINE
  5
CC
330
C9
100
AcDbEntity
  8
001
370
     9
100
AcDbLine
 10
220.86387
 20
52.635695
 30
0.0
 11
251.135407
 21
52.635695
 31
0.0
  0
LINE
  5
CD
330
C9
100
AcDbEntity
  8
001
370
     9
100
AcDbLine
 10
220.86387
 20
84.635695
 30
0.0
 11
251.135407
 21
84.635695
 31
0.0
  0
LINE
  5
CE
330
C9
100
AcDbEntity
  8
001
370
     9
100
AcDbLine
 10
248.385407
 20
52.635695
 30
0.0
 11
248.385407
 21
84.635695
 31
0.0
  0
POLYLINE
  5
CF
330
C9
100
AcDbEntity
  8
001
370
     9
100
AcDb2dPolyline
 66
     1
 10
0.0
 20
0.0
 30
0.0
  0
VERTEX
  5
D1
330
CF
100
AcDbEntity
  8
001
370
     9
100
AcDbVertex
100
AcDb2dVertex
 10
248.787331
 20
54.135695
 30
0.0
  0
VERTEX
  5
D2
330
CF
100
AcDbEntity
  8
001
370
     9
100
AcDbVertex
100
AcDb2dVertex
 10
248.385407
 20
52.635695
 30
0.0
  0
VERTEX
  5
D3
330
CF
100
AcDbEntity
  8
001
370
     9
100
AcDbVertex
100
AcDb2dVertex
 10
247.983483
 20
54.135695
 30
0.0
  0
SEQEND
  5
D0
330
CF
100
AcDbEntity
  8
001
370
     9
  0
POLYLINE
  5
D4
330
C9
100
AcDbEntity
  8
001
370
     9
100
AcDb2dPolyline
 66
     1
 10
0.0
 20
0.0
 30
0.0
  0
VERTEX
  5
D6
330
D4
100
AcDbEntity
  8
001
370
     9
100
AcDbVertex
100
AcDb2dVertex
 10
247.983483
 20
83.135695
 30
0.0
  0
VERTEX
  5
D7
330
D4
100
AcDbEntity
  8
001
370
     9
100
AcDbVertex
100
AcDb2dVertex
 10
248.385407
 20
84.635695
 30
0.0
  0
VERTEX
  5
D8
330
D4
100
AcDbEntity
  8
001
370
     9
100
AcDbVertex
100
AcDb2dVertex
 10
248.787331
 20
83.135695
 30
0.0
  0
SEQEND
  5
D5
330
D4
100
AcDbEntity
  8
001
370
     9
  0
TEXT
  5
D9
330
C9
100
AcDbEntity
  8
001
370
    30
100
AcDbText
 10
247.385407
 20
62.635695
 30
0.0
 40
4.0
  1
%%c３２
 50
90.000003
 41
0.882353
100
AcDbText
  0
POINT
  5
DA
330
C9
100
AcDbEntity
  8
001
370
     9
100
AcDbPoint
 10
220.86387
 20
52.635695
 30
0.0
  0
POINT
  5
DB
330
C9
100
AcDbEntity
  8
001
370
     9
100
AcDbPoint
 10
220.86387
 20
84.635695
 30
0.0
  0
POINT
  5
DC
330
C9
100
AcDbEntity
  8
001
370
     9
100
AcDbPoint
 10
248.385407
 20
84.635695
 30
0.0
  0
ENDBLK
  5
CB
330
C9
100
AcDbEntity
  8
0
100
AcDbBlockEnd
  0
ENDSEC
  0
SECTION
  2
ENTITIES
  0
TEXT
  5
DD
330
1F
100
AcDbEntity
  8
001
370
    30
100
AcDbText
 10
35.850293
 20
62.635695
 30
0.0
 40
4.0
  1
%%c１５
 50
90.000003
 41
0.882353
100
AcDbText
  0
POLYLINE
  5
DE
330
1F
100
AcDbEntity
  8
001
370
     9
100
AcDb2dPolyline
 66
     1
 10
0.0
 20
0.0
 30
0.0
  0
VERTEX
  5
E0
330
DE
100
AcDbEntity
  8
001
370
     9
100
AcDbVertex
100
AcDb2dVertex
 10
37.252216
 20
62.635695
 30
0.0
  0
VERTEX
  5
E1
330
DE
100
AcDbEntity
  8
001
370
     9
100
AcDbVertex
100
AcDb2dVertex
 10
36.850293
 20
61.135695
 30
0.0
  0
VERTEX
  5
E2
330
DE
100
AcDbEntity
  8
001
370
     9
100
AcDbVertex
100
AcDb2dVertex
 10
36.448369
 20
62.635695
 30
0.0
  0
SEQEND
  5
DF
330
DE
100
AcDbEntity
  8
001
370
     9
  0
LINE
  5
E3
330
1F
100
AcDbEntity
  8
001
370
     9
100
AcDbLine
 10
36.850293
 20
61.135695
 30
0.0
 11
36.850293
 21
76.135695
 31
0.0
  0
POLYLINE
  5
E4
330
1F
100
AcDbEntity
  8
001
370
     9
100
AcDb2dPolyline
 66
     1
 10
0.0
 20
0.0
 30
0.0
  0
VERTEX
  5
E6
330
E4
100
AcDbEntity
  8
001
370
     9
100
AcDbVertex
100
AcDb2dVertex
 10
54.86387
 20
61.135695
 30
0.0
  0
VERTEX
  5
E7
330
E4
100
AcDbEntity
  8
001
370
     9
100
AcDbVertex
100
AcDb2dVertex
 10
36.850293
 20
61.135695
 30
0.0
  0
VERTEX
  5
E8
330
E4
100
AcDbEntity
  8
001
370
     9
100
AcDbVertex
100
AcDb2dVertex
 10
34.100293
 20
61.135695
 30
0.0
  0
SEQEND
  5
E5
330
E4
100
AcDbEntity
  8
001
370
     9
  0
TEXT
  5
E9
330
1F
100
AcDbEntity
  8
001
370
    30
100
AcDbText
 10
23.695332
 20
52.635695
 30
0.0
 40
4.0
  1
（%%c３２．７４）
 50
90.000003
 41
0.851064
100
AcDbText
  0
POLYLINE
  5
EA
330
1F
100
AcDbEntity
  8
001
370
     9
100
AcDb2dPolyline
 66
     1
 10
0.0
 20
0.0
 30
0.0
  0
VERTEX
  5
EC
330
EA
100
AcDbEntity
  8
001
370
     9
100
AcDbVertex
100
AcDb2dVertex
 10
25.097256
 20
53.765695
 30
0.0
  0
VERTEX
  5
ED
330
EA
100
AcDbEntity
  8
001
370
     9
100
AcDbVertex
100
AcDb2dVertex
 10
24.695332
 20
52.265695
 30
0.0
  0
VERTEX
  5
EE
330
EA
100
AcDbEntity
  8
001
370
     9
100
AcDbVertex
100
AcDb2dVertex
 10
24.293408
 20
53.765695
 30
0.0
  0
SEQEND
  5
EB
330
EA
100
AcDbEntity
  8
001
370
     9
  0
LINE
  5
EF
330
1F
100
AcDbEntity
  8
001
370
     9
100
AcDbLine
 10
24.695332
 20
85.005695
 30
0.0
 11
24.695332
 21
52.265695
 31
0.0
  0
POLYLINE
  5
F0
330
1F
100
AcDbEntity
  8
001
370
     9
100
AcDb2dPolyline
 66
     1
 10
0.0
 20
0.0
 30
0.0
  0
VERTEX
  5
F2
330
F0
100
AcDbEntity
  8
001
370
     9
100
AcDbVertex
100
AcDb2dVertex
 10
67.531542
 20
52.265695
 30
0.0
  0
VERTEX
  5
F3
330
F0
100
AcDbEntity
  8
001
370
     9
100
AcDbVertex
100
AcDb2dVertex
 10
24.695332
 20
52.265695
 30
0.0
  0
VERTEX
  5
F4
330
F0
100
AcDbEntity
  8
001
370
     9
100
AcDbVertex
100
AcDb2dVertex
 10
21.945332
 20
52.265695
 30
0.0
  0
SEQEND
  5
F1
330
F0
100
AcDbEntity
  8
001
370
     9
  0
DIMENSION
  5
F5
330
1F
100
AcDbEntity
  8
001
370
     9
100
AcDbDimension
  2
*D1
 10
84.86387
 20
23.156897
 30
0.0
 11
69.86387
 21
26.156897
 31
0.0
 70
   160
 71
     5
 42
-1.0
  3
Standard
100
AcDbAlignedDimension
 13
54.86387
 23
61.135695
 33
0.0
 14
84.86387
 24
52.635695
 34
0.0
100
AcDbRotatedDimension
  0
DIMENSION
  5
F6
330
1F
100
AcDbEntity
  8
001
370
     9
100
AcDbDimension
  2
*D2
 10
54.86387
 20
61.135695
 30
0.0
 11
68.812442
 21
34.340737
 31
0.0
 70
    34
 71
     5
 42
-1.0
  3
Standard
100
AcDb2LineAngularDimension
 13
67.431492
 23
52.335752
 33
0.0
 14
54.86387
 24
61.135695
 34
0.0
 15
54.86387
 25
30.677543
 35
0.0
 16
70.197688
 26
31.679705
 36
0.0
  0
DIMENSION
  5
F7
330
1F
100
AcDbEntity
  8
001
370
     9
100
AcDbDimension
  2
*D3
 10
67.531542
 20
39.356765
 30
0.0
 11
39.36387
 21
42.356765
 31
0.0
 70
   160
 71
     5
 42
-1.0
  3
Standard
100
AcDbAlignedDimension
 13
54.86387
 23
23.156897
 33
0.0
 14
67.531542
 24
36.606765
 34
0.0
100
AcDbRotatedDimension
  0
DIMENSION
  5
F8
330
1F
100
AcDbEntity
  8
001
370
     9
100
AcDbDimension
  2
*D4
 10
224.86387
 20
23.156897
 30
0.0
 11
154.86387
 21
26.156897
 31
0.0
 70
   160
 71
     5
 42
-1.0
  3
Standard
100
AcDbAlignedDimension
 13
84.86387
 23
52.635695
 33
0.0
 14
224.86387
 24
56.635695
 34
0.0
100
AcDbRotatedDimension
  0
DIMENSION
  5
F9
330
1F
100
AcDbEntity
  8
001
370
     9
100
AcDbDimension
  2
*D5
 10
224.86387
 20
11.194425
 30
0.0
 11
139.86387
 21
14.194425
 31
0.0
 70
   160
 71
     5
 42
-1.0
  3
Standard
100
AcDbAlignedDimension
 13
54.86387
 23
23.156897
 33
0.0
 14
224.86387
 24
39.896296
 34
0.0
100
AcDbRotatedDimension
  0
DIMENSION
  5
FA
330
1F
100
AcDbEntity
  8
001
370
     9
100
AcDbDimension
  2
*D6
 10
248.385407
 20
84.635695
 30
0.0
 11
245.385407
 21
68.635695
 31
0.0
 70
   160
 71
     5
 42
-1.0
  3
Standard
100
AcDbAlignedDimension
 13
220.86387
 23
52.635695
 33
0.0
 14
220.86387
 24
84.635695
 34
0.0
 50
90.0
100
AcDbRotatedDimension
  0
LINE
  5
FB
330
1F
100
AcDbEntity
  8
001
370
    50
100
AcDbLine
 10
68.791076
 20
68.093113
 30
0.0
 11
55.094822
 21
61.706445
 31
0.0
  0
LINE
  5
FC
330
1F
100
AcDbEntity
  8
001
370
    50
100
AcDbLine
 10
68.039585
 20
52.61931
 30
0.0
 11
69.358601
 21
67.695728
 31
0.0
  0
ARC
  5
FD
330
1F
100
AcDbEntity
  8
001
370
    50
100
AcDbCircle
 10
55.26387
 20
61.343922
 30
0.0
 40
0.4
100
AcDbArc
 50
115.0
 51
235.0
  0
ARC
  5
FE
330
1F
100
AcDbEntity
  8
001
370
    50
100
AcDbCircle
 10
68.960123
 20
67.73059
 30
0.0
 40
0.4
100
AcDbArc
 50
355.0
 51
115.0
  0
CIRCLE
  5
FF
330
1F
100
AcDbEntity
  8
001
370
    50
100
AcDbCircle
 10
63.955668
 20
60.583488
 30
0.0
 40
1.9
  0
LINE
  5
100
330
1F
100
AcDbEntity
  8
001
370
     9
100
AcDbLine
 10
67.531542
 20
52.265695
 30
0.0
 11
67.431346
 21
52.335854
 31
0.0
  0
LINE
  5
101
330
1F
100
AcDbEntity
  8
001
370
     9
100
AcDbLine
 10
54.86387
 20
61.135695
 30
0.0
 11
55.034439
 21
61.016261
 31
0.0
  0
LINE
  5
102
330
1F
100
AcDbEntity
  8
001
370
    50
100
AcDbLine
 10
67.431492
 20
52.335752
 30
0.0
 11
55.034439
 21
61.016261
 31
0.0
  0
ARC
  5
103
330
1F
100
AcDbEntity
  8
001
370
    50
100
AcDbCircle
 10
68.014559
 20
66.380184
 30
0.0
 40
3.0
100
AcDbArc
 50
289.084917
 51
180.915083
  0
LINE
  5
104
330
1F
100
AcDbEntity
  8
001
370
    50
100
AcDbLine
 10
224.86387
 20
56.635695
 30
0.0
 11
224.86387
 21
80.635695
 31
0.0
  0
LINE
  5
105
330
1F
100
AcDbEntity
  8
001
370
    50
100
AcDbLine
 10
84.86387
 20
84.635695
 30
0.0
 11
84.86387
 21
52.635695
 31
0.0
  0
LINE
  5
106
330
1F
100
AcDbEntity
  8
001
370
    50
100
AcDbLine
 10
67.835027
 20
84.335695
 30
0.0
 11
67.835027
 21
81.040452
 31
0.0
  0
LINE
  5
107
330
1F
100
AcDbEntity
  8
001
370
    50
100
AcDbLine
 10
84.86387
 20
84.335695
 30
0.0
 11
67.835027
 21
84.335695
 31
0.0
  0
POLYLINE
  5
108
330
1F
100
AcDbEntity
  8
001
370
    50
100
AcDb2dPolyline
 66
     1
 10
0.0
 20
0.0
 30
0.0
  0
VERTEX
  5
10A
330
108
100
AcDbEntity
  8
001
370
    50
100
AcDbVertex
100
AcDb2dVertex
 10
73.094551
 20
57.586239
 30
0.0
  0
VERTEX
  5
10B
330
108
100
AcDbEntity
  8
001
370
    50
100
AcDbVertex
100
AcDb2dVertex
 10
73.200298
 20
56.568657
 30
0.0
  0
VERTEX
  5
10C
330
108
100
AcDbEntity
  8
001
370
    50
100
AcDbVertex
100
AcDb2dVertex
 10
73.415536
 20
55.09005
 30
0.0
  0
VERTEX
  5
10D
330
108
100
AcDbEntity
  8
001
370
    50
100
AcDbVertex
100
AcDb2dVertex
 10
73.613579
 20
54.142576
 30
0.0
  0
VERTEX
  5
10E
330
108
100
AcDbEntity
  8
001
370
    50
100
AcDbVertex
100
AcDb2dVertex
 10
73.789789
 20
53.504598
 30
0.0
  0
SEQEND
  5
109
330
108
100
AcDbEntity
  8
001
370
    50
  0
POLYLINE
  5
10F
330
1F
100
AcDbEntity
  8
001
370
    50
100
AcDb2dPolyline
 66
     1
 10
0.0
 20
0.0
 30
0.0
  0
VERTEX
  5
111
330
10F
100
AcDbEntity
  8
001
370
    50
100
AcDbVertex
100
AcDb2dVertex
 10
73.094551
 20
57.586239
 30
0.0
  0
VERTEX
  5
112
330
10F
100
AcDbEntity
  8
001
370
    50
100
AcDbVertex
100
AcDb2dVertex
 10
73.758425
 20
58.500961
 30
0.0
  0
VERTEX
  5
113
330
10F
100
AcDbEntity
  8
001
370
    50
100
AcDbVertex
100
AcDb2dVertex
 10
74.595225
 20
59.813567
 30
0.0
  0
VERTEX
  5
114
330
10F
100
AcDbEntity
  8
001
370
    50
100
AcDbVertex
100
AcDb2dVertex
 10
75.255505
 20
61.099467
 30
0.0
  0
VERTEX
  5
115
330
10F
100
AcDbEntity
  8
001
370
    50
100
AcDbVertex
100
AcDb2dVertex
 10
75.736995
 20
62.338769
 30
0.0
  0
VERTEX
  5
116
330
10F
100
AcDbEntity
  8
001
370
    50
100
AcDbVertex
100
AcDb2dVertex
 10
76.151945
 20
63.680296
 30
0.0
  0
VERTEX
  5
117
330
10F
100
AcDbEntity
  8
001
370
    50
100
AcDbVertex
100
AcDb2dVertex
 10
76.481309
 20
65.076583
 30
0.0
  0
VERTEX
  5
118
330
10F
100
AcDbEntity
  8
001
370
    50
100
AcDbVertex
100
AcDb2dVertex
 10
76.699454
 20
66.502766
 30
0.0
  0
VERTEX
  5
119
330
10F
100
AcDbEntity
  8
001
370
    50
100
AcDbVertex
100
AcDb2dVertex
 10
76.803037
 20
67.934568
 30
0.0
  0
VERTEX
  5
11A
330
10F
100
AcDbEntity
  8
001
370
    50
100
AcDbVertex
100
AcDb2dVertex
 10
76.799886
 20
69.377438
 30
0.0
  0
VERTEX
  5
11B
330
10F
100
AcDbEntity
  8
001
370
    50
100
AcDbVertex
100
AcDb2dVertex
 10
76.691314
 20
70.816227
 30
0.0
  0
VERTEX
  5
11C
330
10F
100
AcDbEntity
  8
001
370
    50
100
AcDbVertex
100
AcDb2dVertex
 10
76.477852
 20
72.227637
 30
0.0
  0
VERTEX
  5
11D
330
10F
100
AcDbEntity
  8
001
370
    50
100
AcDbVertex
100
AcDb2dVertex
 10
76.149914
 20
73.624261
 30
0.0
  0
VERTEX
  5
11E
330
10F
100
AcDbEntity
  8
001
370
    50
100
AcDbVertex
100
AcDb2dVertex
 10
75.71444
 20
74.974789
 30
0.0
  0
VERTEX
  5
11F
330
10F
100
AcDbEntity
  8
001
370
    50
100
AcDbVertex
100
AcDb2dVertex
 10
75.197116
 20
76.263859
 30
0.0
  0
VERTEX
  5
120
330
10F
100
AcDbEntity
  8
001
370
    50
100
AcDbVertex
100
AcDb2dVertex
 10
74.622759
 20
77.440648
 30
0.0
  0
VERTEX
  5
121
330
10F
100
AcDbEntity
  8
001
370
    50
100
AcDbVertex
100
AcDb2dVertex
 10
73.865092
 20
78.645897
 30
0.0
  0
VERTEX
  5
122
330
10F
100
AcDbEntity
  8
001
370
    50
100
AcDbVertex
100
AcDb2dVertex
 10
72.930702
 20
79.855667
 30
0.0
  0
VERTEX
  5
123
330
10F
100
AcDbEntity
  8
001
370
    50
100
AcDbVertex
100
AcDb2dVertex
 10
72.198815
 20
80.689946
 30
0.0
  0
SEQEND
  5
110
330
10F
100
AcDbEntity
  8
001
370
    50
  0
POLYLINE
  5
124
330
1F
100
AcDbEntity
  8
001
370
    50
100
AcDb2dPolyline
 66
     1
 10
0.0
 20
0.0
 30
0.0
  0
VERTEX
  5
126
330
124
100
AcDbEntity
  8
001
370
    50
100
AcDbVertex
100
AcDb2dVertex
 10
72.198815
 20
80.689946
 30
0.0
  0
VERTEX
  5
127
330
124
100
AcDbEntity
  8
001
370
    50
100
AcDbVertex
100
AcDb2dVertex
 10
71.318828
 20
80.762623
 30
0.0
  0
VERTEX
  5
128
330
124
100
AcDbEntity
  8
001
370
    50
100
AcDbVertex
100
AcDb2dVertex
 10
70.032554
 20
80.867138
 30
0.0
  0
VERTEX
  5
129
330
124
100
AcDbEntity
  8
001
370
    50
100
AcDbVertex
100
AcDb2dVertex
 10
68.727828
 20
80.970739
 30
0.0
  0
VERTEX
  5
12A
330
124
100
AcDbEntity
  8
001
370
    50
100
AcDbVertex
100
AcDb2dVertex
 10
67.835027
 20
81.040452
 30
0.0
  0
SEQEND
  5
125
330
124
100
AcDbEntity
  8
001
370
    50
  0
LINE
  5
12B
330
1F
100
AcDbEntity
  8
001
370
    50
100
AcDbLine
 10
73.094551
 20
63.124585
 30
0.0
 11
73.094551
 21
57.586239
 31
0.0
  0
POLYLINE
  5
12C
330
1F
100
AcDbEntity
  8
001
370
    50
100
AcDb2dPolyline
 66
     1
 10
0.0
 20
0.0
 30
0.0
  0
VERTEX
  5
12E
330
12C
100
AcDbEntity
  8
001
370
    50
100
AcDbVertex
100
AcDb2dVertex
 10
73.094551
 20
63.124585
 30
0.0
  0
VERTEX
  5
12F
330
12C
100
AcDbEntity
  8
001
370
    50
100
AcDbVertex
100
AcDb2dVertex
 10
73.051664
 20
63.919301
 30
0.0
  0
VERTEX
  5
130
330
12C
100
AcDbEntity
  8
001
370
    50
100
AcDbVertex
100
AcDb2dVertex
 10
72.866755
 20
65.061077
 30
0.0
  0
VERTEX
  5
131
330
12C
100
AcDbEntity
  8
001
370
    50
100
AcDbVertex
100
AcDb2dVertex
 10
72.517819
 20
66.148336
 30
0.0
  0
VERTEX
  5
132
330
12C
100
AcDbEntity
  8
001
370
    50
100
AcDbVertex
100
AcDb2dVertex
 10
72.198815
 20
66.866243
 30
0.0
  0
SEQEND
  5
12D
330
12C
100
AcDbEntity
  8
001
370
    50
  0
LINE
  5
133
330
1F
100
AcDbEntity
  8
001
370
    50
100
AcDbLine
 10
72.198815
 20
80.689946
 30
0.0
 11
72.198815
 21
66.866243
 31
0.0
  0
POLYLINE
  5
134
330
1F
100
AcDbEntity
  8
001
370
    50
100
AcDb2dPolyline
 66
     1
 10
0.0
 20
0.0
 30
0.0
  0
VERTEX
  5
136
330
134
100
AcDbEntity
  8
001
370
    50
100
AcDbVertex
100
AcDb2dVertex
 10
57.691692
 20
68.165327
 30
0.0
  0
VERTEX
  5
137
330
134
100
AcDbEntity
  8
001
370
    50
100
AcDbVertex
100
AcDb2dVertex
 10
57.676862
 20
68.458522
 30
0.0
  0
VERTEX
  5
138
330
134
100
AcDbEntity
  8
001
370
    50
100
AcDbVertex
100
AcDb2dVertex
 10
57.672507
 20
68.75171
 30
0.0
  0
VERTEX
  5
139
330
134
100
AcDbEntity
  8
001
370
    50
100
AcDbVertex
100
AcDb2dVertex
 10
57.686891
 20
69.045683
 30
0.0
  0
VERTEX
  5
13A
330
134
100
AcDbEntity
  8
001
370
    50
100
AcDbVertex
100
AcDb2dVertex
 10
57.719072
 20
69.338529
 30
0.0
  0
VERTEX
  5
13B
330
134
100
AcDbEntity
  8
001
370
    50
100
AcDbVertex
100
AcDb2dVertex
 10
57.766205
 20
69.628345
 30
0.0
  0
VERTEX
  5
13C
330
134
100
AcDbEntity
  8
001
370
    50
100
AcDbVertex
100
AcDb2dVertex
 10
57.828126
 20
69.915225
 30
0.0
  0
VERTEX
  5
13D
330
134
100
AcDbEntity
  8
001
370
    50
100
AcDbVertex
100
AcDb2dVertex
 10
57.906996
 20
70.205615
 30
0.0
  0
VERTEX
  5
13E
330
134
100
AcDbEntity
  8
001
370
    50
100
AcDbVertex
100
AcDb2dVertex
 10
58.00008
 20
70.491837
 30
0.0
  0
VERTEX
  5
13F
330
134
100
AcDbEntity
  8
001
370
    50
100
AcDbVertex
100
AcDb2dVertex
 10
58.106134
 20
70.774481
 30
0.0
  0
VERTEX
  5
140
330
134
100
AcDbEntity
  8
001
370
    50
100
AcDbVertex
100
AcDb2dVertex
 10
58.223754
 20
71.052487
 30
0.0
  0
VERTEX
  5
141
330
134
100
AcDbEntity
  8
001
370
    50
100
AcDbVertex
100
AcDb2dVertex
 10
58.352132
 20
71.32618
 30
0.0
  0
VERTEX
  5
142
330
134
100
AcDbEntity
  8
001
370
    50
100
AcDbVertex
100
AcDb2dVertex
 10
58.490123
 20
71.595158
 30
0.0
  0
VERTEX
  5
143
330
134
100
AcDbEntity
  8
001
370
    50
100
AcDbVertex
100
AcDb2dVertex
 10
58.636304
 20
71.858695
 30
0.0
  0
VERTEX
  5
144
330
134
100
AcDbEntity
  8
001
370
    50
100
AcDbVertex
100
AcDb2dVertex
 10
58.790164
 20
72.11783
 30
0.0
  0
VERTEX
  5
145
330
134
100
AcDbEntity
  8
001
370
    50
100
AcDbVertex
100
AcDb2dVertex
 10
59.044589
 20
72.515301
 30
0.0
  0
VERTEX
  5
146
330
134
100
AcDbEntity
  8
001
370
    50
100
AcDbVertex
100
AcDb2dVertex
 10
59.313501
 20
72.903168
 30
0.0
  0
VERTEX
  5
147
330
134
100
AcDbEntity
  8
001
370
    50
100
AcDbVertex
100
AcDb2dVertex
 10
59.595184
 20
73.282458
 30
0.0
  0
VERTEX
  5
148
330
134
100
AcDbEntity
  8
001
370
    50
100
AcDbVertex
100
AcDb2dVertex
 10
59.887671
 20
73.653456
 30
0.0
  0
VERTEX
  5
149
330
134
100
AcDbEntity
  8
001
370
    50
100
AcDbVertex
100
AcDb2dVertex
 10
60.189192
 20
74.016732
 30
0.0
  0
VERTEX
  5
14A
330
134
100
AcDbEntity
  8
001
370
    50
100
AcDbVertex
100
AcDb2dVertex
 10
60.498396
 20
74.373527
 30
0.0
  0
VERTEX
  5
14B
330
134
100
AcDbEntity
  8
001
370
    50
100
AcDbVertex
100
AcDb2dVertex
 10
60.982963
 20
74.907874
 30
0.0
  0
VERTEX
  5
14C
330
134
100
AcDbEntity
  8
001
370
    50
100
AcDbVertex
100
AcDb2dVertex
 10
61.48117
 20
75.429468
 30
0.0
  0
VERTEX
  5
14D
330
134
100
AcDbEntity
  8
001
370
    50
100
AcDbVertex
100
AcDb2dVertex
 10
61.99131
 20
75.939295
 30
0.0
  0
VERTEX
  5
14E
330
134
100
AcDbEntity
  8
001
370
    50
100
AcDbVertex
100
AcDb2dVertex
 10
62.507895
 20
76.442699
 30
0.0
  0
SEQEND
  5
135
330
134
100
AcDbEntity
  8
001
370
    50
  0
POLYLINE
  5
14F
330
1F
100
AcDbEntity
  8
001
370
    50
100
AcDb2dPolyline
 66
     1
 10
0.0
 20
0.0
 30
0.0
  0
VERTEX
  5
151
330
14F
100
AcDbEntity
  8
001
370
    50
100
AcDbVertex
100
AcDb2dVertex
 10
62.507895
 20
76.442699
 30
0.0
  0
VERTEX
  5
152
330
14F
100
AcDbEntity
  8
001
370
    50
100
AcDbVertex
100
AcDb2dVertex
 10
62.503011
 20
76.23857
 30
0.0
  0
VERTEX
  5
153
330
14F
100
AcDbEntity
  8
001
370
    50
100
AcDbVertex
100
AcDb2dVertex
 10
62.514561
 20
75.957927
 30
0.0
  0
VERTEX
  5
154
330
14F
100
AcDbEntity
  8
001
370
    50
100
AcDbVertex
100
AcDb2dVertex
 10
62.550803
 20
75.707659
 30
0.0
  0
VERTEX
  5
155
330
14F
100
AcDbEntity
  8
001
370
    50
100
AcDbVertex
100
AcDb2dVertex
 10
62.610765
 20
75.482464
 30
0.0
  0
VERTEX
  5
156
330
14F
100
AcDbEntity
  8
001
370
    50
100
AcDbVertex
100
AcDb2dVertex
 10
62.691838
 20
75.255886
 30
0.0
  0
VERTEX
  5
157
330
14F
100
AcDbEntity
  8
001
370
    50
100
AcDbVertex
100
AcDb2dVertex
 10
62.793287
 20
75.032224
 30
0.0
  0
VERTEX
  5
158
330
14F
100
AcDbEntity
  8
001
370
    50
100
AcDbVertex
100
AcDb2dVertex
 10
62.915092
 20
74.820452
 30
0.0
  0
VERTEX
  5
159
330
14F
100
AcDbEntity
  8
001
370
    50
100
AcDbVertex
100
AcDb2dVertex
 10
63.056017
 20
74.622277
 30
0.0
  0
VERTEX
  5
15A
330
14F
100
AcDbEntity
  8
001
370
    50
100
AcDbVertex
100
AcDb2dVertex
 10
63.215144
 20
74.436851
 30
0.0
  0
VERTEX
  5
15B
330
14F
100
AcDbEntity
  8
001
370
    50
100
AcDbVertex
100
AcDb2dVertex
 10
63.390161
 20
74.266344
 30
0.0
  0
VERTEX
  5
15C
330
14F
100
AcDbEntity
  8
001
370
    50
100
AcDbVertex
100
AcDb2dVertex
 10
63.579986
 20
74.112296
 30
0.0
  0
VERTEX
  5
15D
330
14F
100
AcDbEntity
  8
001
370
    50
100
AcDbVertex
100
AcDb2dVertex
 10
63.784537
 20
73.976339
 30
0.0
  0
VERTEX
  5
15E
330
14F
100
AcDbEntity
  8
001
370
    50
100
AcDbVertex
100
AcDb2dVertex
 10
64.003171
 20
73.859152
 30
0.0
  0
VERTEX
  5
15F
330
14F
100
AcDbEntity
  8
001
370
    50
100
AcDbVertex
100
AcDb2dVertex
 10
64.225943
 20
73.761968
 30
0.0
  0
VERTEX
  5
160
330
14F
100
AcDbEntity
  8
001
370
    50
100
AcDbVertex
100
AcDb2dVertex
 10
64.44934
 20
73.685474
 30
0.0
  0
VERTEX
  5
161
330
14F
100
AcDbEntity
  8
001
370
    50
100
AcDbVertex
100
AcDb2dVertex
 10
64.699606
 20
73.630407
 30
0.0
  0
VERTEX
  5
162
330
14F
100
AcDbEntity
  8
001
370
    50
100
AcDbVertex
100
AcDb2dVertex
 10
64.982734
 20
73.597174
 30
0.0
  0
VERTEX
  5
163
330
14F
100
AcDbEntity
  8
001
370
    50
100
AcDbVertex
100
AcDb2dVertex
 10
65.189672
 20
73.586058
 30
0.0
  0
SEQEND
  5
150
330
14F
100
AcDbEntity
  8
001
370
    50
  0
POLYLINE
  5
164
330
1F
100
AcDbEntity
  8
001
370
    50
100
AcDb2dPolyline
 66
     1
 10
0.0
 20
0.0
 30
0.0
  0
VERTEX
  5
166
330
164
100
AcDbEntity
  8
001
370
    50
100
AcDbVertex
100
AcDb2dVertex
 10
65.230525
 20
78.885753
 30
0.0
  0
VERTEX
  5
167
330
164
100
AcDbEntity
  8
001
370
    50
100
AcDbVertex
100
AcDb2dVertex
 10
65.876352
 20
79.430732
 30
0.0
  0
VERTEX
  5
168
330
164
100
AcDbEntity
  8
001
370
    50
100
AcDbVertex
100
AcDb2dVertex
 10
66.525042
 20
79.972251
 30
0.0
  0
VERTEX
  5
169
330
164
100
AcDbEntity
  8
001
370
    50
100
AcDbVertex
100
AcDb2dVertex
 10
67.178603
 20
80.508083
 30
0.0
  0
VERTEX
  5
16A
330
164
100
AcDbEntity
  8
001
370
    50
100
AcDbVertex
100
AcDb2dVertex
 10
67.835027
 20
81.040452
 30
0.0
  0
SEQEND
  5
165
330
164
100
AcDbEntity
  8
001
370
    50
  0
POLYLINE
  5
16B
330
1F
100
AcDbEntity
  8
001
370
    50
100
AcDb2dPolyline
 66
     1
 10
0.0
 20
0.0
 30
0.0
  0
VERTEX
  5
16D
330
16B
100
AcDbEntity
  8
001
370
    50
100
AcDbVertex
100
AcDb2dVertex
 10
71.079435
 20
68.355145
 30
0.0
  0
VERTEX
  5
16E
330
16B
100
AcDbEntity
  8
001
370
    50
100
AcDbVertex
100
AcDb2dVertex
 10
70.990297
 20
68.610855
 30
0.0
  0
VERTEX
  5
16F
330
16B
100
AcDbEntity
  8
001
370
    50
100
AcDbVertex
100
AcDb2dVertex
 10
70.845402
 20
68.954012
 30
0.0
  0
VERTEX
  5
170
330
16B
100
AcDbEntity
  8
001
370
    50
100
AcDbVertex
100
AcDb2dVertex
 10
70.684631
 20
69.247787
 30
0.0
  0
VERTEX
  5
171
330
16B
100
AcDbEntity
  8
001
370
    50
100
AcDbVertex
100
AcDb2dVertex
 10
70.506243
 20
69.499708
 30
0.0
  0
VERTEX
  5
172
330
16B
100
AcDbEntity
  8
001
370
    50
100
AcDbVertex
100
AcDb2dVertex
 10
70.301486
 20
69.74319
 30
0.0
  0
VERTEX
  5
173
330
16B
100
AcDbEntity
  8
001
370
    50
100
AcDbVertex
100
AcDb2dVertex
 10
70.073418
 20
69.973793
 30
0.0
  0
VERTEX
  5
174
330
16B
100
AcDbEntity
  8
001
370
    50
100
AcDbVertex
100
AcDb2dVertex
 10
69.827101
 20
70.179754
 30
0.0
  0
VERTEX
  5
175
330
16B
100
AcDbEntity
  8
001
370
    50
100
AcDbVertex
100
AcDb2dVertex
 10
69.561555
 20
70.360245
 30
0.0
  0
VERTEX
  5
176
330
16B
100
AcDbEntity
  8
001
370
    50
100
AcDbVertex
100
AcDb2dVertex
 10
69.277762
 20
70.516112
 30
0.0
  0
VERTEX
  5
177
330
16B
100
AcDbEntity
  8
001
370
    50
100
AcDbVertex
100
AcDb2dVertex
 10
68.987951
 20
70.646006
 30
0.0
  0
VERTEX
  5
178
330
16B
100
AcDbEntity
  8
001
370
    50
100
AcDbVertex
100
AcDb2dVertex
 10
68.697645
 20
70.748012
 30
0.0
  0
VERTEX
  5
179
330
16B
100
AcDbEntity
  8
001
370
    50
100
AcDbVertex
100
AcDb2dVertex
 10
68.371988
 20
70.821418
 30
0.0
  0
VERTEX
  5
17A
330
16B
100
AcDbEntity
  8
001
370
    50
100
AcDbVertex
100
AcDb2dVertex
 10
68.003724
 20
70.865714
 30
0.0
  0
VERTEX
  5
17B
330
16B
100
AcDbEntity
  8
001
370
    50
100
AcDbVertex
100
AcDb2dVertex
 10
67.734483
 20
70.880555
 30
0.0
  0
SEQEND
  5
16C
330
16B
100
AcDbEntity
  8
001
370
    50
  0
POLYLINE
  5
17C
330
1F
100
AcDbEntity
  8
001
370
    50
100
AcDb2dPolyline
 66
     1
 10
0.0
 20
0.0
 30
0.0
  0
VERTEX
  5
17E
330
17C
100
AcDbEntity
  8
001
370
    50
100
AcDbVertex
100
AcDb2dVertex
 10
65.730954
 20
70.624585
 30
0.0
  0
VERTEX
  5
17F
330
17C
100
AcDbEntity
  8
001
370
    50
100
AcDbVertex
100
AcDb2dVertex
 10
65.201528
 20
70.603024
 30
0.0
  0
VERTEX
  5
180
330
17C
100
AcDbEntity
  8
001
370
    50
100
AcDbVertex
100
AcDb2dVertex
 10
64.435032
 20
70.510644
 30
0.0
  0
VERTEX
  5
181
330
17C
100
AcDbEntity
  8
001
370
    50
100
AcDbVertex
100
AcDb2dVertex
 10
63.68324
 20
70.333981
 30
0.0
  0
VERTEX
  5
182
330
17C
100
AcDbEntity
  8
001
370
    50
100
AcDbVertex
100
AcDb2dVertex
 10
63.178486
 20
70.17228
 30
0.0
  0
SEQEND
  5
17D
330
17C
100
AcDbEntity
  8
001
370
    50
  0
POLYLINE
  5
183
330
1F
100
AcDbEntity
  8
001
370
    50
100
AcDb2dPolyline
 66
     1
 10
0.0
 20
0.0
 30
0.0
  0
VERTEX
  5
185
330
183
100
AcDbEntity
  8
001
370
    50
100
AcDbVertex
100
AcDb2dVertex
 10
72.198815
 20
66.866243
 30
0.0
  0
VERTEX
  5
186
330
183
100
AcDbEntity
  8
001
370
    50
100
AcDbVertex
100
AcDb2dVertex
 10
72.000684
 20
67.190167
 30
0.0
  0
VERTEX
  5
187
330
183
100
AcDbEntity
  8
001
370
    50
100
AcDbVertex
100
AcDb2dVertex
 10
71.685383
 20
67.645818
 30
0.0
  0
VERTEX
  5
188
330
183
100
AcDbEntity
  8
001
370
    50
100
AcDbVertex
100
AcDb2dVertex
 10
71.335439
 20
68.075013
 30
0.0
  0
VERTEX
  5
189
330
183
100
AcDbEntity
  8
001
370
    50
100
AcDbVertex
100
AcDb2dVertex
 10
71.079435
 20
68.355145
 30
0.0
  0
SEQEND
  5
184
330
183
100
AcDbEntity
  8
001
370
    50
  0
LINE
  5
18A
330
1F
100
AcDbEntity
  8
001
370
    50
100
AcDbLine
 10
67.835027
 20
84.335695
 30
0.0
 11
61.963206
 21
80.239456
 31
0.0
  0
POLYLINE
  5
18B
330
1F
100
AcDbEntity
  8
001
370
    50
100
AcDb2dPolyline
 66
     1
 10
0.0
 20
0.0
 30
0.0
  0
VERTEX
  5
18D
330
18B
100
AcDbEntity
  8
001
370
    50
100
AcDbVertex
100
AcDb2dVertex
 10
61.706896
 20
80.060645
 30
0.0
  0
VERTEX
  5
18E
330
18B
100
AcDbEntity
  8
001
370
    50
100
AcDbVertex
100
AcDb2dVertex
 10
61.648382
 20
80.019816
 30
0.0
  0
VERTEX
  5
18F
330
18B
100
AcDbEntity
  8
001
370
    50
100
AcDbVertex
100
AcDb2dVertex
 10
61.589869
 20
79.978986
 30
0.0
  0
VERTEX
  5
190
330
18B
100
AcDbEntity
  8
001
370
    50
100
AcDbVertex
100
AcDb2dVertex
 10
60.030453
 20
78.8899
 30
0.0
  0
VERTEX
  5
191
330
18B
100
AcDbEntity
  8
001
370
    50
100
AcDbVertex
100
AcDb2dVertex
 10
58.472766
 20
77.798348
 30
0.0
  0
VERTEX
  5
192
330
18B
100
AcDbEntity
  8
001
370
    50
100
AcDbVertex
100
AcDb2dVertex
 10
56.917569
 20
76.703156
 30
0.0
  0
VERTEX
  5
193
330
18B
100
AcDbEntity
  8
001
370
    50
100
AcDbVertex
100
AcDb2dVertex
 10
55.36387
 20
75.605833
 30
0.0
  0
SEQEND
  5
18C
330
18B
100
AcDbEntity
  8
001
370
    50
  0
LINE
  5
194
330
1F
100
AcDbEntity
  8
001
370
    50
100
AcDbLine
 10
61.962354
 20
80.238855
 30
0.0
 11
61.706896
 21
80.060645
 31
0.0
  0
LINE
  5
195
330
1F
100
AcDbEntity
  8
001
370
    50
100
AcDbLine
 10
65.230525
 20
78.885753
 30
0.0
 11
65.186431
 21
78.886058
 31
0.0
  0
POLYLINE
  5
196
330
1F
100
AcDbEntity
  8
001
370
    50
100
AcDb2dPolyline
 66
     1
 10
0.0
 20
0.0
 30
0.0
  0
VERTEX
  5
198
330
196
100
AcDbEntity
  8
001
370
    50
100
AcDbVertex
100
AcDb2dVertex
 10
67.734483
 20
70.880555
 30
0.0
  0
VERTEX
  5
199
330
196
100
AcDbEntity
  8
001
370
    50
100
AcDbVertex
100
AcDb2dVertex
 10
67.447904
 20
70.866991
 30
0.0
  0
VERTEX
  5
19A
330
196
100
AcDbEntity
  8
001
370
    50
100
AcDbVertex
100
AcDb2dVertex
 10
67.034348
 20
70.809101
 30
0.0
  0
VERTEX
  5
19B
330
196
100
AcDbEntity
  8
001
370
    50
100
AcDbVertex
100
AcDb2dVertex
 10
66.631472
 20
70.698611
 30
0.0
  0
VERTEX
  5
19C
330
196
100
AcDbEntity
  8
001
370
    50
100
AcDbVertex
100
AcDb2dVertex
 10
66.3628
 20
70.597657
 30
0.0
  0
SEQEND
  5
197
330
196
100
AcDbEntity
  8
001
370
    50
  0
POLYLINE
  5
19D
330
1F
100
AcDbEntity
  8
001
370
    50
100
AcDb2dPolyline
 66
     1
 10
0.0
 20
0.0
 30
0.0
  0
VERTEX
  5
19F
330
19D
100
AcDbEntity
  8
001
370
    50
100
AcDbVertex
100
AcDb2dVertex
 10
65.189672
 20
73.586058
 30
0.0
  0
VERTEX
  5
1A0
330
19D
100
AcDbEntity
  8
001
370
    50
100
AcDbVertex
100
AcDb2dVertex
 10
65.397397
 20
73.597258
 30
0.0
  0
VERTEX
  5
1A1
330
19D
100
AcDbEntity
  8
001
370
    50
100
AcDbVertex
100
AcDb2dVertex
 10
65.681589
 20
73.630746
 30
0.0
  0
VERTEX
  5
1A2
330
19D
100
AcDbEntity
  8
001
370
    50
100
AcDbVertex
100
AcDb2dVertex
 10
65.932761
 20
73.686234
 30
0.0
  0
VERTEX
  5
1A3
330
19D
100
AcDbEntity
  8
001
370
    50
100
AcDbVertex
100
AcDb2dVertex
 10
66.156917
 20
73.7633
 30
0.0
  0
VERTEX
  5
1A4
330
19D
100
AcDbEntity
  8
001
370
    50
100
AcDbVertex
100
AcDb2dVertex
 10
66.380384
 20
73.861191
 30
0.0
  0
VERTEX
  5
1A5
330
19D
100
AcDbEntity
  8
001
370
    50
100
AcDbVertex
100
AcDb2dVertex
 10
66.599622
 20
73.979252
 30
0.0
  0
VERTEX
  5
1A6
330
19D
100
AcDbEntity
  8
001
370
    50
100
AcDbVertex
100
AcDb2dVertex
 10
66.804634
 20
74.11624
 30
0.0
  0
VERTEX
  5
1A7
330
19D
100
AcDbEntity
  8
001
370
    50
100
AcDbVertex
100
AcDb2dVertex
 10
66.994775
 20
74.271317
 30
0.0
  0
VERTEX
  5
1A8
330
19D
100
AcDbEntity
  8
001
370
    50
100
AcDbVertex
100
AcDb2dVertex
 10
67.16996
 20
74.442789
 30
0.0
  0
VERTEX
  5
1A9
330
19D
100
AcDbEntity
  8
001
370
    50
100
AcDbVertex
100
AcDb2dVertex
 10
67.329049
 20
74.629646
 30
0.0
  0
VERTEX
  5
1AA
330
19D
100
AcDbEntity
  8
001
370
    50
100
AcDbVertex
100
AcDb2dVertex
 10
67.469707
 20
74.829835
 30
0.0
  0
VERTEX
  5
1AB
330
19D
100
AcDbEntity
  8
001
370
    50
100
AcDbVertex
100
AcDb2dVertex
 10
67.59117
 20
75.042153
 30
0.0
  0
VERTEX
  5
1AC
330
19D
100
AcDbEntity
  8
001
370
    50
100
AcDbVertex
100
AcDb2dVertex
 10
67.692241
 20
75.264331
 30
0.0
  0
VERTEX
  5
1AD
330
19D
100
AcDbEntity
  8
001
370
    50
100
AcDbVertex
100
AcDb2dVertex
 10
67.772297
 20
75.494926
 30
0.0
  0
VERTEX
  5
1AE
330
19D
100
AcDbEntity
  8
001
370
    50
100
AcDbVertex
100
AcDb2dVertex
 10
67.830449
 20
75.731619
 30
0.0
  0
VERTEX
  5
1AF
330
19D
100
AcDbEntity
  8
001
370
    50
100
AcDbVertex
100
AcDb2dVertex
 10
67.866322
 20
75.972694
 30
0.0
  0
VERTEX
  5
1B0
330
19D
100
AcDbEntity
  8
001
370
    50
100
AcDbVertex
100
AcDb2dVertex
 10
67.87955
 20
76.215932
 30
0.0
  0
VERTEX
  5
1B1
330
19D
100
AcDbEntity
  8
001
370
    50
100
AcDbVertex
100
AcDb2dVertex
 10
67.870073
 20
76.459345
 30
0.0
  0
VERTEX
  5
1B2
330
19D
100
AcDbEntity
  8
001
370
    50
100
AcDbVertex
100
AcDb2dVertex
 10
67.837922
 20
76.700925
 30
0.0
  0
VERTEX
  5
1B3
330
19D
100
AcDbEntity
  8
001
370
    50
100
AcDbVertex
100
AcDb2dVertex
 10
67.783424
 20
76.938465
 30
0.0
  0
VERTEX
  5
1B4
330
19D
100
AcDbEntity
  8
001
370
    50
100
AcDbVertex
100
AcDb2dVertex
 10
67.706934
 20
77.170228
 30
0.0
  0
VERTEX
  5
1B5
330
19D
100
AcDbEntity
  8
001
370
    50
100
AcDbVertex
100
AcDb2dVertex
 10
67.609298
 20
77.393896
 30
0.0
  0
VERTEX
  5
1B6
330
19D
100
AcDbEntity
  8
001
370
    50
100
AcDbVertex
100
AcDb2dVertex
 10
67.491124
 20
77.608004
 30
0.0
  0
VERTEX
  5
1B7
330
19D
100
AcDbEntity
  8
001
370
    50
100
AcDbVertex
100
AcDb2dVertex
 10
67.353567
 20
77.810277
 30
0.0
  0
VERTEX
  5
1B8
330
19D
100
AcDbEntity
  8
001
370
    50
100
AcDbVertex
100
AcDb2dVertex
 10
67.197377
 20
77.999492
 30
0.0
  0
VERTEX
  5
1B9
330
19D
100
AcDbEntity
  8
001
370
    50
100
AcDbVertex
100
AcDb2dVertex
 10
67.024856
 20
78.173566
 30
0.0
  0
VERTEX
  5
1BA
330
19D
100
AcDbEntity
  8
001
370
    50
100
AcDbVertex
100
AcDb2dVertex
 10
66.837125
 20
78.331471
 30
0.0
  0
VERTEX
  5
1BB
330
19D
100
AcDbEntity
  8
001
370
    50
100
AcDbVertex
100
AcDb2dVertex
 10
66.634251
 20
78.471509
 30
0.0
  0
VERTEX
  5
1BC
330
19D
100
AcDbEntity
  8
001
370
    50
100
AcDbVertex
100
AcDb2dVertex
 10
66.416856
 20
78.592838
 30
0.0
  0
VERTEX
  5
1BD
330
19D
100
AcDbEntity
  8
001
370
    50
100
AcDbVertex
100
AcDb2dVertex
 10
66.194925
 20
78.69406
 30
0.0
  0
VERTEX
  5
1BE
330
19D
100
AcDbEntity
  8
001
370
    50
100
AcDbVertex
100
AcDb2dVertex
 10
65.971978
 20
78.774472
 30
0.0
  0
VERTEX
  5
1BF
330
19D
100
AcDbEntity
  8
001
370
    50
100
AcDbVertex
100
AcDb2dVertex
 10
65.721697
 20
78.833711
 30
0.0
  0
VERTEX
  5
1C0
330
19D
100
AcDbEntity
  8
001
370
    50
100
AcDbVertex
100
AcDb2dVertex
 10
65.43805
 20
78.871447
 30
0.0
  0
VERTEX
  5
1C1
330
19D
100
AcDbEntity
  8
001
370
    50
100
AcDbVertex
100
AcDb2dVertex
 10
65.230525
 20
78.885753
 30
0.0
  0
SEQEND
  5
19E
330
19D
100
AcDbEntity
  8
001
370
    50
  0
POLYLINE
  5
1C2
330
1F
100
AcDbEntity
  8
001
370
    50
100
AcDb2dPolyline
 66
     1
 10
0.0
 20
0.0
 30
0.0
  0
VERTEX
  5
1C4
330
1C2
100
AcDbEntity
  8
001
370
    50
100
AcDbVertex
100
AcDb2dVertex
 10
65.186431
 20
78.886058
 30
0.0
  0
VERTEX
  5
1C5
330
1C2
100
AcDbEntity
  8
001
370
    50
100
AcDbVertex
100
AcDb2dVertex
 10
65.049105
 20
78.882457
 30
0.0
  0
VERTEX
  5
1C6
330
1C2
100
AcDbEntity
  8
001
370
    50
100
AcDbVertex
100
AcDb2dVertex
 10
64.912009
 20
78.875212
 30
0.0
  0
VERTEX
  5
1C7
330
1C2
100
AcDbEntity
  8
001
370
    50
100
AcDbVertex
100
AcDb2dVertex
 10
64.744383
 20
78.857286
 30
0.0
  0
VERTEX
  5
1C8
330
1C2
100
AcDbEntity
  8
001
370
    50
100
AcDbVertex
100
AcDb2dVertex
 10
64.577986
 20
78.829496
 30
0.0
  0
VERTEX
  5
1C9
330
1C2
100
AcDbEntity
  8
001
370
    50
100
AcDbVertex
100
AcDb2dVertex
 10
64.402197
 20
78.789903
 30
0.0
  0
VERTEX
  5
1CA
330
1C2
100
AcDbEntity
  8
001
370
    50
100
AcDbVertex
100
AcDb2dVertex
 10
64.229105
 20
78.74007
 30
0.0
  0
VERTEX
  5
1CB
330
1C2
100
AcDbEntity
  8
001
370
    50
100
AcDbVertex
100
AcDb2dVertex
 10
64.119541
 20
78.702496
 30
0.0
  0
VERTEX
  5
1CC
330
1C2
100
AcDbEntity
  8
001
370
    50
100
AcDbVertex
100
AcDb2dVertex
 10
64.011588
 20
78.66052
 30
0.0
  0
VERTEX
  5
1CD
330
1C2
100
AcDbEntity
  8
001
370
    50
100
AcDbVertex
100
AcDb2dVertex
 10
63.899702
 20
78.611406
 30
0.0
  0
VERTEX
  5
1CE
330
1C2
100
AcDbEntity
  8
001
370
    50
100
AcDbVertex
100
AcDb2dVertex
 10
63.790161
 20
78.557266
 30
0.0
  0
VERTEX
  5
1CF
330
1C2
100
AcDbEntity
  8
001
370
    50
100
AcDbVertex
100
AcDb2dVertex
 10
63.676146
 20
78.493892
 30
0.0
  0
VERTEX
  5
1D0
330
1C2
100
AcDbEntity
  8
001
370
    50
100
AcDbVertex
100
AcDb2dVertex
 10
63.56543
 20
78.424888
 30
0.0
  0
VERTEX
  5
1D1
330
1C2
100
AcDbEntity
  8
001
370
    50
100
AcDbVertex
100
AcDb2dVertex
 10
63.454415
 20
78.347502
 30
0.0
  0
VERTEX
  5
1D2
330
1C2
100
AcDbEntity
  8
001
370
    50
100
AcDbVertex
100
AcDb2dVertex
 10
63.34783
 20
78.264151
 30
0.0
  0
VERTEX
  5
1D3
330
1C2
100
AcDbEntity
  8
001
370
    50
100
AcDbVertex
100
AcDb2dVertex
 10
63.254107
 20
78.182155
 30
0.0
  0
VERTEX
  5
1D4
330
1C2
100
AcDbEntity
  8
001
370
    50
100
AcDbVertex
100
AcDb2dVertex
 10
63.164783
 20
78.09537
 30
0.0
  0
VERTEX
  5
1D5
330
1C2
100
AcDbEntity
  8
001
370
    50
100
AcDbVertex
100
AcDb2dVertex
 10
63.081082
 20
78.005249
 30
0.0
  0
VERTEX
  5
1D6
330
1C2
100
AcDbEntity
  8
001
370
    50
100
AcDbVertex
100
AcDb2dVertex
 10
63.002269
 20
77.910841
 30
0.0
  0
VERTEX
  5
1D7
330
1C2
100
AcDbEntity
  8
001
370
    50
100
AcDbVertex
100
AcDb2dVertex
 10
62.923617
 20
77.80495
 30
0.0
  0
VERTEX
  5
1D8
330
1C2
100
AcDbEntity
  8
001
370
    50
100
AcDbVertex
100
AcDb2dVertex
 10
62.851224
 20
77.694664
 30
0.0
  0
VERTEX
  5
1D9
330
1C2
100
AcDbEntity
  8
001
370
    50
100
AcDbVertex
100
AcDb2dVertex
 10
62.788088
 20
77.585671
 30
0.0
  0
VERTEX
  5
1DA
330
1C2
100
AcDbEntity
  8
001
370
    50
100
AcDbVertex
100
AcDb2dVertex
 10
62.731099
 20
77.473361
 30
0.0
  0
VERTEX
  5
1DB
330
1C2
100
AcDbEntity
  8
001
370
    50
100
AcDbVertex
100
AcDb2dVertex
 10
62.660511
 20
77.306989
 30
0.0
  0
VERTEX
  5
1DC
330
1C2
100
AcDbEntity
  8
001
370
    50
100
AcDbVertex
100
AcDb2dVertex
 10
62.602919
 20
77.135519
 30
0.0
  0
VERTEX
  5
1DD
330
1C2
100
AcDbEntity
  8
001
370
    50
100
AcDbVertex
100
AcDb2dVertex
 10
62.560573
 20
76.970233
 30
0.0
  0
VERTEX
  5
1DE
330
1C2
100
AcDbEntity
  8
001
370
    50
100
AcDbVertex
100
AcDb2dVertex
 10
62.531445
 20
76.802387
 30
0.0
  0
VERTEX
  5
1DF
330
1C2
100
AcDbEntity
  8
001
370
    50
100
AcDbVertex
100
AcDb2dVertex
 10
62.515415
 20
76.623007
 30
0.0
  0
VERTEX
  5
1E0
330
1C2
100
AcDbEntity
  8
001
370
    50
100
AcDbVertex
100
AcDb2dVertex
 10
62.507895
 20
76.442699
 30
0.0
  0
SEQEND
  5
1C3
330
1C2
100
AcDbEntity
  8
001
370
    50
  0
POLYLINE
  5
1E1
330
1F
100
AcDbEntity
  8
001
370
    50
100
AcDb2dPolyline
 66
     1
 10
0.0
 20
0.0
 30
0.0
  0
VERTEX
  5
1E3
330
1E1
100
AcDbEntity
  8
001
370
    50
100
AcDbVertex
100
AcDb2dVertex
 10
66.3628
 20
70.597657
 30
0.0
  0
VERTEX
  5
1E4
330
1E1
100
AcDbEntity
  8
001
370
    50
100
AcDbVertex
100
AcDb2dVertex
 10
66.234654
 20
70.607331
 30
0.0
  0
VERTEX
  5
1E5
330
1E1
100
AcDbEntity
  8
001
370
    50
100
AcDbVertex
100
AcDb2dVertex
 10
66.047161
 20
70.61785
 30
0.0
  0
VERTEX
  5
1E6
330
1E1
100
AcDbEntity
  8
001
370
    50
100
AcDbVertex
100
AcDb2dVertex
 10
65.859456
 20
70.623322
 30
0.0
  0
VERTEX
  5
1E7
330
1E1
100
AcDbEntity
  8
001
370
    50
100
AcDbVertex
100
AcDb2dVertex
 10
65.730954
 20
70.624585
 30
0.0
  0
SEQEND
  5
1E2
330
1E1
100
AcDbEntity
  8
001
370
    50
  0
POLYLINE
  5
1E8
330
1F
100
AcDbEntity
  8
001
370
    50
100
AcDb2dPolyline
 66
     1
 10
0.0
 20
0.0
 30
0.0
  0
VERTEX
  5
1EA
330
1E8
100
AcDbEntity
  8
001
370
    50
100
AcDbVertex
100
AcDb2dVertex
 10
66.028913
 20
70.618605
 30
0.0
  0
VERTEX
  5
1EB
330
1E8
100
AcDbEntity
  8
001
370
    50
100
AcDbVertex
100
AcDb2dVertex
 10
65.561146
 20
70.582921
 30
0.0
  0
VERTEX
  5
1EC
330
1E8
100
AcDbEntity
  8
001
370
    50
100
AcDbVertex
100
AcDb2dVertex
 10
64.884464
 20
70.483167
 30
0.0
  0
VERTEX
  5
1ED
330
1E8
100
AcDbEntity
  8
001
370
    50
100
AcDbVertex
100
AcDb2dVertex
 10
64.22062
 20
70.317539
 30
0.0
  0
VERTEX
  5
1EE
330
1E8
100
AcDbEntity
  8
001
370
    50
100
AcDbVertex
100
AcDb2dVertex
 10
63.774405
 20
70.17228
 30
0.0
  0
SEQEND
  5
1E9
330
1E8
100
AcDbEntity
  8
001
370
    50
  0
LINE
  5
1EF
330
1F
100
AcDbEntity
  8
001
370
    50
100
AcDbLine
 10
63.774405
 20
70.17228
 30
0.0
 11
55.36387
 21
67.095885
 31
0.0
  0
LINE
  5
1F0
330
1F
100
AcDbEntity
  8
001
370
    50
100
AcDbLine
 10
55.36387
 20
67.313859
 30
0.0
 11
63.178486
 21
70.17228
 31
0.0
  0
LINE
  5
1F1
330
1F
100
AcDbEntity
  8
001
370
    50
100
AcDbLine
 10
220.86387
 20
84.635695
 30
0.0
 11
84.86387
 21
84.635695
 31
0.0
  0
LINE
  5
1F2
330
1F
100
AcDbEntity
  8
001
370
    50
100
AcDbLine
 10
220.86387
 20
52.635695
 30
0.0
 11
84.86387
 21
52.635695
 31
0.0
  0
LINE
  5
1F3
330
1F
100
AcDbEntity
  8
001
370
    50
100
AcDbLine
 10
224.86387
 20
68.635695
 30
0.0
 11
229.193997
 21
71.135695
 31
0.0
  0
LINE
  5
1F4
330
1F
100
AcDbEntity
  8
001
370
    50
100
AcDbLine
 10
224.86387
 20
68.635695
 30
0.0
 11
229.193997
 21
66.135695
 31
0.0
  0
LINE
  5
1F5
330
1F
100
AcDbEntity
  8
001
370
    50
100
AcDbLine
 10
55.36387
 20
68.635695
 30
0.0
 11
51.899768
 21
70.635695
 31
0.0
  0
LINE
  5
1F6
330
1F
100
AcDbEntity
  8
001
370
    50
100
AcDbLine
 10
55.36387
 20
68.635695
 30
0.0
 11
51.899768
 21
66.635695
 31
0.0
  0
ARC
  5
1F7
330
1F
100
AcDbEntity
  8
001
370
    50
100
AcDbCircle
 10
220.86387
 20
80.635695
 30
0.0
 40
4.0
100
AcDbArc
 50
0.0
 51
90.0
  0
ARC
  5
1F8
330
1F
100
AcDbEntity
  8
001
370
    50
100
AcDbCircle
 10
220.86387
 20
56.635695
 30
0.0
 40
4.0
100
AcDbArc
 50
270.0
 51
0.0
  0
LINE
  5
1F9
330
1F
100
AcDbEntity
  8
001
370
     9
100
AcDbLine
 10
54.86387
 20
61.135695
 30
0.0
 11
54.86387
 21
61.343922
 31
0.0
  0
LINE
  5
1FA
330
1F
100
AcDbEntity
  8
001
370
     9
100
AcDbLine
 10
67.531542
 20
52.265695
 30
0.0
 11
67.655147
 21
52.265695
 31
0.0
  0
ARC
  5
1FB
330
1F
100
AcDbEntity
  8
001
370
    50
100
AcDbCircle
 10
67.653682
 20
52.653073
 30
0.0
 40
0.3873771520262737
100
AcDbArc
 50
235.0
 51
355.0
  0
POLYLINE
  5
1FC
330
1F
100
AcDbEntity
  8
001
370
    50
100
AcDb2dPolyline
 66
     1
 10
0.0
 20
0.0
 30
0.0
  0
VERTEX
  5
1FE
330
1FC
100
AcDbEntity
  8
001
370
    50
100
AcDbVertex
100
AcDb2dVertex
 10
68.104288
 20
53.35887
 30
0.0
  0
VERTEX
  5
1FF
330
1FC
100
AcDbEntity
  8
001
370
    50
100
AcDbVertex
100
AcDb2dVertex
 10
69.274777
 20
53.387093
 30
0.0
  0
VERTEX
  5
200
330
1FC
100
AcDbEntity
  8
001
370
    50
100
AcDbVertex
100
AcDb2dVertex
 10
70.924154
 20
53.428325
 30
0.0
  0
VERTEX
  5
201
330
1FC
100
AcDbEntity
  8
001
370
    50
100
AcDbVertex
100
AcDb2dVertex
 10
72.625641
 20
53.472982
 30
0.0
  0
VERTEX
  5
202
330
1FC
100
AcDbEntity
  8
001
370
    50
100
AcDbVertex
100
AcDb2dVertex
 10
73.789789
 20
53.504598
 30
0.0
  0
SEQEND
  5
1FD
330
1FC
100
AcDbEntity
  8
001
370
    50
  0
POLYLINE
  5
203
330
1F
100
AcDbEntity
  8
001
370
    50
100
AcDb2dPolyline
 66
     1
 10
0.0
 20
0.0
 30
0.0
  0
VERTEX
  5
205
330
203
100
AcDbEntity
  8
001
370
    50
100
AcDbVertex
100
AcDb2dVertex
 10
68.092356
 20
53.222482
 30
0.0
  0
VERTEX
  5
206
330
203
100
AcDbEntity
  8
001
370
    50
100
AcDbVertex
100
AcDb2dVertex
 10
68.125384
 20
53.152244
 30
0.0
  0
VERTEX
  5
207
330
203
100
AcDbEntity
  8
001
370
    50
100
AcDbVertex
100
AcDb2dVertex
 10
68.168382
 20
53.082232
 30
0.0
  0
VERTEX
  5
208
330
203
100
AcDbEntity
  8
001
370
    50
100
AcDbVertex
100
AcDb2dVertex
 10
68.243679
 20
52.995953
 30
0.0
  0
VERTEX
  5
209
330
203
100
AcDbEntity
  8
001
370
    50
100
AcDbVertex
100
AcDb2dVertex
 10
68.306176
 20
52.948988
 30
0.0
  0
VERTEX
  5
20A
330
203
100
AcDbEntity
  8
001
370
    50
100
AcDbVertex
100
AcDb2dVertex
 10
68.321722
 20
52.942342
 30
0.0
  0
VERTEX
  5
20B
330
203
100
AcDbEntity
  8
001
370
    50
100
AcDbVertex
100
AcDb2dVertex
 10
68.337267
 20
52.935695
 30
0.0
  0
SEQEND
  5
204
330
203
100
AcDbEntity
  8
001
370
    50
  0
ARC
  5
20C
330
1F
100
AcDbEntity
  8
001
370
    50
100
AcDbCircle
 10
55.26387
 20
75.927469
 30
0.0
 40
0.4
100
AcDbArc
 50
125.0
 51
245.0
  0
LINE
  5
20D
330
1F
100
AcDbEntity
  8
001
370
     9
100
AcDbLine
 10
67.531542
 20
85.005695
 30
0.0
 11
67.431346
 21
84.935537
 31
0.0
  0
LINE
  5
20E
330
1F
100
AcDbEntity
  8
001
370
     9
100
AcDbLine
 10
54.86387
 20
76.135695
 30
0.0
 11
55.034439
 21
76.255129
 31
0.0
  0
LINE
  5
20F
330
1F
100
AcDbEntity
  8
001
370
    50
100
AcDbLine
 10
67.431492
 20
84.935639
 30
0.0
 11
55.034439
 21
76.255129
 31
0.0
  0
LINE
  5
210
330
1F
100
AcDbEntity
  8
001
370
     9
100
AcDbLine
 10
54.86387
 20
76.135695
 30
0.0
 11
54.86387
 21
75.927469
 31
0.0
  0
LINE
  5
211
330
1F
100
AcDbEntity
  8
001
370
     9
100
AcDbLine
 10
67.531542
 20
85.005695
 30
0.0
 11
67.655147
 21
85.005695
 31
0.0
  0
ARC
  5
212
330
1F
100
AcDbEntity
  8
001
370
    50
100
AcDbCircle
 10
67.653682
 20
84.618318
 30
0.0
 40
0.3873771520262737
100
AcDbArc
 50
5.0
 51
125.0
  0
LINE
  5
213
330
1F
100
AcDbEntity
  8
001
370
    50
100
AcDbLine
 10
55.36387
 20
75.439487
 30
0.0
 11
55.094822
 21
75.564946
 31
0.0
  0
LINE
  5
214
330
1F
100
AcDbEntity
  8
001
370
    50
100
AcDbLine
 10
68.039585
 20
84.65208
 30
0.0
 11
68.067265
 21
84.335695
 31
0.0
  0
LINE
  5
215
330
1F
100
AcDbEntity
  8
001
370
    50
100
AcDbLine
 10
68.067265
 20
52.935695
 30
0.0
 11
84.86387
 21
52.935695
 31
0.0
  0
LINE
  5
216
330
1F
100
AcDbEntity
  8
001
370
    50
100
AcDbLine
 10
55.36387
 20
75.605833
 30
0.0
 11
55.36387
 21
61.831904
 31
0.0
  0
LINE
  5
217
330
1F
100
AcDbEntity
  8
001
  6
CENTER
370
     9
100
AcDbLine
 10
52.187171
 20
68.635695
 30
0.0
 11
233.648188
 21
68.635695
 31
0.0
  0
TEXT
  5
218
330
1F
100
AcDbEntity
  8
001
370
    30
100
AcDbText
 10
37.925911
 20
102.185402
 30
0.0
 40
4.0
  1
ＮＫ５５３２ＴＬ（ＮＥＷ）
 41
0.833333
100
AcDbText
  0
ENDSEC
  0
SECTION
  2
OBJECTS
  0
DICTIONARY
  5
C
330
0
100
AcDbDictionary
281
     1
  3
ACAD_GROUP
350
D
  3
ACAD_LAYOUT
350
1A
  3
ACAD_MLEADERSTYLE
350
21C
  3
ACAD_MLINESTYLE
350
17
  3
ACAD_PLOTSETTINGS
350
19
  3
ACAD_PLOTSTYLENAME
350
E
  3
ACAD_SCALELIST
350
3B
  3
ACAD_TABLESTYLE
350
21B
  3
ACAD_VISUALSTYLE
350
2A
  3
AcDbVariableDictionary
350
219
  0
DICTIONARY
  5
D
102
{ACAD_REACTORS
330
C
102
}
330
C
100
AcDbDictionary
281
     1
  0
DICTIONARY
  5
1A
102
{ACAD_REACTORS
330
C
102
}
330
C
100
AcDbDictionary
281
     1
  3
Layout1
350
1E
  3
Layout2
350
26
  3
Model
350
22
  0
DICTIONARY
  5
21C
102
{ACAD_REACTORS
330
C
102
}
330
C
100
AcDbDictionary
281
     1
  0
DICTIONARY
  5
17
102
{ACAD_REACTORS
330
C
102
}
330
C
100
AcDbDictionary
281
     1
  3
Standard
350
18
  0
DICTIONARY
  5
19
102
{ACAD_REACTORS
330
C
102
}
330
C
100
AcDbDictionary
281
     1
  0
ACDBDICTIONARYWDFLT
  5
E
102
{ACAD_REACTORS
330
C
102
}
330
C
100
AcDbDictionary
281
     1
  3
Normal
350
F
100
AcDbDictionaryWithDefault
340
F
  0
DICTIONARY
  5
3B
102
{ACAD_REACTORS
330
C
102
}
330
C
100
AcDbDictionary
281
     1
  3
A0
350
3C
  3
A1
350
3D
  3
A2
350
3E
  3
A3
350
3F
  3
A4
350
40
  3
A5
350
41
  3
A6
350
42
  3
A7
350
43
  3
A8
350
44
  3
A9
350
45
  3
B0
350
46
  3
B1
350
47
  3
B2
350
48
  3
B3
350
49
  3
B4
350
4A
  3
B5
350
4B
  3
B6
350
4C
  3
B7
350
4D
  3
B8
350
4E
  3
B9
350
4F
  3
C0
350
50
  3
C1
350
51
  3
C2
350
52
  3
C3
350
53
  3
C4
350
54
  3
C5
350
55
  3
C6
350
56
  3
C7
350
57
  3
C8
350
58
  3
C9
350
59
  3
D0
350
5A
  3
D1
350
5B
  3
D2
350
5C
  0
DICTIONARY
  5
21B
102
{ACAD_REACTORS
330
C
102
}
330
C
100
AcDbDictionary
281
     1
  0
DICTIONARY
  5
2A
102
{ACAD_REACTORS
330
C
102
}
330
C
100
AcDbDictionary
281
     1
  3
2dWireframe
350
2F
  3
3D Hidden
350
31
  3
3dWireframe
350
30
  3
Basic
350
32
  3
Brighten
350
36
  3
ColorChange
350
3A
  3
Conceptual
350
34
  3
Dim
350
35
  3
Facepattern
350
39
  3
Flat
350
2B
  3
FlatWithEdges
350
2C
  3
Gouraud
350
2D
  3
GouraudWithEdges
350
2E
  3
Linepattern
350
38
  3
Realistic
350
33
  3
Thicken
350
37
  0
DICTIONARY
  5
219
102
{ACAD_REACTORS
330
C
102
}
330
C
100
AcDbDictionary
281
     1
  3
CANNOSCALE
350
21A
  3
PSOLHEIGHT
350
21E
  3
PSOLWIDTH
350
21D
  0
LAYOUT
  5
1E
102
{ACAD_REACTORS
330
1A
102
}
330
1A
100
AcDbPlotSettings
  1

  2
none_device
  4

  6

 40
0.0
 41
0.0
 42
0.0
 43
0.0
 44
0.0
 45
0.0
 46
0.0
 47
0.0
 48
0.0
 49
0.0
140
0.0
141
0.0
142
1.0
143
1.0
 70
   688
 72
     0
 73
     0
 74
     5
  7

 75
    16
147
1.0
148
0.0
149
0.0
100
AcDbLayout
  1
Layout1
 70
     1
 71
     1
 10
0.0
 20
0.0
 11
12.0
 21
9.0
 12
0.0
 22
0.0
 32
0.0
 14
1.000000E+20
 24
1.000000E+20
 34
0.0
 15
-1.000000E+20
 25
-1.000000E+20
 35
0.0
146
0.0
 13
0.0
 23
0.0
 33
0.0
 16
1.0
 26
0.0
 36
0.0
 17
0.0
 27
1.0
 37
0.0
 76
     0
330
1B
  0
LAYOUT
  5
26
102
{ACAD_REACTORS
330
1A
102
}
330
1A
100
AcDbPlotSettings
  1

  2
none_device
  4

  6

 40
0.0
 41
0.0
 42
0.0
 43
0.0
 44
0.0
 45
0.0
 46
0.0
 47
0.0
 48
0.0
 49
0.0
140
0.0
141
0.0
142
1.0
143
1.0
 70
   688
 72
     0
 73
     0
 74
     5
  7

 75
    16
147
1.0
148
0.0
149
0.0
100
AcDbLayout
  1
Layout2
 70
     1
 71
     2
 10
0.0
 20
0.0
 11
0.0
 21
0.0
 12
0.0
 22
0.0
 32
0.0
 14
0.0
 24
0.0
 34
0.0
 15
0.0
 25
0.0
 35
0.0
146
0.0
 13
0.0
 23
0.0
 33
0.0
 16
1.0
 26
0.0
 36
0.0
 17
0.0
 27
1.0
 37
0.0
 76
     0
330
23
  0
LAYOUT
  5
22
102
{ACAD_REACTORS
330
1A
102
}
330
1A
100
AcDbPlotSettings
  1

  2
none_device
  4

  6

 40
0.0
 41
0.0
 42
0.0
 43
0.0
 44
0.0
 45
0.0
 46
0.0
 47
0.0
 48
0.0
 49
0.0
140
0.0
141
0.0
142
1.0
143
1.0
 70
  1712
 72
     0
 73
     0
 74
     0
  7

 75
     0
147
1.0
148
0.0
149
0.0
100
AcDbLayout
  1
Model
 70
     1
 71
     0
 10
0.0
 20
0.0
 11
12.0
 21
9.0
 12
0.0
 22
0.0
 32
0.0
 14
19.695335
 24
8.444427
 34
0.0
 15
251.135406
 25
106.185402
 35
0.0
146
0.0
 13
0.0
 23
0.0
 33
0.0
 16
1.0
 26
0.0
 36
0.0
 17
0.0
 27
1.0
 37
0.0
 76
     0
330
1F
331
29
  0
MLINESTYLE
  5
18
102
{ACAD_REACTORS
330
17
102
}
330
17
100
AcDbMlineStyle
  2
Standard
 70
     0
  3

 62
   256
 51
90.0
 52
90.0
 71
     2
 49
0.5
 62
   256
  6
BYLAYER
 49
-0.5
 62
   256
  6
BYLAYER
  0
ACDBPLACEHOLDER
  5
F
102
{ACAD_REACTORS
330
E
102
}
330
E
  0
SCALE
  5
3C
102
{ACAD_REACTORS
330
3B
102
}
330
3B
100
AcDbScale
 70
     0
300
1:1
140
1.0
141
1.0
290
     1
  0
SCALE
  5
3D
102
{ACAD_REACTORS
330
3B
102
}
330
3B
100
AcDbScale
 70
     0
300
1:2
140
1.0
141
2.0
290
     0
  0
SCALE
  5
3E
102
{ACAD_REACTORS
330
3B
102
}
330
3B
100
AcDbScale
 70
     0
300
1:4
140
1.0
141
4.0
290
     0
  0
SCALE
  5
3F
102
{ACAD_REACTORS
330
3B
102
}
330
3B
100
AcDbScale
 70
     0
300
1:5
140
1.0
141
5.0
290
     0
  0
SCALE
  5
40
102
{ACAD_REACTORS
330
3B
102
}
330
3B
100
AcDbScale
 70
     0
300
1:8
140
1.0
141
8.0
290
     0
  0
SCALE
  5
41
102
{ACAD_REACTORS
330
3B
102
}
330
3B
100
AcDbScale
 70
     0
300
1:10
140
1.0
141
10.0
290
     0
  0
SCALE
  5
42
102
{ACAD_REACTORS
330
3B
102
}
330
3B
100
AcDbScale
 70
     0
300
1:16
140
1.0
141
16.0
290
     0
  0
SCALE
  5
43
102
{ACAD_REACTORS
330
3B
102
}
330
3B
100
AcDbScale
 70
     0
300
1:20
140
1.0
141
20.0
290
     0
  0
SCALE
  5
44
102
{ACAD_REACTORS
330
3B
102
}
330
3B
100
AcDbScale
 70
     0
300
1:30
140
1.0
141
30.0
290
     0
  0
SCALE
  5
45
102
{ACAD_REACTORS
330
3B
102
}
330
3B
100
AcDbScale
 70
     0
300
1:40
140
1.0
141
40.0
290
     0
  0
SCALE
  5
46
102
{ACAD_REACTORS
330
3B
102
}
330
3B
100
AcDbScale
 70
     0
300
1:50
140
1.0
141
50.0
290
     0
  0
SCALE
  5
47
102
{ACAD_REACTORS
330
3B
102
}
330
3B
100
AcDbScale
 70
     0
300
1:100
140
1.0
141
100.0
290
     0
  0
SCALE
  5
48
102
{ACAD_REACTORS
330
3B
102
}
330
3B
100
AcDbScale
 70
     0
300
2:1
140
2.0
141
1.0
290
     0
  0
SCALE
  5
49
102
{ACAD_REACTORS
330
3B
102
}
330
3B
100
AcDbScale
 70
     0
300
4:1
140
4.0
141
1.0
290
     0
  0
SCALE
  5
4A
102
{ACAD_REACTORS
330
3B
102
}
330
3B
100
AcDbScale
 70
     0
300
8:1
140
8.0
141
1.0
290
     0
  0
SCALE
  5
4B
102
{ACAD_REACTORS
330
3B
102
}
330
3B
100
AcDbScale
 70
     0
300
10:1
140
10.0
141
1.0
290
     0
  0
SCALE
  5
4C
102
{ACAD_REACTORS
330
3B
102
}
330
3B
100
AcDbScale
 70
     0
300
100:1
140
100.0
141
1.0
290
     0
  0
SCALE
  5
4D
102
{ACAD_REACTORS
330
3B
102
}
330
3B
100
AcDbScale
 70
     0
300
1/128" = 1'-0"
140
0.007812
141
12.0
290
     0
  0
SCALE
  5
4E
102
{ACAD_REACTORS
330
3B
102
}
330
3B
100
AcDbScale
 70
     0
300
1/64" = 1'-0"
140
0.015625
141
12.0
290
     0
  0
SCALE
  5
4F
102
{ACAD_REACTORS
330
3B
102
}
330
3B
100
AcDbScale
 70
     0
300
1/32" = 1'-0"
140
0.03125
141
12.0
290
     0
  0
SCALE
  5
50
102
{ACAD_REACTORS
330
3B
102
}
330
3B
100
AcDbScale
 70
     0
300
1/16" = 1'-0"
140
0.0625
141
12.0
290
     0
  0
SCALE
  5
51
102
{ACAD_REACTORS
330
3B
102
}
330
3B
100
AcDbScale
 70
     0
300
3/32" = 1'-0"
140
0.09375
141
12.0
290
     0
  0
SCALE
  5
52
102
{ACAD_REACTORS
330
3B
102
}
330
3B
100
AcDbScale
 70
     0
300
1/8" = 1'-0"
140
0.125
141
12.0
290
     0
  0
SCALE
  5
53
102
{ACAD_REACTORS
330
3B
102
}
330
3B
100
AcDbScale
 70
     0
300
3/16" = 1'-0"
140
0.1875
141
12.0
290
     0
  0
SCALE
  5
54
102
{ACAD_REACTORS
330
3B
102
}
330
3B
100
AcDbScale
 70
     0
300
1/4" = 1'-0"
140
0.25
141
12.0
290
     0
  0
SCALE
  5
55
102
{ACAD_REACTORS
330
3B
102
}
330
3B
100
AcDbScale
 70
     0
300
3/8" = 1'-0"
140
0.375
141
12.0
290
     0
  0
SCALE
  5
56
102
{ACAD_REACTORS
330
3B
102
}
330
3B
100
AcDbScale
 70
     0
300
1/2" = 1'-0"
140
0.5
141
12.0
290
     0
  0
SCALE
  5
57
102
{ACAD_REACTORS
330
3B
102
}
330
3B
100
AcDbScale
 70
     0
300
3/4" = 1'-0"
140
0.75
141
12.0
290
     0
  0
SCALE
  5
58
102
{ACAD_REACTORS
330
3B
102
}
330
3B
100
AcDbScale
 70
     0
300
1" = 1'-0"
140
1.0
141
12.0
290
     0
  0
SCALE
  5
59
102
{ACAD_REACTORS
330
3B
102
}
330
3B
100
AcDbScale
 70
     0
300
1-1/2" = 1'-0"
140
1.5
141
12.0
290
     0
  0
SCALE
  5
5A
102
{ACAD_REACTORS
330
3B
102
}
330
3B
100
AcDbScale
 70
     0
300
3" = 1'-0"
140
3.0
141
12.0
290
     0
  0
SCALE
  5
5B
102
{ACAD_REACTORS
330
3B
102
}
330
3B
100
AcDbScale
 70
     0
300
6" = 1'-0"
140
6.0
141
12.0
290
     0
  0
SCALE
  5
5C
102
{ACAD_REACTORS
330
3B
102
}
330
3B
100
AcDbScale
 70
     0
300
1'-0" = 1'-0"
140
12.0
141
12.0
290
     0
  0
VISUALSTYLE
  5
2F
102
{ACAD_REACTORS
330
2A
102
}
330
2A
100
AcDbVisualStyle
  2
2dWireframe
 70
     4
 71
     0
 72
     2
 73
     0
 90
        0
 40
-0.6
 41
-30.0
 62
     5
 63
     7
 74
     1
 91
        4
 64
     7
 65
   257
 75
     1
175
     1
 42
1.0
 92
        0
 66
   257
 43
1.0
 76
     1
 77
     6
 78
     2
 67
     7
 79
     5
170
     0
171
     0
290
     0
174
     0
 93
        1
 44
0.0
173
     0
291
     0
 45
0.0
1001
ACAD
1000
AcDbSavedByObjectVersion
1070
     0
  0
VISUALSTYLE
  5
31
102
{ACAD_REACTORS
330
2A
102
}
330
2A
100
AcDbVisualStyle
  2
3D Hidden
 70
     6
 71
     1
 72
     2
 73
     2
 90
        0
 40
-0.6
 41
-30.0
 62
     5
 63
     7
 74
     2
 91
        2
 64
     7
 65
   257
 75
     2
175
     1
 42
40.0
 92
        0
 66
   257
 43
1.0
 76
     1
 77
     6
 78
     2
 67
     7
 79
     3
170
     0
171
     0
290
     0
174
     0
 93
        1
 44
0.0
173
     0
291
     0
 45
0.0
1001
ACAD
1000
AcDbSavedByObjectVersion
1070
     0
  0
VISUALSTYLE
  5
30
102
{ACAD_REACTORS
330
2A
102
}
330
2A
100
AcDbVisualStyle
  2
3dWireframe
 70
     5
 71
     0
 72
     2
 73
     0
 90
        0
 40
-0.6
 41
-30.0
 62
     5
 63
     7
 74
     1
 91
        4
 64
     7
 65
   257
 75
     1
175
     1
 42
1.0
 92
        0
 66
   257
 43
1.0
 76
     1
 77
     6
 78
     2
 67
     7
 79
     5
170
     0
171
     0
290
     0
174
     0
 93
        1
 44
0.0
173
     0
291
     0
 45
0.0
1001
ACAD
1000
AcDbSavedByObjectVersion
1070
     0
  0
VISUALSTYLE
  5
32
102
{ACAD_REACTORS
330
2A
102
}
330
2A
100
AcDbVisualStyle
  2
Basic
 70
     7
 71
     1
 72
     0
 73
     1
 90
        0
 40
-0.6
 41
-30.0
 62
     5
 63
     7
 74
     0
 91
        4
 64
     7
 65
   257
 75
     1
175
     1
 42
1.0
 92
        8
 66
     7
 43
1.0
 76
     1
 77
     6
 78
     2
 67
     7
 79
     5
170
     0
171
     0
290
     0
174
     0
 93
        1
 44
0.0
173
     0
291
     1
 45
0.0
1001
ACAD
1000
AcDbSavedByObjectVersion
1070
     0
  0
VISUALSTYLE
  5
36
102
{ACAD_REACTORS
330
2A
102
}
330
2A
100
AcDbVisualStyle
  2
Brighten
 70
    12
 71
     2
 72
     2
 73
     0
 90
        0
 40
-0.6
 41
-30.0
 62
     5
 63
     7
 74
     1
 91
        4
 64
     7
 65
   257
 75
     1
175
     1
 42
1.0
 92
        8
 66
     7
 43
1.0
 76
     1
 77
     6
 78
     2
 67
     7
 79
     5
170
     0
171
     0
290
     0
174
     0
 93
        1
 44
50.0
173
     0
291
     1
 45
0.0
1001
ACAD
1000
AcDbSavedByObjectVersion
1070
     0
  0
VISUALSTYLE
  5
3A
102
{ACAD_REACTORS
330
2A
102
}
330
2A
100
AcDbVisualStyle
  2
ColorChange
 70
    16
 71
     2
 72
     2
 73
     3
 90
        0
 40
-0.6
 41
-30.0
 62
     5
 63
     8
 74
     1
 91
        4
 64
     7
 65
   257
 75
     1
175
     1
 42
1.0
 92
        8
 66
     8
 43
1.0
 76
     1
 77
     6
 78
     2
 67
     7
 79
     5
170
     0
171
     0
290
     0
174
     0
 93
        1
 44
0.0
173
     0
291
     1
 45
0.0
1001
ACAD
1000
AcDbSavedByObjectVersion
1070
     0
  0
VISUALSTYLE
  5
34
102
{ACAD_REACTORS
330
2A
102
}
330
2A
100
AcDbVisualStyle
  2
Conceptual
 70
     9
 71
     3
 72
     2
 73
     0
 90
        0
 40
-0.6
 41
-30.0
 62
     5
 63
     7
 74
     2
 91
        2
 64
     7
 65
   257
 75
     1
175
     1
 42
40.0
 92
        8
 66
     7
 43
1.0
 76
     1
 77
     6
 78
     2
 67
     7
 79
     3
170
     0
171
     0
290
     0
174
     0
 93
        1
 44
0.0
173
     0
291
     0
 45
0.0
1001
ACAD
1000
AcDbSavedByObjectVersion
1070
     0
  0
VISUALSTYLE
  5
35
102
{ACAD_REACTORS
330
2A
102
}
330
2A
100
AcDbVisualStyle
  2
Dim
 70
    11
 71
     2
 72
     2
 73
     0
 90
        0
 40
-0.6
 41
-30.0
 62
     5
 63
     7
 74
     1
 91
        4
 64
     7
 65
   257
 75
     1
175
     1
 42
1.0
 92
        8
 66
     7
 43
1.0
 76
     1
 77
     6
 78
     2
 67
     7
 79
     5
170
     0
171
     0
290
     0
174
     0
 93
        1
 44
-50.0
173
     0
291
     1
 45
0.0
1001
ACAD
1000
AcDbSavedByObjectVersion
1070
     0
  0
VISUALSTYLE
  5
39
102
{ACAD_REACTORS
330
2A
102
}
330
2A
100
AcDbVisualStyle
  2
Facepattern
 70
    15
 71
     2
 72
     2
 73
     0
 90
        0
 40
-0.6
 41
-30.0
 62
     5
 63
     7
 74
     1
 91
        4
 64
     7
 65
   257
 75
     1
175
     1
 42
1.0
 92
        8
 66
     7
 43
1.0
 76
     1
 77
     6
 78
     2
 67
     7
 79
     5
170
     0
171
     0
290
     0
174
     0
 93
        1
 44
0.0
173
     0
291
     1
 45
0.0
1001
ACAD
1000
AcDbSavedByObjectVersion
1070
     0
  0
VISUALSTYLE
  5
2B
102
{ACAD_REACTORS
330
2A
102
}
330
2A
100
AcDbVisualStyle
  2
Flat
 70
     0
 71
     2
 72
     1
 73
     1
 90
        2
 40
-0.6
 41
30.0
 62
     5
 63
     7
 74
     0
 91
        4
 64
     7
 65
   257
 75
     1
175
     1
 42
1.0
 92
        8
 66
     7
 43
1.0
 76
     1
 77
     6
 78
     2
 67
     7
 79
     5
170
     0
171
     0
290
     0
174
     0
 93
       13
 44
0.0
173
     0
291
     1
 45
0.0
1001
ACAD
1000
AcDbSavedByObjectVersion
1070
     0
  0
VISUALSTYLE
  5
2C
102
{ACAD_REACTORS
330
2A
102
}
330
2A
100
AcDbVisualStyle
  2
FlatWithEdges
 70
     1
 71
     2
 72
     1
 73
     1
 90
        2
 40
-0.6
 41
30.0
 62
     5
 63
     7
 74
     1
 91
        4
 64
     7
 65
   257
 75
     1
175
     1
 42
1.0
 92
        0
 66
   257
 43
1.0
 76
     1
 77
     6
 78
     2
 67
     7
 79
     5
170
     0
171
     0
290
     0
174
     0
 93
       13
 44
0.0
173
     0
291
     1
 45
0.0
1001
ACAD
1000
AcDbSavedByObjectVersion
1070
     0
  0
VISUALSTYLE
  5
2D
102
{ACAD_REACTORS
330
2A
102
}
330
2A
100
AcDbVisualStyle
  2
Gouraud
 70
     2
 71
     2
 72
     2
 73
     1
 90
        2
 40
-0.6
 41
30.0
 62
     5
 63
     7
 74
     0
 91
        4
 64
     7
 65
   257
 75
     1
175
     1
 42
1.0
 92
        0
 66
     7
 43
1.0
 76
     1
 77
     6
 78
     2
 67
     7
 79
     5
170
     0
171
     0
290
     0
174
     0
 93
       13
 44
0.0
173
     0
291
     1
 45
0.0
1001
ACAD
1000
AcDbSavedByObjectVersion
1070
     0
  0
VISUALSTYLE
  5
2E
102
{ACAD_REACTORS
330
2A
102
}
330
2A
100
AcDbVisualStyle
  2
GouraudWithEdges
 70
     3
 71
     2
 72
     2
 73
     1
 90
        2
 40
-0.6
 41
30.0
 62
     5
 63
     7
 74
     1
 91
        4
 64
     7
 65
   257
 75
     1
175
     1
 42
1.0
 92
        0
 66
   257
 43
1.0
 76
     1
 77
     6
 78
     2
 67
     7
 79
     5
170
     0
171
     0
290
     0
174
     0
 93
       13
 44
0.0
173
     0
291
     1
 45
0.0
1001
ACAD
1000
AcDbSavedByObjectVersion
1070
     0
  0
VISUALSTYLE
  5
38
102
{ACAD_REACTORS
330
2A
102
}
330
2A
100
AcDbVisualStyle
  2
Linepattern
 70
    14
 71
     2
 72
     2
 73
     0
 90
        0
 40
-0.6
 41
-30.0
 62
     5
 63
     7
 74
     1
 91
        4
 64
     7
 65
   257
 75
     7
175
     7
 42
1.0
 92
        8
 66
     7
 43
1.0
 76
     1
 77
     6
 78
     2
 67
     7
 79
     5
170
     0
171
     0
290
     0
174
     0
 93
        1
 44
0.0
173
     0
291
     1
 45
0.0
1001
ACAD
1000
AcDbSavedByObjectVersion
1070
     0
  0
VISUALSTYLE
  5
33
102
{ACAD_REACTORS
330
2A
102
}
330
2A
100
AcDbVisualStyle
  2
Realistic
 70
     8
 71
     2
 72
     2
 73
     0
 90
        0
 40
-0.6
 41
-30.0
 62
     5
 63
     7
 74
     1
 91
        0
 64
     7
 65
   257
 75
     1
175
     1
 42
1.0
 92
        8
 66
     8
 43
1.0
 76
     1
 77
     6
 78
     2
 67
     7
 79
     5
170
     0
171
     0
290
     0
174
     0
 93
       13
 44
0.0
173
     0
291
     0
 45
0.0
1001
ACAD
1000
AcDbSavedByObjectVersion
1070
     0
  0
VISUALSTYLE
  5
37
102
{ACAD_REACTORS
330
2A
102
}
330
2A
100
AcDbVisualStyle
  2
Thicken
 70
    13
 71
     2
 72
     2
 73
     0
 90
        0
 40
-0.6
 41
-30.0
 62
     5
 63
     7
 74
     1
 91
        4
 64
     7
 65
   257
 75
     1
175
     1
 42
1.0
 92
       12
 66
     7
 43
1.0
 76
     1
 77
     6
 78
     2
 67
     7
 79
     5
170
     0
171
     0
290
     0
174
     0
 93
        1
 44
0.0
173
     0
291
     1
 45
0.0
1001
ACAD
1000
AcDbSavedByObjectVersion
1070
     0
  0
DICTIONARYVAR
  5
21A
102
{ACAD_REACTORS
330
219
102
}
330
219
100
DictionaryVariables
280
     0
  1
1:1
  0
DICTIONARYVAR
  5
21E
102
{ACAD_REACTORS
330
219
102
}
330
219
100
DictionaryVariables
280
     0
  1
80.000000
  0
DICTIONARYVAR
  5
21D
102
{ACAD_REACTORS
330
219
102
}
330
219
100
DictionaryVariables
280
     0
  1
5.000000
  0
ENDSEC
  0
EOF
