  0
SECTION
  2
HEADER
  9
$ACADVER
  1
AC1015
  9
$ACADMAINTVER
 70
     6
  9
$DWGCODEPAGE
  3
ANSI_932
  9
$INSBASE
 10
0.0
 20
0.0
 30
0.0
  9
$EXTMIN
 10
9.076645
 20
22.410023
 30
0.0
  9
$EXTMAX
 10
233.577148
 20
113.210953
 30
0.0
  9
$LIMMIN
 10
0.0
 20
0.0
  9
$LIMMAX
 10
12.0
 20
9.0
  9
$ORTHOMODE
 70
     0
  9
$REGENMODE
 70
     1
  9
$FILLMODE
 70
     1
  9
$QTEXTMODE
 70
     0
  9
$MIRRTEXT
 70
     1
  9
$LTSCALE
 40
3.741675
  9
$ATTMODE
 70
     1
  9
$TEXTSIZE
 40
3.2
  9
$TRACEWID
 40
1.0
  9
$TEXTSTYLE
  7
Standard
  9
$CLAYER
  8
0
  9
$CELTYPE
  6
ByLayer
  9
$CECOLOR
 62
   256
  9
$CELTSCALE
 40
1.0
  9
$DISPSILH
 70
     0
  9
$DIMSCALE
 40
1.0
  9
$DIMASZ
 40
2.5
  9
$DIMEXO
 40
0.625
  9
$DIMDLI
 40
3.75
  9
$DIMRND
 40
0.0
  9
$DIMDLE
 40
0.0
  9
$DIMEXE
 40
1.25
  9
$DIMTP
 40
0.0
  9
$DIMTM
 40
0.0
  9
$DIMTXT
 40
2.5
  9
$DIMCEN
 40
0.09
  9
$DIMTSZ
 40
0.0
  9
$DIMTOL
 70
     0
  9
$DIMLIM
 70
     0
  9
$DIMTIH
 70
     0
  9
$DIMTOH
 70
     0
  9
$DIMSE1
 70
     0
  9
$DIMSE2
 70
     0
  9
$DIMTAD
 70
     0
  9
$DIMZIN
 70
     8
  9
$DIMBLK
  1

  9
$DIMASO
 70
     1
  9
$DIMSHO
 70
     0
  9
$DIMPOST
  1

  9
$DIMAPOST
  1

  9
$DIMALT
 70
     0
  9
$DIMALTD
 70
     3
  9
$DIMALTF
 40
0.03937
  9
$DIMLFAC
 40
1.0
  9
$DIMTOFL
 70
     1
  9
$DIMTVP
 40
0.0
  9
$DIMTIX
 70
     0
  9
$DIMSOXD
 70
     0
  9
$DIMSAH
 70
     0
  9
$DIMBLK1
  1

  9
$DIMBLK2
  1

  9
$DIMSTYLE
  2
ISO-25
  9
$DIMCLRD
 70
     0
  9
$DIMCLRE
 70
     0
  9
$DIMCLRT
 70
     0
  9
$DIMTFAC
 40
1.0
  9
$DIMGAP
 40
0.625
  9
$DIMJUST
 70
     0
  9
$DIMSD1
 70
     0
  9
$DIMSD2
 70
     0
  9
$DIMTOLJ
 70
     0
  9
$DIMTZIN
 70
     8
  9
$DIMALTZ
 70
     0
  9
$DIMALTTZ
 70
     0
  9
$DIMUPT
 70
     0
  9
$DIMDEC
 70
     2
  9
$DIMTDEC
 70
     2
  9
$DIMALTU
 70
     2
  9
$DIMALTTD
 70
     3
  9
$DIMTXSTY
  7
Standard
  9
$DIMAUNIT
 70
     0
  9
$DIMADEC
 70
     0
  9
$DIMALTRND
 40
0.0
  9
$DIMAZIN
 70
     0
  9
$DIMDSEP
 70
    44
  9
$DIMATFIT
 70
     3
  9
$DIMFRAC
 70
     0
  9
$DIMLDRBLK
  1

  9
$DIMLUNIT
 70
     2
  9
$DIMLWD
 70
    -2
  9
$DIMLWE
 70
    -2
  9
$DIMTMOVE
 70
     0
  9
$LUNITS
 70
     2
  9
$LUPREC
 70
     4
  9
$SKETCHINC
 40
1.0
  9
$FILLETRAD
 40
0.0
  9
$AUNITS
 70
     0
  9
$AUPREC
 70
     0
  9
$MENU
  1
.
  9
$ELEVATION
 40
0.0
  9
$PELEVATION
 40
0.0
  9
$THICKNESS
 40
0.0
  9
$LIMCHECK
 70
     0
  9
$CHAMFERA
 40
10.0
  9
$CHAMFERB
 40
10.0
  9
$CHAMFERC
 40
20.0
  9
$CHAMFERD
 40
0.0
  9
$SKPOLY
 70
     0
  9
$TDCREATE
 40
2454621.403207095
  9
$TDUCREATE
 40
2454621.028207095
  9
$TDUPDATE
 40
2454621.403207107
  9
$TDUUPDATE
 40
2454621.028207107
  9
$TDINDWG
 40
0.0000000116
  9
$TDUSRTIMER
 40
0.0000000116
  9
$USRTIMER
 70
     1
  9
$ANGBASE
 50
0.0
  9
$ANGDIR
 70
     0
  9
$PDMODE
 70
     0
  9
$PDSIZE
 40
0.0
  9
$PLINEWID
 40
0.0
  9
$SPLFRAME
 70
     0
  9
$SPLINETYPE
 70
     6
  9
$SPLINESEGS
 70
     8
  9
$HANDSEED
  5
1F5
  9
$SURFTAB1
 70
     6
  9
$SURFTAB2
 70
     6
  9
$SURFTYPE
 70
     6
  9
$SURFU
 70
     6
  9
$SURFV
 70
     6
  9
$UCSBASE
  2

  9
$UCSNAME
  2

  9
$UCSORG
 10
0.0
 20
0.0
 30
0.0
  9
$UCSXDIR
 10
1.0
 20
0.0
 30
0.0
  9
$UCSYDIR
 10
0.0
 20
1.0
 30
0.0
  9
$UCSORTHOREF
  2

  9
$UCSORTHOVIEW
 70
     0
  9
$UCSORGTOP
 10
0.0
 20
0.0
 30
0.0
  9
$UCSORGBOTTOM
 10
0.0
 20
0.0
 30
0.0
  9
$UCSORGLEFT
 10
0.0
 20
0.0
 30
0.0
  9
$UCSORGRIGHT
 10
0.0
 20
0.0
 30
0.0
  9
$UCSORGFRONT
 10
0.0
 20
0.0
 30
0.0
  9
$UCSORGBACK
 10
0.0
 20
0.0
 30
0.0
  9
$PUCSBASE
  2

  9
$PUCSNAME
  2

  9
$PUCSORG
 10
0.0
 20
0.0
 30
0.0
  9
$PUCSXDIR
 10
1.0
 20
0.0
 30
0.0
  9
$PUCSYDIR
 10
0.0
 20
1.0
 30
0.0
  9
$PUCSORTHOREF
  2

  9
$PUCSORTHOVIEW
 70
     0
  9
$PUCSORGTOP
 10
0.0
 20
0.0
 30
0.0
  9
$PUCSORGBOTTOM
 10
0.0
 20
0.0
 30
0.0
  9
$PUCSORGLEFT
 10
0.0
 20
0.0
 30
0.0
  9
$PUCSORGRIGHT
 10
0.0
 20
0.0
 30
0.0
  9
$PUCSORGFRONT
 10
0.0
 20
0.0
 30
0.0
  9
$PUCSORGBACK
 10
0.0
 20
0.0
 30
0.0
  9
$USERI1
 70
     0
  9
$USERI2
 70
     0
  9
$USERI3
 70
     0
  9
$USERI4
 70
     0
  9
$USERI5
 70
     0
  9
$USERR1
 40
0.0
  9
$USERR2
 40
0.0
  9
$USERR3
 40
0.0
  9
$USERR4
 40
0.0
  9
$USERR5
 40
0.0
  9
$WORLDVIEW
 70
     1
  9
$SHADEDGE
 70
     3
  9
$SHADEDIF
 70
    70
  9
$TILEMODE
 70
     1
  9
$MAXACTVP
 70
    64
  9
$PINSBASE
 10
0.0
 20
0.0
 30
0.0
  9
$PLIMCHECK
 70
     0
  9
$PEXTMIN
 10
1.000000E+20
 20
1.000000E+20
 30
0.0
  9
$PEXTMAX
 10
-1.000000E+20
 20
-1.000000E+20
 30
0.0
  9
$PLIMMIN
 10
0.0
 20
0.0
  9
$PLIMMAX
 10
12.0
 20
9.0
  9
$UNITMODE
 70
     0
  9
$VISRETAIN
 70
     1
  9
$PLINEGEN
 70
     0
  9
$PSLTSCALE
 70
     1
  9
$TREEDEPTH
 70
  3020
  9
$CMLSTYLE
  2
Standard
  9
$CMLJUST
 70
     0
  9
$CMLSCALE
 40
20.0
  9
$PROXYGRAPHICS
 70
     1
  9
$MEASUREMENT
 70
     1
  9
$CELWEIGHT
370
    -1
  9
$ENDCAPS
280
     0
  9
$JOINSTYLE
280
     0
  9
$LWDISPLAY
290
     0
  9
$INSUNITS
 70
     4
  9
$HYPERLINKBASE
  1

  9
$STYLESHEET
  1

  9
$XEDIT
290
     1
  9
$CEPSNTYPE
380
     0
  9
$PSTYLEMODE
290
     1
  9
$FINGERPRINTGUID
  2
{A55D58F2-E94C-4405-9DFC-55AF1F6A369D}
  9
$VERSIONGUID
  2
{FAEB1C32-E019-11D5-929B-00C0DF256EC4}
  9
$EXTNAMES
290
     1
  9
$PSVPSCALE
 40
0.0
  9
$OLESTARTUP
290
     0
  0
ENDSEC
  0
SECTION
  2
CLASSES
  0
CLASS
  1
ACDBDICTIONARYWDFLT
  2
AcDbDictionaryWithDefault
  3
ObjectDBX Classes
 90
        0
280
     0
281
     0
  0
CLASS
  1
VISUALSTYLE
  2
AcDbVisualStyle
  3
ObjectDBX Classes
 90
     4095
280
     0
281
     0
  0
CLASS
  1
SCALE
  2
AcDbScale
  3
ObjectDBX Classes
 90
     1153
280
     0
281
     0
  0
CLASS
  1
DICTIONARYVAR
  2
AcDbDictionaryVar
  3
ObjectDBX Classes
 90
        0
280
     0
281
     0
  0
CLASS
  1
ACDBPLACEHOLDER
  2
AcDbPlaceHolder
  3
ObjectDBX Classes
 90
        0
280
     0
281
     0
  0
CLASS
  1
LAYOUT
  2
AcDbLayout
  3
ObjectDBX Classes
 90
        0
280
     0
281
     0
  0
ENDSEC
  0
SECTION
  2
TABLES
  0
TABLE
  2
VPORT
  5
8
330
0
100
AcDbSymbolTable
 70
     1
  0
VPORT
  5
29
330
8
100
AcDbSymbolTableRecord
100
AcDbViewportTableRecord
  2
*Active
 70
     0
 10
0.0
 20
0.0
 11
1.0
 21
1.0
 12
121.326897
 22
67.810488
 13
0.0
 23
0.0
 14
1.0
 24
1.0
 15
0.0
 25
0.0
 16
0.0
 26
0.0
 36
1.0
 17
0.0
 27
0.0
 37
0.0
 40
134.066764
 41
1.691288
 42
50.0
 43
0.0
 44
0.0
 50
0.0
 51
0.0
 71
     0
 72
   100
 73
     1
 74
     3
 75
     0
 76
     0
 77
     0
 78
     0
281
     0
 65
     1
110
0.0
120
0.0
130
0.0
111
1.0
121
0.0
131
0.0
112
0.0
122
1.0
132
0.0
 79
     0
146
0.0
  0
ENDTAB
  0
TABLE
  2
LTYPE
  5
5
330
0
100
AcDbSymbolTable
 70
     5
  0
LTYPE
  5
14
330
5
100
AcDbSymbolTableRecord
100
AcDbLinetypeTableRecord
  2
ByBlock
 70
     0
  3

 72
    65
 73
     0
 40
0.0
  0
LTYPE
  5
15
330
5
100
AcDbSymbolTableRecord
100
AcDbLinetypeTableRecord
  2
ByLayer
 70
     0
  3

 72
    65
 73
     0
 40
0.0
  0
LTYPE
  5
16
330
5
100
AcDbSymbolTableRecord
100
AcDbLinetypeTableRecord
  2
Continuous
 70
     0
  3
Solid line
 72
    65
 73
     0
 40
0.0
  0
LTYPE
  5
5D
330
5
100
AcDbSymbolTableRecord
100
AcDbLinetypeTableRecord
  2
DASHED
 70
     0
  3
DASHED
 72
    83
 73
     2
 40
0.75
 49
0.5
 74
     0
 49
-0.25
 74
     0
  0
LTYPE
  5
5E
330
5
100
AcDbSymbolTableRecord
100
AcDbLinetypeTableRecord
  2
HIDDEN
 70
     0
  3
HIDDEN
 72
    83
 73
     2
 40
0.375
 49
0.25
 74
     0
 49
-0.125
 74
     0
  0
LTYPE
  5
5F
330
5
100
AcDbSymbolTableRecord
100
AcDbLinetypeTableRecord
  2
CENTER
 70
     0
  3
CENTER
 72
    83
 73
     4
 40
2.0
 49
1.25
 74
     0
 49
-0.25
 74
     0
 49
0.25
 74
     0
 49
-0.25
 74
     0
  0
LTYPE
  5
60
330
5
100
AcDbSymbolTableRecord
100
AcDbLinetypeTableRecord
  2
PHANTOM
 70
     0
  3
PHANTOM
 72
    83
 73
     6
 40
2.5
 49
1.25
 74
     0
 49
-0.25
 74
     0
 49
0.25
 74
     0
 49
-0.25
 74
     0
 49
0.25
 74
     0
 49
-0.25
 74
     0
  0
ENDTAB
  0
TABLE
  2
LAYER
  5
2
330
0
100
AcDbSymbolTable
 70
     2
  0
LAYER
  5
10
330
2
100
AcDbSymbolTableRecord
100
AcDbLayerTableRecord
  2
0
 70
     0
 62
     7
  6
Continuous
370
    -3
390
F
  0
LAYER
  5
61
330
2
100
AcDbSymbolTableRecord
100
AcDbLayerTableRecord
  2
001
 70
     0
 62
     7
  6
Continuous
370
    -3
390
F
  0
ENDTAB
  0
TABLE
  2
STYLE
  5
3
330
0
100
AcDbSymbolTable
 70
     2
  0
STYLE
  5
11
330
3
100
AcDbSymbolTableRecord
100
AcDbTextStyleTableRecord
  2
Standard
 70
     0
 40
0.0
 41
1.0
 50
0.0
 71
     0
 42
0.2
  3
TXT
  4
BIGFONT
  0
STYLE
  5
62
330
3
100
AcDbSymbolTableRecord
100
AcDbTextStyleTableRecord
  2
TATEGAKI
 70
     4
 40
1.0
 41
1.0
 50
0.0
 71
     0
 42
0.2
  3
TXT
  4
BIGFONT
  0
ENDTAB
  0
TABLE
  2
VIEW
  5
6
330
0
100
AcDbSymbolTable
 70
     0
  0
ENDTAB
  0
TABLE
  2
UCS
  5
7
330
0
100
AcDbSymbolTable
 70
     0
  0
ENDTAB
  0
TABLE
  2
APPID
  5
9
330
0
100
AcDbSymbolTable
 70
     1
  0
APPID
  5
12
330
9
100
AcDbSymbolTableRecord
100
AcDbRegAppTableRecord
  2
ACAD
 70
     0
  0
ENDTAB
  0
TABLE
  2
DIMSTYLE
  5
A
330
0
100
AcDbSymbolTable
 70
     2
100
AcDbDimStyleTable
  0
DIMSTYLE
105
27
330
A
100
AcDbSymbolTableRecord
100
AcDbDimStyleTableRecord
  2
ISO-25
 70
     0
 41
2.5
 42
0.625
 43
3.75
 44
1.25
 73
     0
 74
     0
 77
     1
 78
     8
140
2.5
141
2.5
143
0.03937
147
0.625
171
     3
172
     1
271
     2
272
     2
274
     3
278
    44
283
     0
284
     8
340
11
  0
DIMSTYLE
105
63
102
{ACAD_REACTORS
330
DF
330
E0
330
ED
330
EE
330
FB
330
FC
102
}
330
A
100
AcDbSymbolTableRecord
100
AcDbDimStyleTableRecord
  2
Standard
 70
     0
 41
1.5
 42
0.0
 44
2.75
 73
     0
 74
     0
 77
     1
 78
     8
 79
     2
140
4.0
146
0.8
147
1.0
172
     1
179
     1
271
     1
340
11
  0
ENDTAB
  0
TABLE
  2
BLOCK_RECORD
  5
1
330
0
100
AcDbSymbolTable
 70
     7
  0
BLOCK_RECORD
  5
1F
330
1
100
AcDbSymbolTableRecord
100
AcDbBlockTableRecord
  2
*Model_Space
340
22
  0
BLOCK_RECORD
  5
1B
330
1
100
AcDbSymbolTableRecord
100
AcDbBlockTableRecord
  2
*Paper_Space
340
1E
  0
BLOCK_RECORD
  5
23
330
1
100
AcDbSymbolTableRecord
100
AcDbBlockTableRecord
  2
*Paper_Space0
340
26
  0
BLOCK_RECORD
  5
64
330
1
100
AcDbSymbolTableRecord
100
AcDbBlockTableRecord
  2
*D1
340
0
  0
BLOCK_RECORD
  5
78
330
1
100
AcDbSymbolTableRecord
100
AcDbBlockTableRecord
  2
*D2
340
0
  0
BLOCK_RECORD
  5
8C
330
1
100
AcDbSymbolTableRecord
100
AcDbBlockTableRecord
  2
*D3
340
0
  0
BLOCK_RECORD
  5
A2
330
1
100
AcDbSymbolTableRecord
100
AcDbBlockTableRecord
  2
*D4
340
0
  0
BLOCK_RECORD
  5
B7
330
1
100
AcDbSymbolTableRecord
100
AcDbBlockTableRecord
  2
*D5
340
0
  0
BLOCK_RECORD
  5
CB
330
1
100
AcDbSymbolTableRecord
100
AcDbBlockTableRecord
  2
*D6
340
0
  0
ENDTAB
  0
ENDSEC
  0
SECTION
  2
BLOCKS
  0
BLOCK
  5
20
330
1F
100
AcDbEntity
  8
0
100
AcDbBlockBegin
  2
*Model_Space
 70
     0
 10
0.0
 20
0.0
 30
0.0
  3
*Model_Space
  1

  0
ENDBLK
  5
21
330
1F
100
AcDbEntity
  8
0
100
AcDbBlockEnd
  0
BLOCK
  5
1C
330
1B
100
AcDbEntity
 67
     1
  8
0
100
AcDbBlockBegin
  2
*Paper_Space
 70
     0
 10
0.0
 20
0.0
 30
0.0
  3
*Paper_Space
  1

  0
ENDBLK
  5
1D
330
1B
100
AcDbEntity
 67
     1
  8
0
100
AcDbBlockEnd
  0
BLOCK
  5
24
330
23
100
AcDbEntity
  8
0
100
AcDbBlockBegin
  2
*Paper_Space0
 70
     0
 10
0.0
 20
0.0
 30
0.0
  3
*Paper_Space0
  1

  0
ENDBLK
  5
25
330
23
100
AcDbEntity
  8
0
100
AcDbBlockEnd
  0
BLOCK
  5
65
330
64
100
AcDbEntity
  8
0
100
AcDbBlockBegin
  2
*D1
 70
     1
 10
0.0
 20
0.0
 30
0.0
  3
*D1
  1

  0
LINE
  5
67
330
64
100
AcDbEntity
  8
001
370
     9
100
AcDbLine
 10
206.899867
 20
92.804552
 30
0.0
 11
233.577146
 21
92.804552
 31
0.0
  0
LINE
  5
68
330
64
100
AcDbEntity
  8
001
370
     9
100
AcDbLine
 10
206.899867
 20
60.804552
 30
0.0
 11
233.577146
 21
60.804552
 31
0.0
  0
LINE
  5
69
330
64
100
AcDbEntity
  8
001
370
     9
100
AcDbLine
 10
230.827146
 20
92.804552
 30
0.0
 11
230.827146
 21
60.804552
 31
0.0
  0
POLYLINE
  5
6A
330
64
100
AcDbEntity
  8
001
370
     9
100
AcDb2dPolyline
 66
     1
 10
0.0
 20
0.0
 30
0.0
  0
VERTEX
  5
6C
330
6A
100
AcDbEntity
  8
001
370
     9
100
AcDbVertex
100
AcDb2dVertex
 10
230.425222
 20
91.304552
 30
0.0
  0
VERTEX
  5
6D
330
6A
100
AcDbEntity
  8
001
370
     9
100
AcDbVertex
100
AcDb2dVertex
 10
230.827146
 20
92.804552
 30
0.0
  0
VERTEX
  5
6E
330
6A
100
AcDbEntity
  8
001
370
     9
100
AcDbVertex
100
AcDb2dVertex
 10
231.22907
 20
91.304552
 30
0.0
  0
SEQEND
  5
6B
330
6A
100
AcDbEntity
  8
001
370
     9
  0
POLYLINE
  5
6F
330
64
100
AcDbEntity
  8
001
370
     9
100
AcDb2dPolyline
 66
     1
 10
0.0
 20
0.0
 30
0.0
  0
VERTEX
  5
71
330
6F
100
AcDbEntity
  8
001
370
     9
100
AcDbVertex
100
AcDb2dVertex
 10
231.22907
 20
62.304552
 30
0.0
  0
VERTEX
  5
72
330
6F
100
AcDbEntity
  8
001
370
     9
100
AcDbVertex
100
AcDb2dVertex
 10
230.827146
 20
60.804552
 30
0.0
  0
VERTEX
  5
73
330
6F
100
AcDbEntity
  8
001
370
     9
100
AcDbVertex
100
AcDb2dVertex
 10
230.425222
 20
62.304552
 30
0.0
  0
SEQEND
  5
70
330
6F
100
AcDbEntity
  8
001
370
     9
  0
TEXT
  5
74
330
64
100
AcDbEntity
  8
001
370
    30
100
AcDbText
 10
229.827146
 20
69.60979
 30
0.0
 40
4.0
  1
%%c３２
 50
90.000003
 41
0.882353
100
AcDbText
  0
POINT
  5
75
330
64
100
AcDbEntity
  8
001
370
     9
100
AcDbPoint
 10
206.899867
 20
92.804552
 30
0.0
  0
POINT
  5
76
330
64
100
AcDbEntity
  8
001
370
     9
100
AcDbPoint
 10
206.899867
 20
60.804552
 30
0.0
  0
POINT
  5
77
330
64
100
AcDbEntity
  8
001
370
     9
100
AcDbPoint
 10
230.827146
 20
60.804552
 30
0.0
  0
ENDBLK
  5
66
330
64
100
AcDbEntity
  8
0
100
AcDbBlockEnd
  0
BLOCK
  5
79
330
78
100
AcDbEntity
  8
0
100
AcDbBlockBegin
  2
*D2
 70
     1
 10
0.0
 20
0.0
 30
0.0
  3
*D2
  1

  0
LINE
  5
7B
330
78
100
AcDbEntity
  8
001
370
     9
100
AcDbLine
 10
40.899459
 20
53.732847
 30
0.0
 11
40.899459
 21
33.538124
 31
0.0
  0
LINE
  5
7C
330
78
100
AcDbEntity
  8
001
370
     9
100
AcDbLine
 10
70.899867
 20
60.354552
 30
0.0
 11
70.899867
 21
33.538124
 31
0.0
  0
LINE
  5
7D
330
78
100
AcDbEntity
  8
001
370
     9
100
AcDbLine
 10
40.899459
 20
36.288124
 30
0.0
 11
70.899867
 21
36.288124
 31
0.0
  0
POLYLINE
  5
7E
330
78
100
AcDbEntity
  8
001
370
     9
100
AcDb2dPolyline
 66
     1
 10
0.0
 20
0.0
 30
0.0
  0
VERTEX
  5
80
330
7E
100
AcDbEntity
  8
001
370
     9
100
AcDbVertex
100
AcDb2dVertex
 10
42.399459
 20
35.8862
 30
0.0
  0
VERTEX
  5
81
330
7E
100
AcDbEntity
  8
001
370
     9
100
AcDbVertex
100
AcDb2dVertex
 10
40.899459
 20
36.288124
 30
0.0
  0
VERTEX
  5
82
330
7E
100
AcDbEntity
  8
001
370
     9
100
AcDbVertex
100
AcDb2dVertex
 10
42.399459
 20
36.690048
 30
0.0
  0
SEQEND
  5
7F
330
7E
100
AcDbEntity
  8
001
370
     9
  0
POLYLINE
  5
83
330
78
100
AcDbEntity
  8
001
370
     9
100
AcDb2dPolyline
 66
     1
 10
0.0
 20
0.0
 30
0.0
  0
VERTEX
  5
85
330
83
100
AcDbEntity
  8
001
370
     9
100
AcDbVertex
100
AcDb2dVertex
 10
69.399867
 20
36.690048
 30
0.0
  0
VERTEX
  5
86
330
83
100
AcDbEntity
  8
001
370
     9
100
AcDbVertex
100
AcDb2dVertex
 10
70.899867
 20
36.288124
 30
0.0
  0
VERTEX
  5
87
330
83
100
AcDbEntity
  8
001
370
     9
100
AcDbVertex
100
AcDb2dVertex
 10
69.399867
 20
35.8862
 30
0.0
  0
SEQEND
  5
84
330
83
100
AcDbEntity
  8
001
370
     9
  0
TEXT
  5
88
330
78
100
AcDbEntity
  8
001
370
    30
100
AcDbText
 10
51.899663
 20
37.288124
 30
0.0
 40
4.0
  1
３０
 41
0.833333
100
AcDbText
  0
POINT
  5
89
330
78
100
AcDbEntity
  8
001
370
     9
100
AcDbPoint
 10
40.899459
 20
53.732847
 30
0.0
  0
POINT
  5
8A
330
78
100
AcDbEntity
  8
001
370
     9
100
AcDbPoint
 10
70.899867
 20
60.354552
 30
0.0
  0
POINT
  5
8B
330
78
100
AcDbEntity
  8
001
370
     9
100
AcDbPoint
 10
70.899867
 20
36.288124
 30
0.0
  0
ENDBLK
  5
7A
330
78
100
AcDbEntity
  8
0
100
AcDbBlockEnd
  0
BLOCK
  5
8D
330
8C
100
AcDbEntity
  8
0
100
AcDbBlockBegin
  2
*D3
 70
     1
 10
0.0
 20
0.0
 30
0.0
  3
*D3
  1

  0
LINE
  5
8F
330
8C
100
AcDbEntity
  8
001
370
     9
100
AcDbLine
 10
48.633474
 20
59.409552
 30
0.0
 11
48.633474
 21
48.009552
 31
0.0
  0
LINE
  5
90
330
8C
100
AcDbEntity
  8
001
370
     9
100
AcDbLine
 10
40.899867
 20
60.304552
 30
0.0
 11
40.899867
 21
48.009552
 31
0.0
  0
LINE
  5
91
330
8C
100
AcDbEntity
  8
001
370
     9
100
AcDbLine
 10
48.633474
 20
50.759552
 30
0.0
 11
40.899867
 21
50.759552
 31
0.0
  0
POLYLINE
  5
92
330
8C
100
AcDbEntity
  8
001
370
     9
100
AcDb2dPolyline
 66
     1
 10
0.0
 20
0.0
 30
0.0
  0
VERTEX
  5
94
330
92
100
AcDbEntity
  8
001
370
     9
100
AcDbVertex
100
AcDb2dVertex
 10
50.133474
 20
50.357629
 30
0.0
  0
VERTEX
  5
95
330
92
100
AcDbEntity
  8
001
370
     9
100
AcDbVertex
100
AcDb2dVertex
 10
48.633474
 20
50.759552
 30
0.0
  0
VERTEX
  5
96
330
92
100
AcDbEntity
  8
001
370
     9
100
AcDbVertex
100
AcDb2dVertex
 10
50.133474
 20
51.161476
 30
0.0
  0
SEQEND
  5
93
330
92
100
AcDbEntity
  8
001
370
     9
  0
POLYLINE
  5
97
330
8C
100
AcDbEntity
  8
001
370
     9
100
AcDb2dPolyline
 66
     1
 10
0.0
 20
0.0
 30
0.0
  0
VERTEX
  5
99
330
97
100
AcDbEntity
  8
001
370
     9
100
AcDbVertex
100
AcDb2dVertex
 10
39.399867
 20
51.161476
 30
0.0
  0
VERTEX
  5
9A
330
97
100
AcDbEntity
  8
001
370
     9
100
AcDbVertex
100
AcDb2dVertex
 10
40.899867
 20
50.759552
 30
0.0
  0
VERTEX
  5
9B
330
97
100
AcDbEntity
  8
001
370
     9
100
AcDbVertex
100
AcDb2dVertex
 10
39.399867
 20
50.357629
 30
0.0
  0
SEQEND
  5
98
330
97
100
AcDbEntity
  8
001
370
     9
  0
TEXT
  5
9C
330
8C
100
AcDbEntity
  8
001
370
    30
100
AcDbText
 10
18.846535
 20
51.759552
 30
0.0
 40
4.0
  1
（７．７）
 41
0.833333
100
AcDbText
  0
POINT
  5
9D
330
8C
100
AcDbEntity
  8
001
370
     9
100
AcDbPoint
 10
48.633474
 20
59.409552
 30
0.0
  0
POINT
  5
9E
330
8C
100
AcDbEntity
  8
001
370
     9
100
AcDbPoint
 10
40.899867
 20
60.304552
 30
0.0
  0
POINT
  5
9F
330
8C
100
AcDbEntity
  8
001
370
     9
100
AcDbPoint
 10
40.899867
 20
50.759552
 30
0.0
  0
LINE
  5
A0
330
8C
100
AcDbEntity
  8
001
370
     9
100
AcDbLine
 10
48.633474
 20
50.759552
 30
0.0
 11
51.133474
 21
50.759552
 31
0.0
  0
LINE
  5
A1
330
8C
100
AcDbEntity
  8
001
370
     9
100
AcDbLine
 10
40.899867
 20
50.759552
 30
0.0
 11
15.846535
 21
50.759552
 31
0.0
  0
ENDBLK
  5
8E
330
8C
100
AcDbEntity
  8
0
100
AcDbBlockEnd
  0
BLOCK
  5
A3
330
A2
100
AcDbEntity
  8
0
100
AcDbBlockBegin
  2
*D4
 70
     1
 10
0.0
 20
0.0
 30
0.0
  3
*D4
  1

  0
LINE
  5
A5
330
A2
100
AcDbEntity
  8
001
370
     9
100
AcDbLine
 10
48.522242
 20
59.602212
 30
0.0
 11
58.157657
 21
42.913183
 31
0.0
  0
LINE
  5
A6
330
A2
100
AcDbEntity
  8
001
370
     9
100
AcDbLine
 10
40.899867
 20
60.304552
 30
0.0
 11
40.899867
 21
38.288972
 31
0.0
  0
ARC
  5
A7
330
A2
100
AcDbEntity
  8
001
370
     9
100
AcDbCircle
 10
40.899867
 20
72.804552
 30
0.0
 40
31.76557999900271
100
AcDbArc
 50
270.0
 51
300.0
  0
POLYLINE
  5
A8
330
A2
100
AcDbEntity
  8
001
370
     9
100
AcDb2dPolyline
 66
     1
 10
0.0
 20
0.0
 30
0.0
  0
VERTEX
  5
AA
330
A8
100
AcDbEntity
  8
001
370
     9
100
AcDbVertex
100
AcDb2dVertex
 10
55.273587
 20
44.928353
 30
0.0
  0
VERTEX
  5
AB
330
A8
100
AcDbEntity
  8
001
370
     9
100
AcDbVertex
100
AcDb2dVertex
 10
56.782657
 20
45.294753
 30
0.0
  0
VERTEX
  5
AC
330
A8
100
AcDbEntity
  8
001
370
     9
100
AcDbVertex
100
AcDb2dVertex
 10
55.658963
 20
44.222906
 30
0.0
  0
SEQEND
  5
A9
330
A8
100
AcDbEntity
  8
001
370
     9
  0
POLYLINE
  5
AD
330
A2
100
AcDbEntity
  8
001
370
     9
100
AcDb2dPolyline
 66
     1
 10
0.0
 20
0.0
 30
0.0
  0
VERTEX
  5
AF
330
AD
100
AcDbEntity
  8
001
370
     9
100
AcDbVertex
100
AcDb2dVertex
 10
42.408938
 20
40.672572
 30
0.0
  0
VERTEX
  5
B0
330
AD
100
AcDbEntity
  8
001
370
     9
100
AcDbVertex
100
AcDb2dVertex
 10
40.899867
 20
41.038972
 30
0.0
  0
VERTEX
  5
B1
330
AD
100
AcDbEntity
  8
001
370
     9
100
AcDbVertex
100
AcDb2dVertex
 10
42.38996
 20
41.476196
 30
0.0
  0
SEQEND
  5
AE
330
AD
100
AcDbEntity
  8
001
370
     9
  0
TEXT
  5
B2
330
A2
100
AcDbEntity
  8
001
370
    30
100
AcDbText
 10
43.06703
 20
41.534369
 30
0.0
 40
4.0
  1
３０%%d
 50
15.0
 41
0.978261
100
AcDbText
  0
POINT
  5
B3
330
A2
100
AcDbEntity
  8
001
370
     9
100
AcDbPoint
 10
48.522242
 20
59.602212
 30
0.0
  0
POINT
  5
B4
330
A2
100
AcDbEntity
  8
001
370
     9
100
AcDbPoint
 10
40.899867
 20
72.804552
 30
0.0
  0
POINT
  5
B5
330
A2
100
AcDbEntity
  8
001
370
     9
100
AcDbPoint
 10
40.899867
 20
72.804552
 30
0.0
  0
POINT
  5
B6
330
A2
100
AcDbEntity
  8
001
370
     9
100
AcDbPoint
 10
40.899867
 20
60.304552
 30
0.0
  0
ENDBLK
  5
A4
330
A2
100
AcDbEntity
  8
0
100
AcDbBlockEnd
  0
BLOCK
  5
B8
330
B7
100
AcDbEntity
  8
0
100
AcDbBlockBegin
  2
*D5
 70
     1
 10
0.0
 20
0.0
 30
0.0
  3
*D5
  1

  0
LINE
  5
BA
330
B7
100
AcDbEntity
  8
001
370
     9
100
AcDbLine
 10
210.899867
 20
64.804552
 30
0.0
 11
210.899867
 21
22.410021
 31
0.0
  0
LINE
  5
BB
330
B7
100
AcDbEntity
  8
001
370
     9
100
AcDbLine
 10
40.899867
 20
60.304552
 30
0.0
 11
40.899867
 21
22.410021
 31
0.0
  0
LINE
  5
BC
330
B7
100
AcDbEntity
  8
001
370
     9
100
AcDbLine
 10
210.899867
 20
25.160021
 30
0.0
 11
40.899867
 21
25.160021
 31
0.0
  0
POLYLINE
  5
BD
330
B7
100
AcDbEntity
  8
001
370
     9
100
AcDb2dPolyline
 66
     1
 10
0.0
 20
0.0
 30
0.0
  0
VERTEX
  5
BF
330
BD
100
AcDbEntity
  8
001
370
     9
100
AcDbVertex
100
AcDb2dVertex
 10
209.399867
 20
25.561945
 30
0.0
  0
VERTEX
  5
C0
330
BD
100
AcDbEntity
  8
001
370
     9
100
AcDbVertex
100
AcDb2dVertex
 10
210.899867
 20
25.160021
 30
0.0
  0
VERTEX
  5
C1
330
BD
100
AcDbEntity
  8
001
370
     9
100
AcDbVertex
100
AcDb2dVertex
 10
209.399867
 20
24.758098
 30
0.0
  0
SEQEND
  5
BE
330
BD
100
AcDbEntity
  8
001
370
     9
  0
POLYLINE
  5
C2
330
B7
100
AcDbEntity
  8
001
370
     9
100
AcDb2dPolyline
 66
     1
 10
0.0
 20
0.0
 30
0.0
  0
VERTEX
  5
C4
330
C2
100
AcDbEntity
  8
001
370
     9
100
AcDbVertex
100
AcDb2dVertex
 10
42.399867
 20
24.758098
 30
0.0
  0
VERTEX
  5
C5
330
C2
100
AcDbEntity
  8
001
370
     9
100
AcDbVertex
100
AcDb2dVertex
 10
40.899867
 20
25.160021
 30
0.0
  0
VERTEX
  5
C6
330
C2
100
AcDbEntity
  8
001
370
     9
100
AcDbVertex
100
AcDb2dVertex
 10
42.399867
 20
25.561945
 30
0.0
  0
SEQEND
  5
C3
330
C2
100
AcDbEntity
  8
001
370
     9
  0
TEXT
  5
C7
330
B7
100
AcDbEntity
  8
001
370
    30
100
AcDbText
 10
119.899867
 20
26.160021
 30
0.0
 40
4.0
  1
１７０
 41
0.833333
100
AcDbText
  0
POINT
  5
C8
330
B7
100
AcDbEntity
  8
001
370
     9
100
AcDbPoint
 10
210.899867
 20
64.804552
 30
0.0
  0
POINT
  5
C9
330
B7
100
AcDbEntity
  8
001
370
     9
100
AcDbPoint
 10
40.899867
 20
60.304552
 30
0.0
  0
POINT
  5
CA
330
B7
100
AcDbEntity
  8
001
370
     9
100
AcDbPoint
 10
40.899867
 20
25.160021
 30
0.0
  0
ENDBLK
  5
B9
330
B7
100
AcDbEntity
  8
0
100
AcDbBlockEnd
  0
BLOCK
  5
CC
330
CB
100
AcDbEntity
  8
0
100
AcDbBlockBegin
  2
*D6
 70
     1
 10
0.0
 20
0.0
 30
0.0
  3
*D6
  1

  0
LINE
  5
CE
330
CB
100
AcDbEntity
  8
001
370
     9
100
AcDbLine
 10
70.899867
 20
58.904552
 30
0.0
 11
70.899867
 21
33.538124
 31
0.0
  0
LINE
  5
CF
330
CB
100
AcDbEntity
  8
001
370
     9
100
AcDbLine
 10
210.899867
 20
64.804552
 30
0.0
 11
210.899867
 21
33.538124
 31
0.0
  0
LINE
  5
D0
330
CB
100
AcDbEntity
  8
001
370
     9
100
AcDbLine
 10
70.899867
 20
36.288124
 30
0.0
 11
210.899867
 21
36.288124
 31
0.0
  0
POLYLINE
  5
D1
330
CB
100
AcDbEntity
  8
001
370
     9
100
AcDb2dPolyline
 66
     1
 10
0.0
 20
0.0
 30
0.0
  0
VERTEX
  5
D3
330
D1
100
AcDbEntity
  8
001
370
     9
100
AcDbVertex
100
AcDb2dVertex
 10
72.399867
 20
35.8862
 30
0.0
  0
VERTEX
  5
D4
330
D1
100
AcDbEntity
  8
001
370
     9
100
AcDbVertex
100
AcDb2dVertex
 10
70.899867
 20
36.288124
 30
0.0
  0
VERTEX
  5
D5
330
D1
100
AcDbEntity
  8
001
370
     9
100
AcDbVertex
100
AcDb2dVertex
 10
72.399867
 20
36.690048
 30
0.0
  0
SEQEND
  5
D2
330
D1
100
AcDbEntity
  8
001
370
     9
  0
POLYLINE
  5
D6
330
CB
100
AcDbEntity
  8
001
370
     9
100
AcDb2dPolyline
 66
     1
 10
0.0
 20
0.0
 30
0.0
  0
VERTEX
  5
D8
330
D6
100
AcDbEntity
  8
001
370
     9
100
AcDbVertex
100
AcDb2dVertex
 10
209.399867
 20
36.690048
 30
0.0
  0
VERTEX
  5
D9
330
D6
100
AcDbEntity
  8
001
370
     9
100
AcDbVertex
100
AcDb2dVertex
 10
210.899867
 20
36.288124
 30
0.0
  0
VERTEX
  5
DA
330
D6
100
AcDbEntity
  8
001
370
     9
100
AcDbVertex
100
AcDb2dVertex
 10
209.399867
 20
35.8862
 30
0.0
  0
SEQEND
  5
D7
330
D6
100
AcDbEntity
  8
001
370
     9
  0
TEXT
  5
DB
330
CB
100
AcDbEntity
  8
001
370
    30
100
AcDbText
 10
134.899867
 20
37.288124
 30
0.0
 40
4.0
  1
１４０
 41
0.833333
100
AcDbText
  0
POINT
  5
DC
330
CB
100
AcDbEntity
  8
001
370
     9
100
AcDbPoint
 10
70.899867
 20
58.904552
 30
0.0
  0
POINT
  5
DD
330
CB
100
AcDbEntity
  8
001
370
     9
100
AcDbPoint
 10
210.899867
 20
64.804552
 30
0.0
  0
POINT
  5
DE
330
CB
100
AcDbEntity
  8
001
370
     9
100
AcDbPoint
 10
210.899867
 20
36.288124
 30
0.0
  0
ENDBLK
  5
CD
330
CB
100
AcDbEntity
  8
0
100
AcDbBlockEnd
  0
ENDSEC
  0
SECTION
  2
ENTITIES
  0
DIMENSION
  5
DF
330
1F
100
AcDbEntity
  8
001
370
     9
100
AcDbDimension
  2
*D1
 10
230.827146
 20
60.804552
 30
0.0
 11
227.827146
 21
75.60979
 31
0.0
 70
   160
 71
     5
 42
-1.0
  3
Standard
100
AcDbAlignedDimension
 13
206.899867
 23
92.804552
 33
0.0
 14
206.899867
 24
60.804552
 34
0.0
 50
270.0
100
AcDbRotatedDimension
  0
DIMENSION
  5
E0
330
1F
100
AcDbEntity
  8
001
370
     9
100
AcDbDimension
  2
*D2
 10
70.899867
 20
36.288124
 30
0.0
 11
55.899663
 21
39.288124
 31
0.0
 70
   160
 71
     5
 42
-1.0
  3
Standard
100
AcDbAlignedDimension
 13
40.899459
 23
53.732847
 33
0.0
 14
70.899867
 24
60.354552
 34
0.0
100
AcDbRotatedDimension
  0
TEXT
  5
E1
330
1F
100
AcDbEntity
  8
001
370
    30
100
AcDbText
 10
24.750957
 20
72.804552
 30
0.0
 40
4.0
  1
%%c８
 50
90.000003
 41
0.909091
100
AcDbText
  0
POLYLINE
  5
E2
330
1F
100
AcDbEntity
  8
001
370
     9
100
AcDb2dPolyline
 66
     1
 10
0.0
 20
0.0
 30
0.0
  0
VERTEX
  5
E4
330
E2
100
AcDbEntity
  8
001
370
     9
100
AcDbVertex
100
AcDb2dVertex
 10
26.152881
 20
74.304552
 30
0.0
  0
VERTEX
  5
E5
330
E2
100
AcDbEntity
  8
001
370
     9
100
AcDbVertex
100
AcDb2dVertex
 10
25.750957
 20
72.804552
 30
0.0
  0
VERTEX
  5
E6
330
E2
100
AcDbEntity
  8
001
370
     9
100
AcDbVertex
100
AcDb2dVertex
 10
25.349033
 20
74.304552
 30
0.0
  0
SEQEND
  5
E3
330
E2
100
AcDbEntity
  8
001
370
     9
  0
LINE
  5
E7
330
1F
100
AcDbEntity
  8
001
370
     9
100
AcDbLine
 10
25.750957
 20
80.804552
 30
0.0
 11
25.750957
 21
72.804552
 31
0.0
  0
POLYLINE
  5
E8
330
1F
100
AcDbEntity
  8
001
370
     9
100
AcDb2dPolyline
 66
     1
 10
0.0
 20
0.0
 30
0.0
  0
VERTEX
  5
EA
330
E8
100
AcDbEntity
  8
001
370
     9
100
AcDbVertex
100
AcDb2dVertex
 10
40.899867
 20
72.804552
 30
0.0
  0
VERTEX
  5
EB
330
E8
100
AcDbEntity
  8
001
370
     9
100
AcDbVertex
100
AcDb2dVertex
 10
25.750957
 20
72.804552
 30
0.0
  0
VERTEX
  5
EC
330
E8
100
AcDbEntity
  8
001
370
     9
100
AcDbVertex
100
AcDb2dVertex
 10
23.000957
 20
72.804552
 30
0.0
  0
SEQEND
  5
E9
330
E8
100
AcDbEntity
  8
001
370
     9
  0
DIMENSION
  5
ED
330
1F
100
AcDbEntity
  8
001
370
     9
100
AcDbDimension
  2
*D3
 10
40.899867
 20
50.759552
 30
0.0
 11
28.846535
 21
53.759552
 31
0.0
 70
   160
 71
     5
 42
-1.0
  3
Standard
100
AcDbAlignedDimension
 13
48.633474
 23
59.409552
 33
0.0
 14
40.899867
 24
60.304552
 34
0.0
 50
180.0
100
AcDbRotatedDimension
  0
DIMENSION
  5
EE
330
1F
100
AcDbEntity
  8
001
370
     9
100
AcDbDimension
  2
*D4
 10
40.899867
 20
72.804552
 30
0.0
 11
48.344947
 21
45.019135
 31
0.0
 70
    34
 71
     5
 42
-1.0
  3
Standard
100
AcDb2LineAngularDimension
 13
48.522242
 23
59.602212
 33
0.0
 14
40.899867
 24
72.804552
 34
0.0
 15
40.899867
 25
60.304552
 35
0.0
 16
49.121404
 26
42.121358
 36
0.0
  0
TEXT
  5
EF
330
1F
100
AcDbEntity
  8
001
370
    30
100
AcDbText
 10
13.076641
 20
60.804552
 30
0.0
 40
4.0
  1
（%%c３４．７９）
 50
90.000003
 41
0.851064
100
AcDbText
  0
POLYLINE
  5
F0
330
1F
100
AcDbEntity
  8
001
370
     9
100
AcDb2dPolyline
 66
     1
 10
0.0
 20
0.0
 30
0.0
  0
VERTEX
  5
F2
330
F0
100
AcDbEntity
  8
001
370
     9
100
AcDbVertex
100
AcDb2dVertex
 10
14.478565
 20
60.909552
 30
0.0
  0
VERTEX
  5
F3
330
F0
100
AcDbEntity
  8
001
370
     9
100
AcDbVertex
100
AcDb2dVertex
 10
14.076641
 20
59.409552
 30
0.0
  0
VERTEX
  5
F4
330
F0
100
AcDbEntity
  8
001
370
     9
100
AcDbVertex
100
AcDb2dVertex
 10
13.674717
 20
60.909552
 30
0.0
  0
SEQEND
  5
F1
330
F0
100
AcDbEntity
  8
001
370
     9
  0
LINE
  5
F5
330
1F
100
AcDbEntity
  8
001
370
     9
100
AcDbLine
 10
14.076641
 20
94.199552
 30
0.0
 11
14.076641
 21
59.409552
 31
0.0
  0
POLYLINE
  5
F6
330
1F
100
AcDbEntity
  8
001
370
     9
100
AcDb2dPolyline
 66
     1
 10
0.0
 20
0.0
 30
0.0
  0
VERTEX
  5
F8
330
F6
100
AcDbEntity
  8
001
370
     9
100
AcDbVertex
100
AcDb2dVertex
 10
48.633474
 20
59.409552
 30
0.0
  0
VERTEX
  5
F9
330
F6
100
AcDbEntity
  8
001
370
     9
100
AcDbVertex
100
AcDb2dVertex
 10
14.076641
 20
59.409552
 30
0.0
  0
VERTEX
  5
FA
330
F6
100
AcDbEntity
  8
001
370
     9
100
AcDbVertex
100
AcDb2dVertex
 10
11.326641
 20
59.409552
 30
0.0
  0
SEQEND
  5
F7
330
F6
100
AcDbEntity
  8
001
370
     9
  0
DIMENSION
  5
FB
330
1F
100
AcDbEntity
  8
001
370
     9
100
AcDbDimension
  2
*D5
 10
40.899867
 20
25.160021
 30
0.0
 11
125.899867
 21
28.160021
 31
0.0
 70
   160
 71
     5
 42
-1.0
  3
Standard
100
AcDbAlignedDimension
 13
210.899867
 23
64.804552
 33
0.0
 14
40.899867
 24
60.304552
 34
0.0
 50
180.0
100
AcDbRotatedDimension
  0
DIMENSION
  5
FC
330
1F
100
AcDbEntity
  8
001
370
     9
100
AcDbDimension
  2
*D6
 10
210.899867
 20
36.288124
 30
0.0
 11
140.899867
 21
39.288124
 31
0.0
 70
   160
 71
     5
 42
-1.0
  3
Standard
100
AcDbAlignedDimension
 13
70.899867
 23
58.904552
 33
0.0
 14
210.899867
 24
64.804552
 34
0.0
100
AcDbRotatedDimension
  0
POLYLINE
  5
FD
330
1F
100
AcDbEntity
  8
001
  6
DASHED
370
    50
100
AcDb2dPolyline
 66
     1
 10
0.0
 20
0.0
 30
0.0
  0
VERTEX
  5
FF
330
FD
100
AcDbEntity
  8
001
  6
DASHED
370
    50
100
AcDbVertex
100
AcDb2dVertex
 10
41.294904
 20
79.427043
 30
0.0
  0
VERTEX
  5
100
330
FD
100
AcDbEntity
  8
001
  6
DASHED
370
    50
100
AcDbVertex
100
AcDb2dVertex
 10
41.296179
 20
79.427045
 30
0.0
  0
VERTEX
  5
101
330
FD
100
AcDbEntity
  8
001
  6
DASHED
370
    50
100
AcDbVertex
100
AcDb2dVertex
 10
41.298041
 20
79.427055
 30
0.0
  0
VERTEX
  5
102
330
FD
100
AcDbEntity
  8
001
  6
DASHED
370
    50
100
AcDbVertex
100
AcDb2dVertex
 10
41.299904
 20
79.427075
 30
0.0
  0
VERTEX
  5
103
330
FD
100
AcDbEntity
  8
001
  6
DASHED
370
    50
100
AcDbVertex
100
AcDb2dVertex
 10
41.301178
 20
79.427093
 30
0.0
  0
SEQEND
  5
FE
330
FD
100
AcDbEntity
  8
001
  6
DASHED
370
    50
  0
LINE
  5
104
330
1F
100
AcDbEntity
  8
001
370
    50
100
AcDbLine
 10
70.899867
 20
59.754552
 30
0.0
 11
70.899867
 21
93.854552
 31
0.0
  0
POLYLINE
  5
105
330
1F
100
AcDbEntity
  8
001
370
    50
100
AcDb2dPolyline
 66
     1
 10
0.0
 20
0.0
 30
0.0
  0
VERTEX
  5
107
330
105
100
AcDbEntity
  8
001
370
    50
100
AcDbVertex
100
AcDb2dVertex
 10
58.284473
 20
63.418766
 30
0.0
  0
VERTEX
  5
108
330
105
100
AcDbEntity
  8
001
370
    50
100
AcDbVertex
100
AcDb2dVertex
 10
58.37542
 20
62.795463
 30
0.0
  0
VERTEX
  5
109
330
105
100
AcDbEntity
  8
001
370
    50
100
AcDbVertex
100
AcDb2dVertex
 10
58.545836
 20
61.891577
 30
0.0
  0
VERTEX
  5
10A
330
105
100
AcDbEntity
  8
001
370
    50
100
AcDbVertex
100
AcDb2dVertex
 10
58.700617
 20
61.281357
 30
0.0
  0
VERTEX
  5
10B
330
105
100
AcDbEntity
  8
001
370
    50
100
AcDbVertex
100
AcDb2dVertex
 10
58.830731
 20
60.870793
 30
0.0
  0
SEQEND
  5
106
330
105
100
AcDbEntity
  8
001
370
    50
  0
POLYLINE
  5
10C
330
1F
100
AcDbEntity
  8
001
370
    50
100
AcDb2dPolyline
 66
     1
 10
0.0
 20
0.0
 30
0.0
  0
VERTEX
  5
10E
330
10C
100
AcDbEntity
  8
001
370
    50
100
AcDbVertex
100
AcDb2dVertex
 10
58.284473
 20
63.418766
 30
0.0
  0
VERTEX
  5
10F
330
10C
100
AcDbEntity
  8
001
370
    50
100
AcDbVertex
100
AcDb2dVertex
 10
58.689817
 20
63.447771
 30
0.0
  0
VERTEX
  5
110
330
10C
100
AcDbEntity
  8
001
370
    50
100
AcDbVertex
100
AcDb2dVertex
 10
59.282222
 20
63.490465
 30
0.0
  0
VERTEX
  5
111
330
10C
100
AcDbEntity
  8
001
370
    50
100
AcDbVertex
100
AcDb2dVertex
 10
59.871446
 20
63.533354
 30
0.0
  0
VERTEX
  5
112
330
10C
100
AcDbEntity
  8
001
370
    50
100
AcDbVertex
100
AcDb2dVertex
 10
60.274584
 20
63.562905
 30
0.0
  0
SEQEND
  5
10D
330
10C
100
AcDbEntity
  8
001
370
    50
  0
POLYLINE
  5
113
330
1F
100
AcDbEntity
  8
001
370
    50
100
AcDb2dPolyline
 66
     1
 10
0.0
 20
0.0
 30
0.0
  0
VERTEX
  5
115
330
113
100
AcDbEntity
  8
001
370
    50
100
AcDbVertex
100
AcDb2dVertex
 10
60.274584
 20
63.562905
 30
0.0
  0
VERTEX
  5
116
330
113
100
AcDbEntity
  8
001
370
    50
100
AcDbVertex
100
AcDb2dVertex
 10
61.096295
 20
64.393989
 30
0.0
  0
VERTEX
  5
117
330
113
100
AcDbEntity
  8
001
370
    50
100
AcDbVertex
100
AcDb2dVertex
 10
62.151383
 20
65.609771
 30
0.0
  0
VERTEX
  5
118
330
113
100
AcDbEntity
  8
001
370
    50
100
AcDbVertex
100
AcDb2dVertex
 10
63.017308
 20
66.837048
 30
0.0
  0
VERTEX
  5
119
330
113
100
AcDbEntity
  8
001
370
    50
100
AcDbVertex
100
AcDb2dVertex
 10
63.683752
 20
68.047478
 30
0.0
  0
VERTEX
  5
11A
330
113
100
AcDbEntity
  8
001
370
    50
100
AcDbVertex
100
AcDb2dVertex
 10
64.294296
 20
69.384121
 30
0.0
  0
VERTEX
  5
11B
330
113
100
AcDbEntity
  8
001
370
    50
100
AcDbVertex
100
AcDb2dVertex
 10
64.818191
 20
70.79092
 30
0.0
  0
VERTEX
  5
11C
330
113
100
AcDbEntity
  8
001
370
    50
100
AcDbVertex
100
AcDb2dVertex
 10
65.228243
 20
72.25721
 30
0.0
  0
VERTEX
  5
11D
330
113
100
AcDbEntity
  8
001
370
    50
100
AcDbVertex
100
AcDb2dVertex
 10
65.515094
 20
73.744315
 30
0.0
  0
VERTEX
  5
11E
330
113
100
AcDbEntity
  8
001
370
    50
100
AcDbVertex
100
AcDb2dVertex
 10
65.690709
 20
75.268793
 30
0.0
  0
VERTEX
  5
11F
330
113
100
AcDbEntity
  8
001
370
    50
100
AcDbVertex
100
AcDb2dVertex
 10
65.75013
 20
76.804552
 30
0.0
  0
VERTEX
  5
120
330
113
100
AcDbEntity
  8
001
370
    50
100
AcDbVertex
100
AcDb2dVertex
 10
65.690709
 20
78.340311
 30
0.0
  0
VERTEX
  5
121
330
113
100
AcDbEntity
  8
001
370
    50
100
AcDbVertex
100
AcDb2dVertex
 10
65.515094
 20
79.864788
 30
0.0
  0
VERTEX
  5
122
330
113
100
AcDbEntity
  8
001
370
    50
100
AcDbVertex
100
AcDb2dVertex
 10
65.228243
 20
81.351893
 30
0.0
  0
VERTEX
  5
123
330
113
100
AcDbEntity
  8
001
370
    50
100
AcDbVertex
100
AcDb2dVertex
 10
64.818191
 20
82.818183
 30
0.0
  0
VERTEX
  5
124
330
113
100
AcDbEntity
  8
001
370
    50
100
AcDbVertex
100
AcDb2dVertex
 10
64.294296
 20
84.224982
 30
0.0
  0
VERTEX
  5
125
330
113
100
AcDbEntity
  8
001
370
    50
100
AcDbVertex
100
AcDb2dVertex
 10
63.683752
 20
85.561625
 30
0.0
  0
VERTEX
  5
126
330
113
100
AcDbEntity
  8
001
370
    50
100
AcDbVertex
100
AcDb2dVertex
 10
63.017308
 20
86.772055
 30
0.0
  0
VERTEX
  5
127
330
113
100
AcDbEntity
  8
001
370
    50
100
AcDbVertex
100
AcDb2dVertex
 10
62.151383
 20
87.999333
 30
0.0
  0
VERTEX
  5
128
330
113
100
AcDbEntity
  8
001
370
    50
100
AcDbVertex
100
AcDb2dVertex
 10
61.096295
 20
89.215115
 30
0.0
  0
VERTEX
  5
129
330
113
100
AcDbEntity
  8
001
370
    50
100
AcDbVertex
100
AcDb2dVertex
 10
60.274584
 20
90.046198
 30
0.0
  0
SEQEND
  5
114
330
113
100
AcDbEntity
  8
001
370
    50
  0
LINE
  5
12A
330
1F
100
AcDbEntity
  8
001
370
    50
100
AcDbLine
 10
60.274584
 20
90.046198
 30
0.0
 11
60.274584
 21
63.562905
 31
0.0
  0
LINE
  5
12B
330
1F
100
AcDbEntity
  8
001
370
    50
100
AcDbLine
 10
210.899867
 20
64.804552
 30
0.0
 11
210.899867
 21
88.804552
 31
0.0
  0
POLYLINE
  5
12C
330
1F
100
AcDbEntity
  8
001
370
    50
100
AcDb2dPolyline
 66
     1
 10
0.0
 20
0.0
 30
0.0
  0
VERTEX
  5
12E
330
12C
100
AcDbEntity
  8
001
370
    50
100
AcDbVertex
100
AcDb2dVertex
 10
50.257198
 20
82.152253
 30
0.0
  0
VERTEX
  5
12F
330
12C
100
AcDbEntity
  8
001
370
    50
100
AcDbVertex
100
AcDb2dVertex
 10
50.454376
 20
82.162341
 30
0.0
  0
VERTEX
  5
130
330
12C
100
AcDbEntity
  8
001
370
    50
100
AcDbVertex
100
AcDb2dVertex
 10
50.724306
 20
82.192512
 30
0.0
  0
VERTEX
  5
131
330
12C
100
AcDbEntity
  8
001
370
    50
100
AcDbVertex
100
AcDb2dVertex
 10
50.963303
 20
82.242532
 30
0.0
  0
VERTEX
  5
132
330
12C
100
AcDbEntity
  8
001
370
    50
100
AcDbVertex
100
AcDb2dVertex
 10
51.177221
 20
82.312067
 30
0.0
  0
VERTEX
  5
133
330
12C
100
AcDbEntity
  8
001
370
    50
100
AcDbVertex
100
AcDb2dVertex
 10
51.391256
 20
82.400508
 30
0.0
  0
VERTEX
  5
134
330
12C
100
AcDbEntity
  8
001
370
    50
100
AcDbVertex
100
AcDb2dVertex
 10
51.602181
 20
82.507286
 30
0.0
  0
VERTEX
  5
135
330
12C
100
AcDbEntity
  8
001
370
    50
100
AcDbVertex
100
AcDb2dVertex
 10
51.80069
 20
82.631373
 30
0.0
  0
VERTEX
  5
136
330
12C
100
AcDbEntity
  8
001
370
    50
100
AcDbVertex
100
AcDb2dVertex
 10
51.986275
 20
82.772235
 30
0.0
  0
VERTEX
  5
137
330
12C
100
AcDbEntity
  8
001
370
    50
100
AcDbVertex
100
AcDb2dVertex
 10
52.15899
 20
82.928509
 30
0.0
  0
VERTEX
  5
138
330
12C
100
AcDbEntity
  8
001
370
    50
100
AcDbVertex
100
AcDb2dVertex
 10
52.317832
 20
83.098866
 30
0.0
  0
VERTEX
  5
139
330
12C
100
AcDbEntity
  8
001
370
    50
100
AcDbVertex
100
AcDb2dVertex
 10
52.460652
 20
83.281451
 30
0.0
  0
VERTEX
  5
13A
330
12C
100
AcDbEntity
  8
001
370
    50
100
AcDbVertex
100
AcDb2dVertex
 10
52.586778
 20
83.477253
 30
0.0
  0
VERTEX
  5
13B
330
12C
100
AcDbEntity
  8
001
370
    50
100
AcDbVertex
100
AcDb2dVertex
 10
52.695066
 20
83.684858
 30
0.0
  0
VERTEX
  5
13C
330
12C
100
AcDbEntity
  8
001
370
    50
100
AcDbVertex
100
AcDb2dVertex
 10
52.78494
 20
83.895899
 30
0.0
  0
VERTEX
  5
13D
330
12C
100
AcDbEntity
  8
001
370
    50
100
AcDbVertex
100
AcDb2dVertex
 10
52.855483
 20
84.10646
 30
0.0
  0
VERTEX
  5
13E
330
12C
100
AcDbEntity
  8
001
370
    50
100
AcDbVertex
100
AcDb2dVertex
 10
52.906298
 20
84.342085
 30
0.0
  0
VERTEX
  5
13F
330
12C
100
AcDbEntity
  8
001
370
    50
100
AcDbVertex
100
AcDb2dVertex
 10
52.936918
 20
84.607974
 30
0.0
  0
VERTEX
  5
140
330
12C
100
AcDbEntity
  8
001
370
    50
100
AcDbVertex
100
AcDb2dVertex
 10
52.947165
 20
84.802253
 30
0.0
  0
SEQEND
  5
12D
330
12C
100
AcDbEntity
  8
001
370
    50
  0
LINE
  5
141
330
1F
100
AcDbEntity
  8
001
370
    50
100
AcDbLine
 10
58.284473
 20
63.418766
 30
0.0
 11
58.284473
 21
69.504552
 31
0.0
  0
POLYLINE
  5
142
330
1F
100
AcDbEntity
  8
001
370
    50
100
AcDb2dPolyline
 66
     1
 10
0.0
 20
0.0
 30
0.0
  0
VERTEX
  5
144
330
142
100
AcDbEntity
  8
001
370
    50
100
AcDbVertex
100
AcDb2dVertex
 10
58.284473
 20
69.504552
 30
0.0
  0
VERTEX
  5
145
330
142
100
AcDbEntity
  8
001
370
    50
100
AcDbVertex
100
AcDb2dVertex
 10
58.249318
 20
70.184679
 30
0.0
  0
VERTEX
  5
146
330
142
100
AcDbEntity
  8
001
370
    50
100
AcDbVertex
100
AcDb2dVertex
 10
58.099557
 20
71.163766
 30
0.0
  0
VERTEX
  5
147
330
142
100
AcDbEntity
  8
001
370
    50
100
AcDbVertex
100
AcDb2dVertex
 10
57.814308
 20
72.111794
 30
0.0
  0
VERTEX
  5
148
330
142
100
AcDbEntity
  8
001
370
    50
100
AcDbVertex
100
AcDb2dVertex
 10
57.553971
 20
72.740757
 30
0.0
  0
SEQEND
  5
143
330
142
100
AcDbEntity
  8
001
370
    50
  0
POLYLINE
  5
149
330
1F
100
AcDbEntity
  8
001
370
    50
100
AcDb2dPolyline
 66
     1
 10
0.0
 20
0.0
 30
0.0
  0
VERTEX
  5
14B
330
149
100
AcDbEntity
  8
001
370
    50
100
AcDbVertex
100
AcDb2dVertex
 10
57.553971
 20
72.740757
 30
0.0
  0
VERTEX
  5
14C
330
149
100
AcDbEntity
  8
001
370
    50
100
AcDbVertex
100
AcDb2dVertex
 10
57.528052
 20
72.99905
 30
0.0
  0
VERTEX
  5
14D
330
149
100
AcDbEntity
  8
001
370
    50
100
AcDbVertex
100
AcDb2dVertex
 10
57.470639
 20
73.35152
 30
0.0
  0
VERTEX
  5
14E
330
149
100
AcDbEntity
  8
001
370
    50
100
AcDbVertex
100
AcDb2dVertex
 10
57.388539
 20
73.662062
 30
0.0
  0
VERTEX
  5
14F
330
149
100
AcDbEntity
  8
001
370
    50
100
AcDbVertex
100
AcDb2dVertex
 10
57.281969
 20
73.938115
 30
0.0
  0
VERTEX
  5
150
330
149
100
AcDbEntity
  8
001
370
    50
100
AcDbVertex
100
AcDb2dVertex
 10
57.150092
 20
74.213051
 30
0.0
  0
VERTEX
  5
151
330
149
100
AcDbEntity
  8
001
370
    50
100
AcDbVertex
100
AcDb2dVertex
 10
56.993815
 20
74.482344
 30
0.0
  0
VERTEX
  5
152
330
149
100
AcDbEntity
  8
001
370
    50
100
AcDbVertex
100
AcDb2dVertex
 10
56.814849
 20
74.734139
 30
0.0
  0
VERTEX
  5
153
330
149
100
AcDbEntity
  8
001
370
    50
100
AcDbVertex
100
AcDb2dVertex
 10
56.615117
 20
74.967323
 30
0.0
  0
VERTEX
  5
154
330
149
100
AcDbEntity
  8
001
370
    50
100
AcDbVertex
100
AcDb2dVertex
 10
56.396376
 20
75.182398
 30
0.0
  0
VERTEX
  5
155
330
149
100
AcDbEntity
  8
001
370
    50
100
AcDbVertex
100
AcDb2dVertex
 10
56.157624
 20
75.378005
 30
0.0
  0
VERTEX
  5
156
330
149
100
AcDbEntity
  8
001
370
    50
100
AcDbVertex
100
AcDb2dVertex
 10
55.900239
 20
75.551822
 30
0.0
  0
VERTEX
  5
157
330
149
100
AcDbEntity
  8
001
370
    50
100
AcDbVertex
100
AcDb2dVertex
 10
55.635529
 20
75.701649
 30
0.0
  0
VERTEX
  5
158
330
149
100
AcDbEntity
  8
001
370
    50
100
AcDbVertex
100
AcDb2dVertex
 10
55.368283
 20
75.826071
 30
0.0
  0
VERTEX
  5
159
330
149
100
AcDbEntity
  8
001
370
    50
100
AcDbVertex
100
AcDb2dVertex
 10
55.065029
 20
75.928215
 30
0.0
  0
VERTEX
  5
15A
330
149
100
AcDbEntity
  8
001
370
    50
100
AcDbVertex
100
AcDb2dVertex
 10
54.718694
 20
76.008228
 30
0.0
  0
VERTEX
  5
15B
330
149
100
AcDbEntity
  8
001
370
    50
100
AcDbVertex
100
AcDb2dVertex
 10
54.463824
 20
76.050674
 30
0.0
  0
SEQEND
  5
14A
330
149
100
AcDbEntity
  8
001
370
    50
  0
POLYLINE
  5
15C
330
1F
100
AcDbEntity
  8
001
370
    50
100
AcDb2dPolyline
 66
     1
 10
0.0
 20
0.0
 30
0.0
  0
VERTEX
  5
15E
330
15C
100
AcDbEntity
  8
001
370
    50
100
AcDbVertex
100
AcDb2dVertex
 10
54.463824
 20
76.050674
 30
0.0
  0
VERTEX
  5
15F
330
15C
100
AcDbEntity
  8
001
370
    50
100
AcDbVertex
100
AcDb2dVertex
 10
53.76626
 20
76.389656
 30
0.0
  0
VERTEX
  5
160
330
15C
100
AcDbEntity
  8
001
370
    50
100
AcDbVertex
100
AcDb2dVertex
 10
52.703511
 20
76.762166
 30
0.0
  0
VERTEX
  5
161
330
15C
100
AcDbEntity
  8
001
370
    50
100
AcDbVertex
100
AcDb2dVertex
 10
51.595259
 20
76.95821
 30
0.0
  0
VERTEX
  5
162
330
15C
100
AcDbEntity
  8
001
370
    50
100
AcDbVertex
100
AcDb2dVertex
 10
50.821556
 20
77.004552
 30
0.0
  0
SEQEND
  5
15D
330
15C
100
AcDbEntity
  8
001
370
    50
  0
LINE
  5
163
330
1F
100
AcDbEntity
  8
001
370
    50
100
AcDbLine
 10
49.163208
 20
93.852522
 30
0.0
 11
48.002432
 21
91.76702
 31
0.0
  0
LINE
  5
164
330
1F
100
AcDbEntity
  8
001
370
    50
100
AcDbLine
 10
48.002126
 20
91.766463
 30
0.0
 11
47.738702
 21
91.293185
 31
0.0
  0
POLYLINE
  5
165
330
1F
100
AcDbEntity
  8
001
370
    50
100
AcDb2dPolyline
 66
     1
 10
0.0
 20
0.0
 30
0.0
  0
VERTEX
  5
167
330
165
100
AcDbEntity
  8
001
370
    50
100
AcDbVertex
100
AcDb2dVertex
 10
52.947165
 20
84.802253
 30
0.0
  0
VERTEX
  5
168
330
165
100
AcDbEntity
  8
001
370
    50
100
AcDbVertex
100
AcDb2dVertex
 10
52.936918
 20
84.996532
 30
0.0
  0
VERTEX
  5
169
330
165
100
AcDbEntity
  8
001
370
    50
100
AcDbVertex
100
AcDb2dVertex
 10
52.906298
 20
85.262421
 30
0.0
  0
VERTEX
  5
16A
330
165
100
AcDbEntity
  8
001
370
    50
100
AcDbVertex
100
AcDb2dVertex
 10
52.855483
 20
85.498046
 30
0.0
  0
VERTEX
  5
16B
330
165
100
AcDbEntity
  8
001
370
    50
100
AcDbVertex
100
AcDb2dVertex
 10
52.78494
 20
85.708606
 30
0.0
  0
VERTEX
  5
16C
330
165
100
AcDbEntity
  8
001
370
    50
100
AcDbVertex
100
AcDb2dVertex
 10
52.695066
 20
85.919647
 30
0.0
  0
VERTEX
  5
16D
330
165
100
AcDbEntity
  8
001
370
    50
100
AcDbVertex
100
AcDb2dVertex
 10
52.586778
 20
86.127253
 30
0.0
  0
VERTEX
  5
16E
330
165
100
AcDbEntity
  8
001
370
    50
100
AcDbVertex
100
AcDb2dVertex
 10
52.460652
 20
86.323054
 30
0.0
  0
VERTEX
  5
16F
330
165
100
AcDbEntity
  8
001
370
    50
100
AcDbVertex
100
AcDb2dVertex
 10
52.317832
 20
86.50564
 30
0.0
  0
VERTEX
  5
170
330
165
100
AcDbEntity
  8
001
370
    50
100
AcDbVertex
100
AcDb2dVertex
 10
52.15899
 20
86.675996
 30
0.0
  0
VERTEX
  5
171
330
165
100
AcDbEntity
  8
001
370
    50
100
AcDbVertex
100
AcDb2dVertex
 10
51.986275
 20
86.832271
 30
0.0
  0
VERTEX
  5
172
330
165
100
AcDbEntity
  8
001
370
    50
100
AcDbVertex
100
AcDb2dVertex
 10
51.80069
 20
86.973133
 30
0.0
  0
VERTEX
  5
173
330
165
100
AcDbEntity
  8
001
370
    50
100
AcDbVertex
100
AcDb2dVertex
 10
51.602181
 20
87.09722
 30
0.0
  0
VERTEX
  5
174
330
165
100
AcDbEntity
  8
001
370
    50
100
AcDbVertex
100
AcDb2dVertex
 10
51.391256
 20
87.203998
 30
0.0
  0
VERTEX
  5
175
330
165
100
AcDbEntity
  8
001
370
    50
100
AcDbVertex
100
AcDb2dVertex
 10
51.177221
 20
87.292438
 30
0.0
  0
VERTEX
  5
176
330
165
100
AcDbEntity
  8
001
370
    50
100
AcDbVertex
100
AcDb2dVertex
 10
50.963303
 20
87.361974
 30
0.0
  0
VERTEX
  5
177
330
165
100
AcDbEntity
  8
001
370
    50
100
AcDbVertex
100
AcDb2dVertex
 10
50.724306
 20
87.411993
 30
0.0
  0
VERTEX
  5
178
330
165
100
AcDbEntity
  8
001
370
    50
100
AcDbVertex
100
AcDb2dVertex
 10
50.454376
 20
87.442165
 30
0.0
  0
VERTEX
  5
179
330
165
100
AcDbEntity
  8
001
370
    50
100
AcDbVertex
100
AcDb2dVertex
 10
50.257198
 20
87.452253
 30
0.0
  0
SEQEND
  5
166
330
165
100
AcDbEntity
  8
001
370
    50
  0
POLYLINE
  5
17A
330
1F
100
AcDbEntity
  8
001
370
    50
100
AcDb2dPolyline
 66
     1
 10
0.0
 20
0.0
 30
0.0
  0
VERTEX
  5
17C
330
17A
100
AcDbEntity
  8
001
370
    50
100
AcDbVertex
100
AcDb2dVertex
 10
50.257198
 20
87.452253
 30
0.0
  0
VERTEX
  5
17D
330
17A
100
AcDbEntity
  8
001
370
    50
100
AcDbVertex
100
AcDb2dVertex
 10
50.06002
 20
87.442165
 30
0.0
  0
VERTEX
  5
17E
330
17A
100
AcDbEntity
  8
001
370
    50
100
AcDbVertex
100
AcDb2dVertex
 10
49.79009
 20
87.411993
 30
0.0
  0
VERTEX
  5
17F
330
17A
100
AcDbEntity
  8
001
370
    50
100
AcDbVertex
100
AcDb2dVertex
 10
49.551093
 20
87.36197
 30
0.0
  0
VERTEX
  5
180
330
17A
100
AcDbEntity
  8
001
370
    50
100
AcDbVertex
100
AcDb2dVertex
 10
49.337175
 20
87.292438
 30
0.0
  0
VERTEX
  5
181
330
17A
100
AcDbEntity
  8
001
370
    50
100
AcDbVertex
100
AcDb2dVertex
 10
49.123139
 20
87.204011
 30
0.0
  0
VERTEX
  5
182
330
17A
100
AcDbEntity
  8
001
370
    50
100
AcDbVertex
100
AcDb2dVertex
 10
48.912214
 20
87.09722
 30
0.0
  0
VERTEX
  5
183
330
17A
100
AcDbEntity
  8
001
370
    50
100
AcDbVertex
100
AcDb2dVertex
 10
48.713705
 20
86.973081
 30
0.0
  0
VERTEX
  5
184
330
17A
100
AcDbEntity
  8
001
370
    50
100
AcDbVertex
100
AcDb2dVertex
 10
48.52812
 20
86.832271
 30
0.0
  0
VERTEX
  5
185
330
17A
100
AcDbEntity
  8
001
370
    50
100
AcDbVertex
100
AcDb2dVertex
 10
48.355406
 20
86.676188
 30
0.0
  0
VERTEX
  5
186
330
17A
100
AcDbEntity
  8
001
370
    50
100
AcDbVertex
100
AcDb2dVertex
 10
48.196564
 20
86.50564
 30
0.0
  0
VERTEX
  5
187
330
17A
100
AcDbEntity
  8
001
370
    50
100
AcDbVertex
100
AcDb2dVertex
 10
48.053743
 20
86.322343
 30
0.0
  0
VERTEX
  5
188
330
17A
100
AcDbEntity
  8
001
370
    50
100
AcDbVertex
100
AcDb2dVertex
 10
47.927618
 20
86.127253
 30
0.0
  0
VERTEX
  5
189
330
17A
100
AcDbEntity
  8
001
370
    50
100
AcDbVertex
100
AcDb2dVertex
 10
47.81933
 20
85.922294
 30
0.0
  0
VERTEX
  5
18A
330
17A
100
AcDbEntity
  8
001
370
    50
100
AcDbVertex
100
AcDb2dVertex
 10
47.729456
 20
85.708606
 30
0.0
  0
VERTEX
  5
18B
330
17A
100
AcDbEntity
  8
001
370
    50
100
AcDbVertex
100
AcDb2dVertex
 10
47.658913
 20
85.488195
 30
0.0
  0
VERTEX
  5
18C
330
17A
100
AcDbEntity
  8
001
370
    50
100
AcDbVertex
100
AcDb2dVertex
 10
47.608097
 20
85.262421
 30
0.0
  0
VERTEX
  5
18D
330
17A
100
AcDbEntity
  8
001
370
    50
100
AcDbVertex
100
AcDb2dVertex
 10
47.577477
 20
85.033241
 30
0.0
  0
VERTEX
  5
18E
330
17A
100
AcDbEntity
  8
001
370
    50
100
AcDbVertex
100
AcDb2dVertex
 10
47.567231
 20
84.802253
 30
0.0
  0
VERTEX
  5
18F
330
17A
100
AcDbEntity
  8
001
370
    50
100
AcDbVertex
100
AcDb2dVertex
 10
47.577477
 20
84.571264
 30
0.0
  0
VERTEX
  5
190
330
17A
100
AcDbEntity
  8
001
370
    50
100
AcDbVertex
100
AcDb2dVertex
 10
47.608097
 20
84.342085
 30
0.0
  0
VERTEX
  5
191
330
17A
100
AcDbEntity
  8
001
370
    50
100
AcDbVertex
100
AcDb2dVertex
 10
47.658913
 20
84.116311
 30
0.0
  0
VERTEX
  5
192
330
17A
100
AcDbEntity
  8
001
370
    50
100
AcDbVertex
100
AcDb2dVertex
 10
47.729456
 20
83.895899
 30
0.0
  0
VERTEX
  5
193
330
17A
100
AcDbEntity
  8
001
370
    50
100
AcDbVertex
100
AcDb2dVertex
 10
47.81933
 20
83.682212
 30
0.0
  0
VERTEX
  5
194
330
17A
100
AcDbEntity
  8
001
370
    50
100
AcDbVertex
100
AcDb2dVertex
 10
47.927618
 20
83.477253
 30
0.0
  0
VERTEX
  5
195
330
17A
100
AcDbEntity
  8
001
370
    50
100
AcDbVertex
100
AcDb2dVertex
 10
48.053743
 20
83.282163
 30
0.0
  0
VERTEX
  5
196
330
17A
100
AcDbEntity
  8
001
370
    50
100
AcDbVertex
100
AcDb2dVertex
 10
48.196564
 20
83.098866
 30
0.0
  0
VERTEX
  5
197
330
17A
100
AcDbEntity
  8
001
370
    50
100
AcDbVertex
100
AcDb2dVertex
 10
48.355406
 20
82.928318
 30
0.0
  0
VERTEX
  5
198
330
17A
100
AcDbEntity
  8
001
370
    50
100
AcDbVertex
100
AcDb2dVertex
 10
48.52812
 20
82.772235
 30
0.0
  0
VERTEX
  5
199
330
17A
100
AcDbEntity
  8
001
370
    50
100
AcDbVertex
100
AcDb2dVertex
 10
48.713705
 20
82.631424
 30
0.0
  0
VERTEX
  5
19A
330
17A
100
AcDbEntity
  8
001
370
    50
100
AcDbVertex
100
AcDb2dVertex
 10
48.912214
 20
82.507286
 30
0.0
  0
VERTEX
  5
19B
330
17A
100
AcDbEntity
  8
001
370
    50
100
AcDbVertex
100
AcDb2dVertex
 10
49.123139
 20
82.400494
 30
0.0
  0
VERTEX
  5
19C
330
17A
100
AcDbEntity
  8
001
370
    50
100
AcDbVertex
100
AcDb2dVertex
 10
49.337175
 20
82.312067
 30
0.0
  0
VERTEX
  5
19D
330
17A
100
AcDbEntity
  8
001
370
    50
100
AcDbVertex
100
AcDb2dVertex
 10
49.551093
 20
82.242536
 30
0.0
  0
VERTEX
  5
19E
330
17A
100
AcDbEntity
  8
001
370
    50
100
AcDbVertex
100
AcDb2dVertex
 10
49.79009
 20
82.192512
 30
0.0
  0
VERTEX
  5
19F
330
17A
100
AcDbEntity
  8
001
370
    50
100
AcDbVertex
100
AcDb2dVertex
 10
50.06002
 20
82.16234
 30
0.0
  0
VERTEX
  5
1A0
330
17A
100
AcDbEntity
  8
001
370
    50
100
AcDbVertex
100
AcDb2dVertex
 10
50.257198
 20
82.152253
 30
0.0
  0
SEQEND
  5
17B
330
17A
100
AcDbEntity
  8
001
370
    50
  0
LINE
  5
1A1
330
1F
100
AcDbEntity
  8
001
370
    50
100
AcDbLine
 10
50.821556
 20
77.004552
 30
0.0
 11
41.399867
 21
77.004552
 31
0.0
  0
LINE
  5
1A2
330
1F
100
AcDbEntity
  8
001
370
    50
100
AcDbLine
 10
41.643338
 20
74.18159
 30
0.0
 11
41.617015
 21
74.182011
 31
0.0
  0
LINE
  5
1A3
330
1F
100
AcDbEntity
  8
001
370
    50
100
AcDbLine
 10
73.899867
 20
60.804552
 30
0.0
 11
73.899867
 21
92.804552
 31
0.0
  0
LINE
  5
1A4
330
1F
100
AcDbEntity
  8
001
370
    50
100
AcDbLine
 10
73.899867
 20
92.304552
 30
0.0
 11
70.899867
 21
92.304552
 31
0.0
  0
LINE
  5
1A5
330
1F
100
AcDbEntity
  8
001
370
    50
100
AcDbLine
 10
70.899867
 20
61.304552
 30
0.0
 11
73.899867
 21
61.304552
 31
0.0
  0
LINE
  5
1A6
330
1F
100
AcDbEntity
  8
001
370
    50
100
AcDbLine
 10
206.899867
 20
92.804552
 30
0.0
 11
73.899867
 21
92.804552
 31
0.0
  0
LINE
  5
1A7
330
1F
100
AcDbEntity
  8
001
370
    50
100
AcDbLine
 10
206.899867
 20
60.804552
 30
0.0
 11
73.899867
 21
60.804552
 31
0.0
  0
LINE
  5
1A8
330
1F
100
AcDbEntity
  8
001
370
    50
100
AcDbLine
 10
210.899867
 20
76.804552
 30
0.0
 11
216.09602
 21
79.804552
 31
0.0
  0
LINE
  5
1A9
330
1F
100
AcDbEntity
  8
001
370
    50
100
AcDbLine
 10
210.899867
 20
76.804552
 30
0.0
 11
216.09602
 21
73.804552
 31
0.0
  0
LINE
  5
1AA
330
1F
100
AcDbEntity
  8
001
370
    50
100
AcDbLine
 10
41.399867
 20
76.804552
 30
0.0
 11
37.935766
 21
78.804552
 31
0.0
  0
LINE
  5
1AB
330
1F
100
AcDbEntity
  8
001
370
    50
100
AcDbLine
 10
41.399867
 20
76.804552
 30
0.0
 11
37.935766
 21
74.804552
 31
0.0
  0
ARC
  5
1AC
330
1F
100
AcDbEntity
  8
001
370
    50
100
AcDbCircle
 10
206.899867
 20
88.804552
 30
0.0
 40
4.0
100
AcDbArc
 50
0.0
 51
90.0
  0
ARC
  5
1AD
330
1F
100
AcDbEntity
  8
001
370
    50
100
AcDbCircle
 10
206.899867
 20
64.804552
 30
0.0
 40
4.0
100
AcDbArc
 50
270.0
 51
0.0
  0
LINE
  5
1AE
330
1F
100
AcDbEntity
  8
001
370
     9
100
AcDbLine
 10
40.899867
 20
60.304552
 30
0.0
 11
40.899867
 21
72.804552
 31
0.0
  0
LINE
  5
1AF
330
1F
100
AcDbEntity
  8
001
370
    50
100
AcDbLine
 10
56.412011
 20
73.311731
 30
0.0
 11
41.299867
 21
73.311731
 31
0.0
  0
LINE
  5
1B0
330
1F
100
AcDbEntity
  8
001
370
    50
100
AcDbLine
 10
49.189636
 20
59.602212
 30
0.0
 11
56.758421
 21
72.711731
 31
0.0
  0
ARC
  5
1B1
330
1F
100
AcDbEntity
  8
001
370
    50
100
AcDbCircle
 10
41.299867
 20
72.911731
 30
0.0
 40
0.4
100
AcDbArc
 50
90.0
 51
210.0
  0
ARC
  5
1B2
330
1F
100
AcDbEntity
  8
001
370
    50
100
AcDbCircle
 10
56.412011
 20
72.911731
 30
0.0
 40
0.4
100
AcDbArc
 50
330.0
 51
90.0
  0
CIRCLE
  5
1B3
330
1F
100
AcDbEntity
  8
001
370
    50
100
AcDbCircle
 10
48.855939
 20
68.549231
 30
0.0
 40
1.9
  0
LINE
  5
1B4
330
1F
100
AcDbEntity
  8
001
370
     9
100
AcDbLine
 10
48.633474
 20
59.409552
 30
0.0
 11
48.520371
 21
59.605451
 31
0.0
  0
LINE
  5
1B5
330
1F
100
AcDbEntity
  8
001
370
     9
100
AcDbLine
 10
40.899867
 20
72.804552
 30
0.0
 11
40.899867
 21
72.911731
 31
0.0
  0
LINE
  5
1B6
330
1F
100
AcDbEntity
  8
001
370
     9
100
AcDbLine
 10
40.953457
 20
72.711731
 30
0.0
 11
40.899867
 21
72.804552
 31
0.0
  0
LINE
  5
1B7
330
1F
100
AcDbEntity
  8
001
370
    50
100
AcDbLine
 10
48.522242
 20
59.602212
 30
0.0
 11
40.953457
 21
72.711731
 31
0.0
  0
ARC
  5
1B8
330
1F
100
AcDbEntity
  8
001
370
    50
100
AcDbCircle
 10
55.02637
 20
72.111731
 30
0.0
 40
3.0
100
AcDbArc
 50
263.578178
 51
350.280407
  0
ARC
  5
1B9
330
1F
100
AcDbEntity
  8
001
370
    50
100
AcDbCircle
 10
55.02637
 20
72.111731
 30
0.0
 40
3.0
100
AcDbArc
 50
45.469231
 51
156.421822
  0
LINE
  5
1BA
330
1F
100
AcDbEntity
  8
001
370
     9
100
AcDbLine
 10
48.633474
 20
59.409552
 30
0.0
 11
48.855939
 21
59.409552
 31
0.0
  0
ARC
  5
1BB
330
1F
100
AcDbEntity
  8
001
370
    50
100
AcDbCircle
 10
48.855939
 20
59.794872
 30
0.0
 40
0.3853203230275355
100
AcDbArc
 50
210.0
 51
330.0
  0
LINE
  5
1BC
330
1F
100
AcDbEntity
  8
001
370
    50
100
AcDbLine
 10
70.899867
 20
59.754552
 30
0.0
 11
49.27759
 21
59.754552
 31
0.0
  0
LINE
  5
1BD
330
1F
100
AcDbEntity
  8
001
370
    50
100
AcDbLine
 10
49.163208
 20
93.854552
 30
0.0
 11
70.899867
 21
93.854552
 31
0.0
  0
POLYLINE
  5
1BE
330
1F
100
AcDbEntity
  8
001
370
    50
100
AcDb2dPolyline
 66
     1
 10
0.0
 20
0.0
 30
0.0
  0
VERTEX
  5
1C0
330
1BE
100
AcDbEntity
  8
001
370
    50
100
AcDbVertex
100
AcDb2dVertex
 10
49.163208
 20
93.854552
 30
0.0
  0
VERTEX
  5
1C1
330
1BE
100
AcDbEntity
  8
001
370
    50
100
AcDbVertex
100
AcDb2dVertex
 10
48.450955
 20
92.573868
 30
0.0
  0
VERTEX
  5
1C2
330
1BE
100
AcDbEntity
  8
001
370
    50
100
AcDbVertex
100
AcDb2dVertex
 10
47.738702
 20
91.293185
 30
0.0
  0
VERTEX
  5
1C3
330
1BE
100
AcDbEntity
  8
001
370
    50
100
AcDbVertex
100
AcDb2dVertex
 10
46.420482
 20
88.922909
 30
0.0
  0
VERTEX
  5
1C4
330
1BE
100
AcDbEntity
  8
001
370
    50
100
AcDbVertex
100
AcDb2dVertex
 10
45.102305
 20
86.552604
 30
0.0
  0
VERTEX
  5
1C5
330
1BE
100
AcDbEntity
  8
001
370
    50
100
AcDbVertex
100
AcDb2dVertex
 10
44.17105
 20
84.876736
 30
0.0
  0
VERTEX
  5
1C6
330
1BE
100
AcDbEntity
  8
001
370
    50
100
AcDbVertex
100
AcDb2dVertex
 10
43.242895
 20
83.199156
 30
0.0
  0
VERTEX
  5
1C7
330
1BE
100
AcDbEntity
  8
001
370
    50
100
AcDbVertex
100
AcDb2dVertex
 10
42.319842
 20
81.518686
 30
0.0
  0
VERTEX
  5
1C8
330
1BE
100
AcDbEntity
  8
001
370
    50
100
AcDbVertex
100
AcDb2dVertex
 10
41.399867
 20
79.836518
 30
0.0
  0
SEQEND
  5
1BF
330
1BE
100
AcDbEntity
  8
001
370
    50
  0
LINE
  5
1C9
330
1F
100
AcDbEntity
  8
001
370
    50
100
AcDbLine
 10
49.163208
 20
93.852522
 30
0.0
 11
49.163208
 21
90.795965
 31
0.0
  0
POLYLINE
  5
1CA
330
1F
100
AcDbEntity
  8
001
370
    50
100
AcDb2dPolyline
 66
     1
 10
0.0
 20
0.0
 30
0.0
  0
VERTEX
  5
1CC
330
1CA
100
AcDbEntity
  8
001
370
    50
100
AcDbVertex
100
AcDb2dVertex
 10
60.274584
 20
90.046198
 30
0.0
  0
VERTEX
  5
1CD
330
1CA
100
AcDbEntity
  8
001
370
    50
100
AcDbVertex
100
AcDb2dVertex
 10
57.983079
 20
90.211299
 30
0.0
  0
VERTEX
  5
1CE
330
1CA
100
AcDbEntity
  8
001
370
    50
100
AcDbVertex
100
AcDb2dVertex
 10
54.633311
 20
90.443304
 30
0.0
  0
VERTEX
  5
1CF
330
1CA
100
AcDbEntity
  8
001
370
    50
100
AcDbVertex
100
AcDb2dVertex
 10
51.502092
 20
90.648623
 30
0.0
  0
VERTEX
  5
1D0
330
1CA
100
AcDbEntity
  8
001
370
    50
100
AcDbVertex
100
AcDb2dVertex
 10
49.163208
 20
90.795965
 30
0.0
  0
SEQEND
  5
1CB
330
1CA
100
AcDbEntity
  8
001
370
    50
  0
POLYLINE
  5
1D1
330
1F
100
AcDbEntity
  8
001
370
    50
100
AcDb2dPolyline
 66
     1
 10
0.0
 20
0.0
 30
0.0
  0
VERTEX
  5
1D3
330
1D1
100
AcDbEntity
  8
001
370
    50
100
AcDbVertex
100
AcDb2dVertex
 10
44.216112
 20
77.004552
 30
0.0
  0
VERTEX
  5
1D4
330
1D1
100
AcDbEntity
  8
001
370
    50
100
AcDbVertex
100
AcDb2dVertex
 10
44.396937
 20
78.711612
 30
0.0
  0
VERTEX
  5
1D5
330
1D1
100
AcDbEntity
  8
001
370
    50
100
AcDbVertex
100
AcDb2dVertex
 10
44.659375
 20
80.403248
 30
0.0
  0
VERTEX
  5
1D6
330
1D1
100
AcDbEntity
  8
001
370
    50
100
AcDbVertex
100
AcDb2dVertex
 10
45.170636
 20
82.410537
 30
0.0
  0
VERTEX
  5
1D7
330
1D1
100
AcDbEntity
  8
001
370
    50
100
AcDbVertex
100
AcDb2dVertex
 10
45.87356
 20
84.367868
 30
0.0
  0
VERTEX
  5
1D8
330
1D1
100
AcDbEntity
  8
001
370
    50
100
AcDbVertex
100
AcDb2dVertex
 10
46.72099
 20
86.270416
 30
0.0
  0
VERTEX
  5
1D9
330
1D1
100
AcDbEntity
  8
001
370
    50
100
AcDbVertex
100
AcDb2dVertex
 10
47.904655
 20
88.556117
 30
0.0
  0
VERTEX
  5
1DA
330
1D1
100
AcDbEntity
  8
001
370
    50
100
AcDbVertex
100
AcDb2dVertex
 10
49.163208
 20
90.795965
 30
0.0
  0
SEQEND
  5
1D2
330
1D1
100
AcDbEntity
  8
001
370
    50
  0
POLYLINE
  5
1DB
330
1F
100
AcDbEntity
  8
001
370
    50
100
AcDb2dPolyline
 66
     1
 10
0.0
 20
0.0
 30
0.0
  0
VERTEX
  5
1DD
330
1DB
100
AcDbEntity
  8
001
370
    50
100
AcDbVertex
100
AcDb2dVertex
 10
49.804067
 20
60.666438
 30
0.0
  0
VERTEX
  5
1DE
330
1DB
100
AcDbEntity
  8
001
370
    50
100
AcDbVertex
100
AcDb2dVertex
 10
51.679178
 20
60.704634
 30
0.0
  0
VERTEX
  5
1DF
330
1DB
100
AcDbEntity
  8
001
370
    50
100
AcDbVertex
100
AcDb2dVertex
 10
54.002172
 20
60.75483
 30
0.0
  0
VERTEX
  5
1E0
330
1DB
100
AcDbEntity
  8
001
370
    50
100
AcDbVertex
100
AcDb2dVertex
 10
56.869168
 20
60.822011
 30
0.0
  0
VERTEX
  5
1E1
330
1DB
100
AcDbEntity
  8
001
370
    50
100
AcDbVertex
100
AcDb2dVertex
 10
58.830731
 20
60.870793
 30
0.0
  0
SEQEND
  5
1DC
330
1DB
100
AcDbEntity
  8
001
370
    50
  0
ARC
  5
1E2
330
1F
100
AcDbEntity
  8
001
370
    50
100
AcDbCircle
 10
41.299867
 20
80.697372
 30
0.0
 40
0.4
100
AcDbArc
 50
150.0
 51
270.0
  0
LINE
  5
1E3
330
1F
100
AcDbEntity
  8
001
370
     9
100
AcDbLine
 10
48.633474
 20
94.199552
 30
0.0
 11
48.520371
 21
94.003652
 31
0.0
  0
LINE
  5
1E4
330
1F
100
AcDbEntity
  8
001
370
     9
100
AcDbLine
 10
40.899867
 20
80.804552
 30
0.0
 11
40.899867
 21
80.697372
 31
0.0
  0
LINE
  5
1E5
330
1F
100
AcDbEntity
  8
001
370
     9
100
AcDbLine
 10
40.953457
 20
80.897372
 30
0.0
 11
40.899867
 21
80.804552
 31
0.0
  0
LINE
  5
1E6
330
1F
100
AcDbEntity
  8
001
370
    50
100
AcDbLine
 10
48.522242
 20
94.006892
 30
0.0
 11
40.953457
 21
80.897372
 31
0.0
  0
LINE
  5
1E7
330
1F
100
AcDbEntity
  8
001
370
     9
100
AcDbLine
 10
48.633474
 20
94.199552
 30
0.0
 11
48.855939
 21
94.199552
 31
0.0
  0
ARC
  5
1E8
330
1F
100
AcDbEntity
  8
001
370
    50
100
AcDbCircle
 10
48.855939
 20
93.814231
 30
0.0
 40
0.3853203230275355
100
AcDbArc
 50
30.0
 51
150.0
  0
LINE
  5
1E9
330
1F
100
AcDbEntity
  8
001
370
    50
100
AcDbLine
 10
49.189636
 20
94.006892
 30
0.0
 11
49.27759
 21
93.854552
 31
0.0
  0
LINE
  5
1EA
330
1F
100
AcDbEntity
  8
001
370
    50
100
AcDbLine
 10
41.651738
 20
80.297372
 30
0.0
 11
41.299867
 21
80.297372
 31
0.0
  0
LINE
  5
1EB
330
1F
100
AcDbEntity
  8
001
370
    50
100
AcDbLine
 10
41.399867
 20
79.836518
 30
0.0
 11
41.399867
 21
73.311731
 31
0.0
  0
LINE
  5
1EC
330
1F
100
AcDbEntity
  8
001
370
    50
100
AcDbLine
 10
41.996347
 20
73.311731
 30
0.0
 11
41.399867
 21
74.781532
 31
0.0
  0
TEXT
  5
1ED
330
1F
100
AcDbEntity
  8
001
370
    30
100
AcDbText
 10
30.087368
 20
109.210944
 30
0.0
 40
4.0
  1
ＮＫ３０３０ＴＬ（ＮＥＷ）
 41
0.833333
100
AcDbText
  0
LINE
  5
1EE
330
1F
100
AcDbEntity
  8
001
  6
CENTER
370
     9
100
AcDbLine
 10
36.538141
 20
76.804552
 30
0.0
 11
218.007867
 21
76.804552
 31
0.0
  0
ENDSEC
  0
SECTION
  2
OBJECTS
  0
DICTIONARY
  5
C
330
0
100
AcDbDictionary
281
     1
  3
ACAD_GROUP
350
D
  3
ACAD_LAYOUT
350
1A
  3
ACAD_MLEADERSTYLE
350
1F2
  3
ACAD_MLINESTYLE
350
17
  3
ACAD_PLOTSETTINGS
350
19
  3
ACAD_PLOTSTYLENAME
350
E
  3
ACAD_SCALELIST
350
3B
  3
ACAD_TABLESTYLE
350
1F1
  3
ACAD_VISUALSTYLE
350
2A
  3
AcDbVariableDictionary
350
1EF
  0
DICTIONARY
  5
D
102
{ACAD_REACTORS
330
C
102
}
330
C
100
AcDbDictionary
281
     1
  0
DICTIONARY
  5
1A
102
{ACAD_REACTORS
330
C
102
}
330
C
100
AcDbDictionary
281
     1
  3
Layout1
350
1E
  3
Layout2
350
26
  3
Model
350
22
  0
DICTIONARY
  5
1F2
102
{ACAD_REACTORS
330
C
102
}
330
C
100
AcDbDictionary
281
     1
  0
DICTIONARY
  5
17
102
{ACAD_REACTORS
330
C
102
}
330
C
100
AcDbDictionary
281
     1
  3
Standard
350
18
  0
DICTIONARY
  5
19
102
{ACAD_REACTORS
330
C
102
}
330
C
100
AcDbDictionary
281
     1
  0
ACDBDICTIONARYWDFLT
  5
E
102
{ACAD_REACTORS
330
C
102
}
330
C
100
AcDbDictionary
281
     1
  3
Normal
350
F
100
AcDbDictionaryWithDefault
340
F
  0
DICTIONARY
  5
3B
102
{ACAD_REACTORS
330
C
102
}
330
C
100
AcDbDictionary
281
     1
  3
A0
350
3C
  3
A1
350
3D
  3
A2
350
3E
  3
A3
350
3F
  3
A4
350
40
  3
A5
350
41
  3
A6
350
42
  3
A7
350
43
  3
A8
350
44
  3
A9
350
45
  3
B0
350
46
  3
B1
350
47
  3
B2
350
48
  3
B3
350
49
  3
B4
350
4A
  3
B5
350
4B
  3
B6
350
4C
  3
B7
350
4D
  3
B8
350
4E
  3
B9
350
4F
  3
C0
350
50
  3
C1
350
51
  3
C2
350
52
  3
C3
350
53
  3
C4
350
54
  3
C5
350
55
  3
C6
350
56
  3
C7
350
57
  3
C8
350
58
  3
C9
350
59
  3
D0
350
5A
  3
D1
350
5B
  3
D2
350
5C
  0
DICTIONARY
  5
1F1
102
{ACAD_REACTORS
330
C
102
}
330
C
100
AcDbDictionary
281
     1
  0
DICTIONARY
  5
2A
102
{ACAD_REACTORS
330
C
102
}
330
C
100
AcDbDictionary
281
     1
  3
2dWireframe
350
2F
  3
3D Hidden
350
31
  3
3dWireframe
350
30
  3
Basic
350
32
  3
Brighten
350
36
  3
ColorChange
350
3A
  3
Conceptual
350
34
  3
Dim
350
35
  3
Facepattern
350
39
  3
Flat
350
2B
  3
FlatWithEdges
350
2C
  3
Gouraud
350
2D
  3
GouraudWithEdges
350
2E
  3
Linepattern
350
38
  3
Realistic
350
33
  3
Thicken
350
37
  0
DICTIONARY
  5
1EF
102
{ACAD_REACTORS
330
C
102
}
330
C
100
AcDbDictionary
281
     1
  3
CANNOSCALE
350
1F0
  3
PSOLHEIGHT
350
1F4
  3
PSOLWIDTH
350
1F3
  0
LAYOUT
  5
1E
102
{ACAD_REACTORS
330
1A
102
}
330
1A
100
AcDbPlotSettings
  1

  2
none_device
  4

  6

 40
0.0
 41
0.0
 42
0.0
 43
0.0
 44
0.0
 45
0.0
 46
0.0
 47
0.0
 48
0.0
 49
0.0
140
0.0
141
0.0
142
1.0
143
1.0
 70
   688
 72
     0
 73
     0
 74
     5
  7

 75
    16
147
1.0
148
0.0
149
0.0
100
AcDbLayout
  1
Layout1
 70
     1
 71
     1
 10
0.0
 20
0.0
 11
12.0
 21
9.0
 12
0.0
 22
0.0
 32
0.0
 14
1.000000E+20
 24
1.000000E+20
 34
0.0
 15
-1.000000E+20
 25
-1.000000E+20
 35
0.0
146
0.0
 13
0.0
 23
0.0
 33
0.0
 16
1.0
 26
0.0
 36
0.0
 17
0.0
 27
1.0
 37
0.0
 76
     0
330
1B
  0
LAYOUT
  5
26
102
{ACAD_REACTORS
330
1A
102
}
330
1A
100
AcDbPlotSettings
  1

  2
none_device
  4

  6

 40
0.0
 41
0.0
 42
0.0
 43
0.0
 44
0.0
 45
0.0
 46
0.0
 47
0.0
 48
0.0
 49
0.0
140
0.0
141
0.0
142
1.0
143
1.0
 70
   688
 72
     0
 73
     0
 74
     5
  7

 75
    16
147
1.0
148
0.0
149
0.0
100
AcDbLayout
  1
Layout2
 70
     1
 71
     2
 10
0.0
 20
0.0
 11
0.0
 21
0.0
 12
0.0
 22
0.0
 32
0.0
 14
0.0
 24
0.0
 34
0.0
 15
0.0
 25
0.0
 35
0.0
146
0.0
 13
0.0
 23
0.0
 33
0.0
 16
1.0
 26
0.0
 36
0.0
 17
0.0
 27
1.0
 37
0.0
 76
     0
330
23
  0
LAYOUT
  5
22
102
{ACAD_REACTORS
330
1A
102
}
330
1A
100
AcDbPlotSettings
  1

  2
none_device
  4

  6

 40
0.0
 41
0.0
 42
0.0
 43
0.0
 44
0.0
 45
0.0
 46
0.0
 47
0.0
 48
0.0
 49
0.0
140
0.0
141
0.0
142
1.0
143
1.0
 70
  1712
 72
     0
 73
     0
 74
     0
  7

 75
     0
147
1.0
148
0.0
149
0.0
100
AcDbLayout
  1
Model
 70
     1
 71
     0
 10
0.0
 20
0.0
 11
12.0
 21
9.0
 12
0.0
 22
0.0
 32
0.0
 14
9.076645
 24
22.410023
 34
0.0
 15
233.577148
 25
113.210953
 35
0.0
146
0.0
 13
0.0
 23
0.0
 33
0.0
 16
1.0
 26
0.0
 36
0.0
 17
0.0
 27
1.0
 37
0.0
 76
     0
330
1F
331
29
  0
MLINESTYLE
  5
18
102
{ACAD_REACTORS
330
17
102
}
330
17
100
AcDbMlineStyle
  2
Standard
 70
     0
  3

 62
   256
 51
90.0
 52
90.0
 71
     2
 49
0.5
 62
   256
  6
BYLAYER
 49
-0.5
 62
   256
  6
BYLAYER
  0
ACDBPLACEHOLDER
  5
F
102
{ACAD_REACTORS
330
E
102
}
330
E
  0
SCALE
  5
3C
102
{ACAD_REACTORS
330
3B
102
}
330
3B
100
AcDbScale
 70
     0
300
1:1
140
1.0
141
1.0
290
     1
  0
SCALE
  5
3D
102
{ACAD_REACTORS
330
3B
102
}
330
3B
100
AcDbScale
 70
     0
300
1:2
140
1.0
141
2.0
290
     0
  0
SCALE
  5
3E
102
{ACAD_REACTORS
330
3B
102
}
330
3B
100
AcDbScale
 70
     0
300
1:4
140
1.0
141
4.0
290
     0
  0
SCALE
  5
3F
102
{ACAD_REACTORS
330
3B
102
}
330
3B
100
AcDbScale
 70
     0
300
1:5
140
1.0
141
5.0
290
     0
  0
SCALE
  5
40
102
{ACAD_REACTORS
330
3B
102
}
330
3B
100
AcDbScale
 70
     0
300
1:8
140
1.0
141
8.0
290
     0
  0
SCALE
  5
41
102
{ACAD_REACTORS
330
3B
102
}
330
3B
100
AcDbScale
 70
     0
300
1:10
140
1.0
141
10.0
290
     0
  0
SCALE
  5
42
102
{ACAD_REACTORS
330
3B
102
}
330
3B
100
AcDbScale
 70
     0
300
1:16
140
1.0
141
16.0
290
     0
  0
SCALE
  5
43
102
{ACAD_REACTORS
330
3B
102
}
330
3B
100
AcDbScale
 70
     0
300
1:20
140
1.0
141
20.0
290
     0
  0
SCALE
  5
44
102
{ACAD_REACTORS
330
3B
102
}
330
3B
100
AcDbScale
 70
     0
300
1:30
140
1.0
141
30.0
290
     0
  0
SCALE
  5
45
102
{ACAD_REACTORS
330
3B
102
}
330
3B
100
AcDbScale
 70
     0
300
1:40
140
1.0
141
40.0
290
     0
  0
SCALE
  5
46
102
{ACAD_REACTORS
330
3B
102
}
330
3B
100
AcDbScale
 70
     0
300
1:50
140
1.0
141
50.0
290
     0
  0
SCALE
  5
47
102
{ACAD_REACTORS
330
3B
102
}
330
3B
100
AcDbScale
 70
     0
300
1:100
140
1.0
141
100.0
290
     0
  0
SCALE
  5
48
102
{ACAD_REACTORS
330
3B
102
}
330
3B
100
AcDbScale
 70
     0
300
2:1
140
2.0
141
1.0
290
     0
  0
SCALE
  5
49
102
{ACAD_REACTORS
330
3B
102
}
330
3B
100
AcDbScale
 70
     0
300
4:1
140
4.0
141
1.0
290
     0
  0
SCALE
  5
4A
102
{ACAD_REACTORS
330
3B
102
}
330
3B
100
AcDbScale
 70
     0
300
8:1
140
8.0
141
1.0
290
     0
  0
SCALE
  5
4B
102
{ACAD_REACTORS
330
3B
102
}
330
3B
100
AcDbScale
 70
     0
300
10:1
140
10.0
141
1.0
290
     0
  0
SCALE
  5
4C
102
{ACAD_REACTORS
330
3B
102
}
330
3B
100
AcDbScale
 70
     0
300
100:1
140
100.0
141
1.0
290
     0
  0
SCALE
  5
4D
102
{ACAD_REACTORS
330
3B
102
}
330
3B
100
AcDbScale
 70
     0
300
1/128" = 1'-0"
140
0.007812
141
12.0
290
     0
  0
SCALE
  5
4E
102
{ACAD_REACTORS
330
3B
102
}
330
3B
100
AcDbScale
 70
     0
300
1/64" = 1'-0"
140
0.015625
141
12.0
290
     0
  0
SCALE
  5
4F
102
{ACAD_REACTORS
330
3B
102
}
330
3B
100
AcDbScale
 70
     0
300
1/32" = 1'-0"
140
0.03125
141
12.0
290
     0
  0
SCALE
  5
50
102
{ACAD_REACTORS
330
3B
102
}
330
3B
100
AcDbScale
 70
     0
300
1/16" = 1'-0"
140
0.0625
141
12.0
290
     0
  0
SCALE
  5
51
102
{ACAD_REACTORS
330
3B
102
}
330
3B
100
AcDbScale
 70
     0
300
3/32" = 1'-0"
140
0.09375
141
12.0
290
     0
  0
SCALE
  5
52
102
{ACAD_REACTORS
330
3B
102
}
330
3B
100
AcDbScale
 70
     0
300
1/8" = 1'-0"
140
0.125
141
12.0
290
     0
  0
SCALE
  5
53
102
{ACAD_REACTORS
330
3B
102
}
330
3B
100
AcDbScale
 70
     0
300
3/16" = 1'-0"
140
0.1875
141
12.0
290
     0
  0
SCALE
  5
54
102
{ACAD_REACTORS
330
3B
102
}
330
3B
100
AcDbScale
 70
     0
300
1/4" = 1'-0"
140
0.25
141
12.0
290
     0
  0
SCALE
  5
55
102
{ACAD_REACTORS
330
3B
102
}
330
3B
100
AcDbScale
 70
     0
300
3/8" = 1'-0"
140
0.375
141
12.0
290
     0
  0
SCALE
  5
56
102
{ACAD_REACTORS
330
3B
102
}
330
3B
100
AcDbScale
 70
     0
300
1/2" = 1'-0"
140
0.5
141
12.0
290
     0
  0
SCALE
  5
57
102
{ACAD_REACTORS
330
3B
102
}
330
3B
100
AcDbScale
 70
     0
300
3/4" = 1'-0"
140
0.75
141
12.0
290
     0
  0
SCALE
  5
58
102
{ACAD_REACTORS
330
3B
102
}
330
3B
100
AcDbScale
 70
     0
300
1" = 1'-0"
140
1.0
141
12.0
290
     0
  0
SCALE
  5
59
102
{ACAD_REACTORS
330
3B
102
}
330
3B
100
AcDbScale
 70
     0
300
1-1/2" = 1'-0"
140
1.5
141
12.0
290
     0
  0
SCALE
  5
5A
102
{ACAD_REACTORS
330
3B
102
}
330
3B
100
AcDbScale
 70
     0
300
3" = 1'-0"
140
3.0
141
12.0
290
     0
  0
SCALE
  5
5B
102
{ACAD_REACTORS
330
3B
102
}
330
3B
100
AcDbScale
 70
     0
300
6" = 1'-0"
140
6.0
141
12.0
290
     0
  0
SCALE
  5
5C
102
{ACAD_REACTORS
330
3B
102
}
330
3B
100
AcDbScale
 70
     0
300
1'-0" = 1'-0"
140
12.0
141
12.0
290
     0
  0
VISUALSTYLE
  5
2F
102
{ACAD_REACTORS
330
2A
102
}
330
2A
100
AcDbVisualStyle
  2
2dWireframe
 70
     4
 71
     0
 72
     2
 73
     0
 90
        0
 40
-0.6
 41
-30.0
 62
     5
 63
     7
 74
     1
 91
        4
 64
     7
 65
   257
 75
     1
175
     1
 42
1.0
 92
        0
 66
   257
 43
1.0
 76
     1
 77
     6
 78
     2
 67
     7
 79
     5
170
     0
171
     0
290
     0
174
     0
 93
        1
 44
0.0
173
     0
291
     0
 45
0.0
1001
ACAD
1000
AcDbSavedByObjectVersion
1070
     0
  0
VISUALSTYLE
  5
31
102
{ACAD_REACTORS
330
2A
102
}
330
2A
100
AcDbVisualStyle
  2
3D Hidden
 70
     6
 71
     1
 72
     2
 73
     2
 90
        0
 40
-0.6
 41
-30.0
 62
     5
 63
     7
 74
     2
 91
        2
 64
     7
 65
   257
 75
     2
175
     1
 42
40.0
 92
        0
 66
   257
 43
1.0
 76
     1
 77
     6
 78
     2
 67
     7
 79
     3
170
     0
171
     0
290
     0
174
     0
 93
        1
 44
0.0
173
     0
291
     0
 45
0.0
1001
ACAD
1000
AcDbSavedByObjectVersion
1070
     0
  0
VISUALSTYLE
  5
30
102
{ACAD_REACTORS
330
2A
102
}
330
2A
100
AcDbVisualStyle
  2
3dWireframe
 70
     5
 71
     0
 72
     2
 73
     0
 90
        0
 40
-0.6
 41
-30.0
 62
     5
 63
     7
 74
     1
 91
        4
 64
     7
 65
   257
 75
     1
175
     1
 42
1.0
 92
        0
 66
   257
 43
1.0
 76
     1
 77
     6
 78
     2
 67
     7
 79
     5
170
     0
171
     0
290
     0
174
     0
 93
        1
 44
0.0
173
     0
291
     0
 45
0.0
1001
ACAD
1000
AcDbSavedByObjectVersion
1070
     0
  0
VISUALSTYLE
  5
32
102
{ACAD_REACTORS
330
2A
102
}
330
2A
100
AcDbVisualStyle
  2
Basic
 70
     7
 71
     1
 72
     0
 73
     1
 90
        0
 40
-0.6
 41
-30.0
 62
     5
 63
     7
 74
     0
 91
        4
 64
     7
 65
   257
 75
     1
175
     1
 42
1.0
 92
        8
 66
     7
 43
1.0
 76
     1
 77
     6
 78
     2
 67
     7
 79
     5
170
     0
171
     0
290
     0
174
     0
 93
        1
 44
0.0
173
     0
291
     1
 45
0.0
1001
ACAD
1000
AcDbSavedByObjectVersion
1070
     0
  0
VISUALSTYLE
  5
36
102
{ACAD_REACTORS
330
2A
102
}
330
2A
100
AcDbVisualStyle
  2
Brighten
 70
    12
 71
     2
 72
     2
 73
     0
 90
        0
 40
-0.6
 41
-30.0
 62
     5
 63
     7
 74
     1
 91
        4
 64
     7
 65
   257
 75
     1
175
     1
 42
1.0
 92
        8
 66
     7
 43
1.0
 76
     1
 77
     6
 78
     2
 67
     7
 79
     5
170
     0
171
     0
290
     0
174
     0
 93
        1
 44
50.0
173
     0
291
     1
 45
0.0
1001
ACAD
1000
AcDbSavedByObjectVersion
1070
     0
  0
VISUALSTYLE
  5
3A
102
{ACAD_REACTORS
330
2A
102
}
330
2A
100
AcDbVisualStyle
  2
ColorChange
 70
    16
 71
     2
 72
     2
 73
     3
 90
        0
 40
-0.6
 41
-30.0
 62
     5
 63
     8
 74
     1
 91
        4
 64
     7
 65
   257
 75
     1
175
     1
 42
1.0
 92
        8
 66
     8
 43
1.0
 76
     1
 77
     6
 78
     2
 67
     7
 79
     5
170
     0
171
     0
290
     0
174
     0
 93
        1
 44
0.0
173
     0
291
     1
 45
0.0
1001
ACAD
1000
AcDbSavedByObjectVersion
1070
     0
  0
VISUALSTYLE
  5
34
102
{ACAD_REACTORS
330
2A
102
}
330
2A
100
AcDbVisualStyle
  2
Conceptual
 70
     9
 71
     3
 72
     2
 73
     0
 90
        0
 40
-0.6
 41
-30.0
 62
     5
 63
     7
 74
     2
 91
        2
 64
     7
 65
   257
 75
     1
175
     1
 42
40.0
 92
        8
 66
     7
 43
1.0
 76
     1
 77
     6
 78
     2
 67
     7
 79
     3
170
     0
171
     0
290
     0
174
     0
 93
        1
 44
0.0
173
     0
291
     0
 45
0.0
1001
ACAD
1000
AcDbSavedByObjectVersion
1070
     0
  0
VISUALSTYLE
  5
35
102
{ACAD_REACTORS
330
2A
102
}
330
2A
100
AcDbVisualStyle
  2
Dim
 70
    11
 71
     2
 72
     2
 73
     0
 90
        0
 40
-0.6
 41
-30.0
 62
     5
 63
     7
 74
     1
 91
        4
 64
     7
 65
   257
 75
     1
175
     1
 42
1.0
 92
        8
 66
     7
 43
1.0
 76
     1
 77
     6
 78
     2
 67
     7
 79
     5
170
     0
171
     0
290
     0
174
     0
 93
        1
 44
-50.0
173
     0
291
     1
 45
0.0
1001
ACAD
1000
AcDbSavedByObjectVersion
1070
     0
  0
VISUALSTYLE
  5
39
102
{ACAD_REACTORS
330
2A
102
}
330
2A
100
AcDbVisualStyle
  2
Facepattern
 70
    15
 71
     2
 72
     2
 73
     0
 90
        0
 40
-0.6
 41
-30.0
 62
     5
 63
     7
 74
     1
 91
        4
 64
     7
 65
   257
 75
     1
175
     1
 42
1.0
 92
        8
 66
     7
 43
1.0
 76
     1
 77
     6
 78
     2
 67
     7
 79
     5
170
     0
171
     0
290
     0
174
     0
 93
        1
 44
0.0
173
     0
291
     1
 45
0.0
1001
ACAD
1000
AcDbSavedByObjectVersion
1070
     0
  0
VISUALSTYLE
  5
2B
102
{ACAD_REACTORS
330
2A
102
}
330
2A
100
AcDbVisualStyle
  2
Flat
 70
     0
 71
     2
 72
     1
 73
     1
 90
        2
 40
-0.6
 41
30.0
 62
     5
 63
     7
 74
     0
 91
        4
 64
     7
 65
   257
 75
     1
175
     1
 42
1.0
 92
        8
 66
     7
 43
1.0
 76
     1
 77
     6
 78
     2
 67
     7
 79
     5
170
     0
171
     0
290
     0
174
     0
 93
       13
 44
0.0
173
     0
291
     1
 45
0.0
1001
ACAD
1000
AcDbSavedByObjectVersion
1070
     0
  0
VISUALSTYLE
  5
2C
102
{ACAD_REACTORS
330
2A
102
}
330
2A
100
AcDbVisualStyle
  2
FlatWithEdges
 70
     1
 71
     2
 72
     1
 73
     1
 90
        2
 40
-0.6
 41
30.0
 62
     5
 63
     7
 74
     1
 91
        4
 64
     7
 65
   257
 75
     1
175
     1
 42
1.0
 92
        0
 66
   257
 43
1.0
 76
     1
 77
     6
 78
     2
 67
     7
 79
     5
170
     0
171
     0
290
     0
174
     0
 93
       13
 44
0.0
173
     0
291
     1
 45
0.0
1001
ACAD
1000
AcDbSavedByObjectVersion
1070
     0
  0
VISUALSTYLE
  5
2D
102
{ACAD_REACTORS
330
2A
102
}
330
2A
100
AcDbVisualStyle
  2
Gouraud
 70
     2
 71
     2
 72
     2
 73
     1
 90
        2
 40
-0.6
 41
30.0
 62
     5
 63
     7
 74
     0
 91
        4
 64
     7
 65
   257
 75
     1
175
     1
 42
1.0
 92
        0
 66
     7
 43
1.0
 76
     1
 77
     6
 78
     2
 67
     7
 79
     5
170
     0
171
     0
290
     0
174
     0
 93
       13
 44
0.0
173
     0
291
     1
 45
0.0
1001
ACAD
1000
AcDbSavedByObjectVersion
1070
     0
  0
VISUALSTYLE
  5
2E
102
{ACAD_REACTORS
330
2A
102
}
330
2A
100
AcDbVisualStyle
  2
GouraudWithEdges
 70
     3
 71
     2
 72
     2
 73
     1
 90
        2
 40
-0.6
 41
30.0
 62
     5
 63
     7
 74
     1
 91
        4
 64
     7
 65
   257
 75
     1
175
     1
 42
1.0
 92
        0
 66
   257
 43
1.0
 76
     1
 77
     6
 78
     2
 67
     7
 79
     5
170
     0
171
     0
290
     0
174
     0
 93
       13
 44
0.0
173
     0
291
     1
 45
0.0
1001
ACAD
1000
AcDbSavedByObjectVersion
1070
     0
  0
VISUALSTYLE
  5
38
102
{ACAD_REACTORS
330
2A
102
}
330
2A
100
AcDbVisualStyle
  2
Linepattern
 70
    14
 71
     2
 72
     2
 73
     0
 90
        0
 40
-0.6
 41
-30.0
 62
     5
 63
     7
 74
     1
 91
        4
 64
     7
 65
   257
 75
     7
175
     7
 42
1.0
 92
        8
 66
     7
 43
1.0
 76
     1
 77
     6
 78
     2
 67
     7
 79
     5
170
     0
171
     0
290
     0
174
     0
 93
        1
 44
0.0
173
     0
291
     1
 45
0.0
1001
ACAD
1000
AcDbSavedByObjectVersion
1070
     0
  0
VISUALSTYLE
  5
33
102
{ACAD_REACTORS
330
2A
102
}
330
2A
100
AcDbVisualStyle
  2
Realistic
 70
     8
 71
     2
 72
     2
 73
     0
 90
        0
 40
-0.6
 41
-30.0
 62
     5
 63
     7
 74
     1
 91
        0
 64
     7
 65
   257
 75
     1
175
     1
 42
1.0
 92
        8
 66
     8
 43
1.0
 76
     1
 77
     6
 78
     2
 67
     7
 79
     5
170
     0
171
     0
290
     0
174
     0
 93
       13
 44
0.0
173
     0
291
     0
 45
0.0
1001
ACAD
1000
AcDbSavedByObjectVersion
1070
     0
  0
VISUALSTYLE
  5
37
102
{ACAD_REACTORS
330
2A
102
}
330
2A
100
AcDbVisualStyle
  2
Thicken
 70
    13
 71
     2
 72
     2
 73
     0
 90
        0
 40
-0.6
 41
-30.0
 62
     5
 63
     7
 74
     1
 91
        4
 64
     7
 65
   257
 75
     1
175
     1
 42
1.0
 92
       12
 66
     7
 43
1.0
 76
     1
 77
     6
 78
     2
 67
     7
 79
     5
170
     0
171
     0
290
     0
174
     0
 93
        1
 44
0.0
173
     0
291
     1
 45
0.0
1001
ACAD
1000
AcDbSavedByObjectVersion
1070
     0
  0
DICTIONARYVAR
  5
1F0
102
{ACAD_REACTORS
330
1EF
102
}
330
1EF
100
DictionaryVariables
280
     0
  1
1:1
  0
DICTIONARYVAR
  5
1F4
102
{ACAD_REACTORS
330
1EF
102
}
330
1EF
100
DictionaryVariables
280
     0
  1
80.000000
  0
DICTIONARYVAR
  5
1F3
102
{ACAD_REACTORS
330
1EF
102
}
330
1EF
100
DictionaryVariables
280
     0
  1
5.000000
  0
ENDSEC
  0
EOF
